osu file format v7

[General]
AudioFilename: Gunnyuu Shissou.mp3
AudioLeadIn: 0
PreviewTime: 94616
Countdown: 0
SampleSet: Soft
StackLeniency: 0.7
Mode: 0
LetterboxInBreaks: 1

[Editor]
DistanceSpacing: 0.800000011920929
BeatDivisor: 4
GridSize: 8

[Metadata]
Title:Gunnyuu Shissou
Artist:Type-Moon
Creator:kodomonoyume
Version:Hard
Source:Fate/Stay Night
Tags:natsumerin bgm

[Difficulty]
HPDrainRate:5
CircleSize:4
OverallDifficulty:5
SliderMultiplier:1.6
SliderTickRate:1

[Events]
//Background and Video events
0,0,"bg3.jpg"
//Break Periods
2,40566,46047
2,87597,93415
//Storyboard Layer 0 (Background)
//Storyboard Layer 1 (Fail)
//Storyboard Layer 2 (Pass)
//Storyboard Layer 3 (Foreground)
//Storyboard Sound Samples
//Background Colour Transformations
3,100,163,162,255

[TimingPoints]
781,451.127819548872,4,2,0,80,1,0
7886,-100,4,2,0,80,0,0
11495,-100,4,2,0,55,0,0
11720,-100,4,2,0,80,0,0
13299,-100,4,2,0,70,0,0
15104,-100,4,2,0,55,0,0
15329,-100,4,2,0,80,0,0
18713,-100,4,2,0,55,0,0
18938,-100,4,2,0,80,0,0
20517,-100,4,2,0,70,0,0
22378,-100,4,2,0,55,0,0
22547,-100,4,2,0,80,0,0
24126,-100,4,2,0,55,0,0
24352,-100,4,2,0,80,0,0
27735,-100,4,2,0,70,0,0
29596,-100,4,2,0,80,0,0
31344,-100,4,2,0,55,0,0
31570,-100,4,2,0,80,0,0
33149,-100,4,2,0,55,0,0
33374,-100,4,2,0,80,0,0
36307,-100,4,2,0,55,0,0
36532,-100,4,2,0,80,0,0
47134,-200,4,2,0,80,0,0
52999,-200,4,2,0,55,0,0
54352,-200,4,2,0,80,0,0
61570,-100,4,2,0,80,0,0
71044,-100,4,2,0,20,0,0
76006,-100,4,2,0,90,0,0
79615,-100,4,2,0,65,0,0
79841,-100,4,2,0,90,0,0
81871,-100,4,2,0,80,0,0
83732,-100,4,2,0,30,0,0
87510,-100,4,2,0,80,0,0
94615,-100,4,2,0,80,0,1
98168,-100,4,2,0,55,0,1
98337,-100,4,2,0,80,0,1
105386,-100,4,2,0,55,0,1
105555,-100,4,2,0,80,0,1
108995,-100,4,2,0,55,0,1
109051,-100,4,2,0,55,0,0
109164,-100,4,2,0,80,0,0
110799,-100,4,2,0,55,0,0
110968,-100,4,2,0,80,0,0
114352,-100,4,2,0,55,0,0
116156,-100,4,2,0,80,0,0
117961,-100,4,2,0,55,0,0
118187,-100,4,2,0,80,0,0
119765,-100,4,2,0,55,0,0
119991,-100,4,2,0,80,0,0
122923,-100,4,2,0,55,0,0
123149,-100,4,2,0,80,0,0
127040,-100,4,2,0,55,0,0
127209,-100,4,2,0,80,0,0
127660,-100,4,2,0,55,0,0
127886,-100,4,2,0,80,0,0
128890,-100,4,2,0,20,0,0
132397,-100,4,2,0,80,0,0
138262,-100,4,2,0,65,0,0
138374,-100,4,2,0,65,0,1
138600,-100,4,2,0,65,0,0

[HitObjects]
32,320,7999,2,0,B|128:336|184:264,1,160
271,185,8901,1,2
156,127,9352,2,0,B|103:105|47:126,2,80
56,206,10254,2,0,B|109:228|165:207,2,80,0|0|2
68,78,11156,1,0
120,40,11382,1,0
184,36,11608,5,4
305,75,12059,2,0,B|389:113|388:217,1,160,0|2
367,327,12961,1,0
304,341,13187,1,0
241,328,13412,2,0,B|192:328|158:292,1,80,2|0
206,250,13863,2,0,B|190:205|126:216,1,80,0|0
89,251,14314,2,0,B|37:203|61:149,1,80,2|0
105,145,14765,2,0,B|129:86|73:55,1,80,0|0
34,47,15217,5,4
25,174,15668,2,0,B|95:244|161:258,1,160,0|2
203,137,16570,1,0
262,161,16796,1,0
253,97,17021,1,2
380,103,17472,1,0
443,94,17698,1,0
417,152,17923,1,2
359,266,18374,2,0,B|345:324|275:331,1,80
244,326,18826,5,4
125,277,19277,1,0
227,200,19728,1,2
332,127,20179,1,0
285,82,20405,1,0
221,75,20630,1,2
165,107,20856,2,0,B|124:70,2,40
135,163,21307,1,2
150,224,21532,2,0,B|96:263,2,40
191,273,21984,2,0,B|205:294|241:297,3,40,2|2|2|2
255,296,22435,5,4
314,274,22660,2,0,B|350:327,2,40,0|0|0
359,229,23111,2,0,B|406:250,4,40
364,165,23788,2,0,B|361:119|304:91,1,80,2|0
261,77,24239,5,4
195,83,24464,1,0
195,83,24577,1,0
195,83,24690,2,0,B|144:81|96:122,1,80,0|0
87,160,25141,1,0
137,199,25367,1,0
77,223,25593,1,2
125,264,25818,1,0
176,302,26044,6,0,B|232:341|335:316,1,160,0|0
446,262,26946,2,0,B|490:227|500:165,1,80,2|0
497,133,27397,2,0,B|483:88|422:63,1,80,0|2
384,72,27848,2,0,B|384:144,2,40
320,72,28299,2,0,B|320:24,2,40,2|0|0
256,72,28750,2,0,B|257:133,2,40
192,72,29202,2,0,B|128:72,3,40,2|2|2|2
152,72,29653,6,0,B|75:135|70:233,1,160
58,333,30555,1,0
121,337,30780,1,0
93,280,31006,1,2
156,284,31232,1,0
184,341,31457,6,0,B|258:340|344:303,1,160,4|0
443,232,32359,2,0,B|499:258,2,40
383,206,32811,1,2
324,179,33036,1,0
272,216,33262,5,4
222,256,33487,2,0,B|229:314,2,40,0|0|0
163,228,33938,1,0
107,195,34164,2,0,B|37:217,2,40,2|0|0
131,135,34615,1,0
163,79,34841,1,0
226,86,35066,2,0,B|294:93|329:46,1,80,2|0
303,71,35404,1,0
303,71,35517,1,0
360,41,35743,2,0,B|385:37|424:41,4,40
355,104,36420,6,0,B|325:166|384:198,1,80,4|0
394,232,36871,1,0
442,273,37096,2,0,B|495:229,2,40,0|0|0
332,338,37773,1,2
281,298,37999,2,0,B|235:335,2,40,0|0|0
153,298,38675,5,0
126,239,38901,1,0
187,223,39126,1,2
158,165,39352,1,0
217,140,39577,2,0,B|195:84,1,40
234,97,39803,2,0,B|249:50,1,40
277,66,40029,2,0,B|317:38,1,40
328,69,40254,2,0,B|391:71,1,40
411,55,47247,6,0,B|445:90|445:142,1,80,0|0
451,189,48149,1,2
445,253,48600,2,0,B|445:309|363:343,1,120,0|0
372,339,49390,1,0
372,339,49502,1,0
308,344,49953,2,0,B|260:344,2,40,2|2|2
310,279,50856,6,0,B|273:240|287:188,1,80,0|0
291,142,51758,2,0,B|306:85|417:122|431:64,1,160,0|2
475,32,53111,2,0,B|512:68|514:120,2,80,4|4|4
410,33,54465,6,0,B|358:33,1,40
337,33,54916,1,2
277,55,55367,2,0,B|247:60|238:84,1,40
226,101,55818,1,2
225,164,56269,2,0,B|225:214,1,40,0|0
225,204,56608,1,0
225,204,56720,2,0,B|211:272|99:296,1,160,0|0
40,305,58074,6,0,B|24:284|24:253,1,40
26,236,58525,2,0,B|26:109,1,120,2|0
26,116,59314,1,0
26,116,59427,1,0
80,82,59878,1,2
143,71,60329,6,0,B|123:103,2,20
171,56,60780,2,0,B|171:32,2,20
196,76,61232,2,0,B|223:104,2,20
166,133,61683,6,0,B|166:228,1,80
164,277,62134,1,2
41,314,62585,2,0,B|90:361|203:363,1,160,0|0
317,364,63487,2,0,B|362:364,2,40
252,362,63938,1,2
177,257,64390,6,0,B|224:224|241:183,1,80,0|0
187,154,64841,2,0,B|211:88|298:60,1,120,0|2
359,39,65517,2,0,B|410:17|471:57,1,80
439,103,65968,2,0,B|503:103,2,40,0|0|2
440,167,66420,2,0,B|440:215,3,40
441,207,66871,2,0,B|441:276|405:303,1,80,0|2
316,354,67547,6,0,B|257:371|210:324,1,80,0|0
239,346,67886,1,0
239,346,67999,1,0
186,309,68225,1,2
146,258,68450,2,0,B|126:235|127:209,1,40
128,223,68675,2,0,B|137:164|94:120,1,80,0|2
42,41,69352,5,0
95,76,69577,2,0,B|40:128,2,40,0|0|2
154,101,70029,1,0
214,120,70254,2,0,B|291:121,4,40,0|0|0|0|2
256,192,71156,12,0,74765
285,345,76119,6,0,B|347:351|381:324,1,80,0|2
419,303,76570,2,0,B|476:275|480:233,1,80
476,249,76908,1,0
476,249,77021,1,2
480,185,77247,2,0,B|491:115|456:58|409:45,1,160,0|2
356,42,77923,6,0,B|192:42,1,160,0|2
135,62,78600,1,0
135,62,78713,1,0
135,62,78826,1,0
96,112,79051,2,0,B|129:194|223:212,1,160
278,210,79728,1,4
400,247,80179,5,0
417,308,80405,1,0
364,344,80630,1,2
236,350,81081,2,0,B|158:350,2,40
300,349,81532,1,2
280,222,81984,5,0
321,173,82209,1,0
289,117,82435,1,2
225,118,82660,1,0
198,176,82886,2,0,B|230:224,7,40
256,192,83788,12,0,87397
256,193,94615,6,0,B|167:221|95:152,1,160
18,69,95517,1,2
143,44,95968,2,0,B|213:49|212:97,2,80,0|0|2
167,169,96871,2,0,B|97:164|98:116,2,80,0|0|2
293,185,97773,1,0
356,191,97999,1,0
417,175,98224,6,0,B|511:149|456:48,1,160,4|0
330,37,99126,1,2
242,130,99577,1,0
224,191,99803,1,0
235,254,100029,5,2
257,313,100254,2,0,B|316:333,2,40
206,352,100705,1,2
144,335,100931,2,0,B|96:367,2,40
115,277,101382,1,2
61,160,101833,6,0,B|100:65|217:54,1,160
304,38,102735,2,0,B|378:26|436:133,1,160,2|0
429,121,103299,1,0
429,121,103412,1,0
457,178,103638,2,0,B|462:280|394:332,1,160,2|0
404,323,104202,1,0
404,323,104314,1,0
343,343,104540,2,0,B|230:372|152:326,1,160,2|0
185,342,105217,1,0
131,307,105442,5,4
147,180,105893,1,0
258,242,106344,1,2
378,198,106796,2,0,B|429:169|366:99,1,80,0|0
340,87,107247,1,2
279,65,107472,2,0,B|218:35,2,40
228,104,107923,1,2
239,167,108149,2,0,B|303:202,2,40
192,210,108600,2,0,B|142:252,3,40,2|2|2|2
161,236,109051,6,0,B|92:301|18:222,1,160,4|0
25,97,109953,2,0,B|25:46,2,40,0|0|0
22,161,110405,1,2
22,224,110630,1,0
55,278,110856,6,0,B|122:339|221:345,1,160,4|0
319,300,111758,1,0
324,236,111983,1,0
320,300,112209,1,2
324,236,112435,1,0
264,265,112660,6,0,B|169:266|120:183,1,160,0|2
71,80,113562,2,0,B|18:87|-23:146,1,80,0|0
17,178,114014,2,0,B|70:171|111:112,1,80,0|2
132,97,114465,5,4
257,73,114916,1,4
206,190,115367,1,4
331,165,115818,1,4
420,73,116269,6,0,B|509:77|503:219,1,160,0|2
502,253,116946,2,0,B|502:294,4,40
447,219,117623,1,2
389,247,117848,1,0
332,217,118074,5,4
274,190,118299,2,0,B|275:137,2,40,0|0|2
214,215,118750,2,0,B|214:266,4,40
154,190,119427,1,2
91,173,119653,1,0
107,234,119878,5,4
145,285,120104,2,0,B|120:336,2,40
266,246,120780,1,2
327,229,121006,2,0,B|369:277,2,40
314,101,121683,2,0,B|320:49|370:37,1,80,2|0
359,41,122021,1,0
359,41,122134,1,0
422,44,122359,1,2
462,93,122585,2,0,B|509:82,2,40
453,156,123036,6,0,B|415:180|458:249,1,80,4|0
495,269,123487,1,0
491,333,123713,1,0
440,293,123938,1,2
398,171,124390,1,0
356,122,124615,1,0
335,182,124841,1,2
237,265,125292,5,2
228,328,125517,2,0,B|241:371,2,40
179,285,125968,1,2
127,247,126194,2,0,B|76:259,2,40
185,221,126645,2,0,B|212:187,3,40,2|2|2|2
210,189,127096,5,4
262,151,127322,2,0,B|332:157,2,40
202,126,127773,1,4
228,67,127999,1,2
228,67,128111,1,2
289,49,128337,1,2
289,49,128450,1,2
339,87,128675,1,2
339,87,128788,1,2
256,192,128901,12,0,132059
50,164,132510,6,0,B|61:110,1,40,2|0
72,96,132735,2,0,B|114:51,1,40,2|0
127,51,132961,1,2
472,216,134314,6,0,B|461:270,1,40,2|0
450,284,134540,2,0,B|408:329,1,40,2|0
395,329,134765,1,2
219,277,136119,6,0,B|158:256|150:196,1,80,2|0
155,195,136457,2,0,B|162:123|231:106,1,120,2|0
289,108,137021,6,0,B|350:129|358:189,1,80,2|0
353,190,137359,2,0,B|346:262|277:279,1,120,2|0
256,192,138374,5,4
