osu file format v7

[General]
AudioFilename: Gunnyuu Shissou.mp3
AudioLeadIn: 0
PreviewTime: 94616
Countdown: 0
SampleSet: Soft
StackLeniency: 0.7
Mode: 0
LetterboxInBreaks: 1

[Editor]
DistanceSpacing: 0.800000011920929
BeatDivisor: 4
GridSize: 8

[Metadata]
Title:Gunnyuu Shissou
Artist:Type-Moon
Creator:kodomonoyume
Version:Easy
Source:Fate/Stay Night
Tags:natsumerin bgm

[Difficulty]
HPDrainRate:3
CircleSize:3
OverallDifficulty:2
SliderMultiplier:1
SliderTickRate:0.5

[Events]
//Background and Video events
0,0,"bg1.jpg"
//Break Periods
2,61431,74559
//Storyboard Layer 0 (Background)
//Storyboard Layer 1 (Fail)
//Storyboard Layer 2 (Pass)
//Storyboard Layer 3 (Foreground)
//Storyboard Sound Samples
//Background Colour Transformations
3,100,163,162,255

[TimingPoints]
781,451.127819548872,4,2,0,100,1,0
13299,-100,4,2,0,70,0,0
13525,-100,4,2,0,100,0,0
20517,-100,4,2,0,70,0,0
20743,-100,4,2,0,100,0,0
27735,-100,4,2,0,80,0,0
29540,-100,4,2,0,100,0,0
33149,-100,4,2,0,80,0,0
36307,-100,4,2,0,100,0,0
36758,-100,4,2,0,70,0,0
47134,-100,4,2,0,100,0,0
52999,-100,4,2,0,70,0,0
53224,-100,4,2,0,100,0,0
78262,-100,4,2,0,70,0,0
78487,-100,4,2,0,100,0,0
83675,-100,4,2,0,20,0,0
87284,-100,4,2,0,80,0,0
94502,-100,4,2,0,100,0,0
94615,-100,4,2,0,100,0,1
99916,-100,4,2,0,70,0,1
101495,-100,4,2,0,100,0,1
107134,-100,4,2,0,70,0,1
107359,-100,4,2,0,100,0,1
109051,-100,4,2,0,100,0,0
110517,-100,4,2,0,70,0,0
110743,-100,4,2,0,100,0,0
112322,-100,4,2,0,70,0,0
112547,-100,4,2,0,100,0,0
117735,-100,4,2,0,70,0,0
117961,-100,4,2,0,100,0,0
119540,-100,4,2,0,70,0,0
119765,-100,4,2,0,100,0,0
123374,-100,4,2,0,20,0,0
128562,-100,4,2,0,100,0,0
138262,-100,4,2,0,70,0,0
138374,-100,4,2,0,70,0,1
138600,-100,4,2,0,70,0,0

[HitObjects]
64,272,7999,5,0
65,112,8901,1,2
210,45,9803,1,0
369,44,10705,1,2
451,181,11608,5,0
387,327,12510,1,2
227,329,13412,2,0,B|119:335|28:259|62:134,1,300,4|0
112,77,15217,5,0
269,48,16119,1,2
424,83,17021,1,0
291,172,17923,1,2
156,259,18826,5,0
292,342,19728,1,2
448,309,20630,2,0,B|552:253|534:92|421:57,1,300,4|0
360,49,22435,5,0
282,189,23337,1,2
158,87,24239,1,0
90,232,25141,1,2
218,327,26044,5,0
372,284,26946,1,2
440,139,27848,2,0,B|424:83|368:51,1,100,0|2
309,93,28750,2,0,B|325:149|381:181,1,100,2|0
386,249,29653,6,0,B|386:305|322:337,1,100,0|2
255,324,30555,1,0
143,279,31232,1,0
181,266,31457,2,0,B|245:242|245:178,1,100,0|2
272,120,32359,1,0
158,79,33036,5,0
118,69,33262,2,0,B|62:133|118:173,4,100,2|0|2|0|2
356,43,36420,6,0,B|380:35|412:43,1,50
441,58,36871,2,8,B|528:123|389:166|495:246,2,200,4|0|4
202,271,40480,6,0,B|170:255|154:223,2,50,2|0|0
343,77,42284,2,0,B|375:93|391:125,2,50,2|0|0
103,65,44089,6,0,B|79:81|79:121,2,50,2|0|0
271,235,45893,2,0,B|279:259|247:291,2,50,2|0|0
116,194,47247,6,0,B|60:162|76:98,1,100,0|2
136,62,48149,1,0
214,48,48600,1,2
333,61,49277,2,0,B|381:77|389:101,1,50
389,323,50856,6,0,B|445:299|445:243,1,100,0|2
328,217,51984,2,0,B|285:185,1,50
414,89,53111,1,4
173,91,54465,6,0,B|205:43|269:43,1,100,0|2
331,71,55367,1,0
388,126,55818,1,2
452,227,56495,2,0,B|475:245|475:286,1,50
243,337,58074,5,0
165,317,58525,1,2
81,231,59202,2,0,B|65:211|71:173,1,50,0|0
204,96,60329,2,0,B|212:32|276:104|276:104|292:8|332:56,1,200,2|0
63,169,76119,6,0,B|63:209|111:217,1,50
115,237,76570,2,0,B|163:285|259:269,1,150,2|0
366,224,77923,1,0
425,170,78374,1,6
329,97,79051,1,0
256,192,79728,1,0
216,261,80179,2,0,B|104:229|104:133|137:30|264:14|388:41|416:165|388:236|284:266,1,600
256,192,83788,12,0,86946
400,310,87397,6,0,B|432:334|464:326,2,50,2|0|0
302,90,89202,2,0,B|350:82|358:50,2,50,2|0|0
87,198,91006,6,0,B|79:166|39:150,2,50,2|0|0
324,233,92811,2,0,B|316:265|276:281,2,50,2|0|0
101,323,94615,5,0
231,230,95517,1,2
85,162,96420,1,0
216,70,97322,1,2
361,135,98224,5,0
377,294,99126,1,2
220,327,100029,2,0,B|140:263|204:175,2,150,4|2|4
296,304,101833,6,0,B|288:176|416:136,1,200,0|2
408,66,103187,2,0,B|368:26|304:50,1,100,0|2
253,97,104089,2,0,B|205:145|141:121,1,100,0|2
82,128,104991,1,0
30,188,105442,5,0
95,233,105893,1,0
39,290,106344,1,2
105,335,106796,1,0
183,318,107247,2,0,B|272:243|91:125|199:38,1,300,4|0
273,54,109051,6,0,B|321:94|377:46,1,100,0|0
416,116,109953,1,2
305,162,110630,5,4
281,194,110856,2,0,B|297:258|353:282,1,100,0|0
395,328,111758,1,2
452,222,112435,5,4
440,183,112660,2,0,B|456:119|376:111,1,100,0|0
314,138,113562,2,0,B|266:178|186:162|202:98,1,150,2|0
202,68,114465,1,2
127,40,114916,1,0
79,104,115367,1,2
136,159,115818,1,0
134,238,116269,6,0,B|70:246|54:310,1,100,0|0
120,345,117171,1,2
198,254,117848,5,4
237,261,118074,2,0,B|245:333|309:349,1,100,0|0
337,279,118976,1,2
452,244,119653,6,0,B|420:276|388:260,1,50,4|0
394,186,120329,1,2
315,200,120781,1,0
341,124,121232,1,0
261,135,121683,1,2
75,287,123036,6,0,B|83:319|131:311,1,50
256,192,123487,12,0,128450
112,136,128901,6,0,B|176:40|304:128|392:40,1,300,2|0
433,109,130705,6,0,B|489:173|545:373|409:333,1,300,2|0
334,327,132510,6,0,B|254:375|174:319|174:319|62:335|78:271,1,300,2|0
74,193,134314,6,0,B|10:145|26:33|26:33|66:89|66:89|90:57|138:57,1,300,2|0
176,109,136119,6,0,B|192:77|264:69,1,75,0|2
338,71,137021,6,0,B|378:103|426:95,1,75,0|2
255,193,138374,5,4
