osu file format v6

[General]
AudioFilename: 01 Ataraxia.mp3
AudioLeadIn: 0
PreviewTime: 88994
Countdown: 0
SampleSet: Soft
StackLeniency: 0.7
Mode: 0
LetterboxInBreaks: 1

[Editor]
DistanceSpacing: 1
BeatDivisor: 4
GridSize: 8

[Metadata]
Title:Ataraxia
Artist:Type-Moon
Creator:tieff
Version:Normal+
Source:Fate/Hollow Ataraxia
Tags:Fate/Stay Night FHA FSN Saber Rin Archer Visual Novel [DBF] DBF

[Difficulty]
HPDrainRate:3
CircleSize:4
OverallDifficulty:6
SliderMultiplier:2
SliderTickRate:1

[Events]
//Background and Video events
0,0,"KO.jpg"
Video,-12660,"Fate_Hollow_Ataraxia(HQ).avi"
//Break Periods
2,33819,35842
2,39273,40205
2,42819,44569
2,67910,74296
//Storyboard Layer 0 (Background)
//Storyboard Layer 1 (Fail)
//Storyboard Layer 2 (Pass)
//Storyboard Layer 3 (Foreground)
//Storyboard Sound Samples
//Background Colour Transformations
3,100,163,162,255

[TimingPoints]
10983,545.454545454545,4,2,0,80,1,0
12085,-100,4,2,0,70,0,0
12495,-100,4,2,0,61,0,0
12904,-100,4,2,0,50,0,0
13585,-100,4,2,0,60,0,0
13995,-100,4,2,0,50,0,0
14949,-100,4,2,0,80,0,0
16400,-100,4,2,0,40,0,0
19313,-100,4,2,0,90,0,0
21210,-100,4,2,0,76,0,0
21482,-100,4,2,0,60,0,0
21754,-100,4,2,0,45,0,0
22028,-100,4,2,0,30,0,0
22300,-100,4,2,0,45,0,0
22573,-100,4,2,0,60,0,0
22845,-100,4,2,0,74,0,0
23117,-100,4,2,0,90,0,0
46313,-100,4,1,0,65,0,0
46585,-100,4,2,0,90,0,0
47267,-100,4,1,0,66,0,0
51222,-100,4,1,0,50,0,0
51494,-100,4,2,0,70,0,0
51766,-100,4,2,0,85,0,0
52038,-100,4,2,0,100,0,0
52313,-100,4,1,0,81,0,0
52449,-100,4,1,0,63,0,1
52710,-100,4,2,0,78,0,1
52982,-100,4,1,0,63,0,1
53131,-100,4,1,0,81,0,1
53900,-100,4,2,0,66,0,1
54338,-100,4,1,0,61,0,1
54494,-100,4,2,0,81,0,1
55573,-100,4,1,0,81,0,1
55982,-100,4,1,0,60,0,1
56392,-100,4,2,0,86,0,1
58573,-100,4,1,0,59,0,1
60210,-100,4,2,0,79,0,1
60482,-100,4,2,0,88,0,1
60754,-100,4,2,0,100,0,1
61914,-100,4,1,0,49,0,1
62255,-100,4,1,0,69,0,1
62392,-100,4,2,0,84,0,1
62664,-100,4,2,0,70,0,1
62936,-100,4,1,0,61,0,1
63208,-100,4,2,0,50,0,1
63482,-100,4,1,0,50,0,1
63755,-100,4,1,0,59,0,1
64028,-100,4,2,0,70,0,1
64164,-100,4,1,0,60,0,1
65664,-100,4,2,0,80,0,1
67301,-100,4,1,0,62,0,0
75482,-100,4,2,0,62,0,0
75754,-100,4,2,0,79,0,0
76026,-100,4,2,0,97,0,0
76301,-100,4,1,0,60,0,0
76710,-100,4,2,0,81,0,0
76982,-100,4,1,0,60,0,0
77801,-100,4,2,0,79,0,0
78073,-100,4,1,0,60,0,0
80664,-100,4,2,0,79,0,0
81482,-100,4,1,0,60,0,0
82301,-100,4,2,0,80,0,0
82573,-100,4,1,0,60,0,0
84210,-100,4,2,0,60,0,0
84482,-100,4,2,0,74,0,0
84754,-100,4,2,0,91,0,0
85028,-100,4,1,0,60,0,0
85300,-100,4,2,0,80,0,0
86119,-100,4,1,0,60,0,0
86664,-100,4,2,0,76,0,0
87073,-100,4,1,0,60,0,0
88573,-100,4,2,0,60,0,0
88845,-100,4,2,0,75,0,0
89117,-100,4,2,0,100,0,0
91301,-100,4,1,0,60,0,0
91846,-100,4,1,0,50,0,0
91982,-100,4,1,0,40,0,0
92118,-100,4,1,0,29,0,0
92254,-100,4,1,0,40,0,0
92390,-100,4,1,0,51,0,0
92526,-100,4,1,0,60,0,0
95937,-100,4,2,0,60,0,0
105346,-100,4,2,0,0,0,0

[Colours]
Combo1 : 255,202,255
Combo2 : 225,225,225
Combo3 : 128,128,255

[HitObjects]
416,168,10982,2,0,B|416:344,2,150,0|2|0
328,216,12073,2,0,B|328:64,2,150,0|2|0
240,168,13164,2,0,B|240:336,2,150,0|2|0
152,208,14255,2,0,B|152:56,2,150,0|2|0
152,208,15346,5,0
80,280,15619,1,0
176,304,15892,1,0
240,232,16164,1,0
240,232,16301,1,0
256,136,16573,6,0,B|320:160|352:224|336:272,2,150
240,232,17801,2,0,B|176:208|144:144|160:96,2,150,0|0|0
320,280,19028,1,0
248,320,19437,1,0
248,320,19710,5,2
152,320,19982,1,0
184,224,20255,2,0,B|96:192|56:288,1,150
32,184,21073,6,0,B|80:80,1,100,0|2
168,136,21619,2,0,B|248:56,1,100,2|0
296,144,22164,2,0,B|400:120,1,100,0|2
392,224,22710,2,0,B|504:248,1,100,2|0
440,336,23255,1,0
440,336,23528,1,2
344,312,23801,5,0
248,328,24073,1,0
184,248,24346,1,0
256,176,24619,1,2
352,208,24892,1,0
256,176,25164,6,0,B|224:104|112:120,1,150
352,208,26255,2,0,B|424:176|408:64,1,150
240,288,27346,2,0,B|272:360|384:344,1,150
416,200,28164,5,0
320,216,28437,1,0
256,136,28710,1,0
328,64,28982,1,2
424,104,29255,1,0
416,200,29528,1,0
320,216,29801,1,0
256,136,30073,1,2
328,64,30346,1,0
424,104,30619,1,0
416,200,30892,1,0
192,168,32528,5,0
256,248,32801,1,2
184,320,33073,1,0
88,280,33346,1,0
96,184,33619,1,0
336,112,36892,6,0,B|360:224,2,100,0|0|0
256,176,37710,2,0,B|264:280,2,100,2|2|0
168,224,38528,2,0,B|152:328,2,100,0|2|0
32,192,41255,5,0
120,176,41528,1,0
208,208,41801,1,0
296,176,42073,1,0
376,208,42346,1,0
464,192,42619,1,0
312,144,45619,6,0,B|352:120|408:168|416:128,2,100
344,232,46437,1,0
256,216,46710,2,0,B|216:240|160:192|152:232,2,100,0|0|0
272,304,47528,1,0
184,296,47801,1,0
159,220,48073,5,0
88,288,48346,1,0
120,120,48892,1,0
216,136,49164,1,8
256,232,49437,1,0
336,168,49710,1,0
296,80,49983,1,0
216,136,50255,1,0
120,120,50528,1,0
120,120,51073,1,0
96,216,51346,5,8
192,232,51619,1,2
288,240,51892,1,2
384,248,52164,1,2
384,248,52437,5,0
352,104,52846,1,2
208,72,53255,1,0
208,72,53528,2,0,B|144:80|160:176|80:168,2,150,8|2|0
240,168,54619,6,0,B|232:232|144:248|152:312,2,150,2|2|0
240,168,55710,1,8
296,80,55983,2,0,B|352:176|288:296,1,200
376,336,56801,5,0
416,240,57073,1,2
408,136,57346,1,2
376,40,57619,1,0
280,32,57892,1,8
184,40,58164,1,2
112,112,58437,1,2
80,208,58710,1,0
176,184,58983,6,0,B|208:280|112:320,2,150
232,104,60073,1,8
296,184,60346,1,2
296,288,60619,1,2
216,344,60892,1,2
296,288,61164,6,0,B|352:232|408:272|440:192,1,150,0|2
360,88,61983,1,0
264,80,62255,1,8
168,120,62528,1,2
104,200,62801,1,2
96,296,63073,1,0
192,256,63346,2,0,B|264:208|344:264,2,150
264,320,64437,5,8
360,336,64710,1,0
424,256,64983,1,0
384,160,65255,1,0
288,128,65528,5,0
192,160,65801,2,0,B|80:200,2,100,0|2|0
264,224,66619,2,0,B|296:328,2,100,8|0|2
288,128,67437,1,0
288,128,67710,5,0
256,40,75346,5,0
272,144,75619,1,2
240,248,75892,1,2
256,344,76164,1,2
256,344,76437,6,0,B|320:288,1,150,0|2
368,96,77255,1,0
280,144,77528,1,8
184,160,77801,1,2
96,208,78073,1,0
32,280,78346,1,0
120,304,78619,6,0,B|208:280|256:216,1,150
96,208,79437,1,0
136,112,79710,1,8
232,72,79983,1,0
328,96,80255,1,0
328,96,80528,5,0
328,200,80801,2,0,B|328:312,2,100,0|0|2
408,144,81619,2,0,B|512:144,2,100,0|8|0
320,96,82437,2,0,B|208:96,2,100,0|0|0
256,352,84073,5,0
240,248,84346,1,2
272,144,84619,1,2
256,40,84892,1,2
256,40,85164,6,0,B|168:56|120:128|96:192|88:256|88:304,1,300
184,240,86255,2,0,B|216:136|304:112,2,150,8|0|0
288,240,87346,6,0,B|248:328|160:336,1,150
72,224,88164,1,0
104,128,88437,1,8
192,72,88710,1,2
288,88,88983,1,2
360,152,89255,1,2
328,248,89528,5,4
328,248,89801,1,0
288,336,90073,1,0
328,248,90346,2,0,B|272:224|184:288|112:240,1,200,4|0
192,168,91164,1,4
192,168,91437,1,0
232,72,91710,6,0,B|304:72,6,50
128,72,92801,1,8
80,160,93073,1,0
104,256,93346,1,0
200,288,93619,1,0
200,288,93892,5,0
256,208,94164,1,0
240,112,94437,1,0
336,144,94710,1,0
344,240,94982,1,8
288,328,95255,1,0
392,328,95528,1,0
440,240,95801,1,0
440,144,96073,6,0,B|400:80|360:64|320:48|272:32,2,200,0|0|2
344,168,97437,1,2
248,176,97710,1,2
152,160,97982,1,2
56,128,98255,6,0,B|80:216|104:232|152:272|296:296,1,300
376,256,99346,1,2
296,200,99619,1,2
224,128,99892,1,2
168,48,100164,1,2
256,208,100437,12,0,105346
