osu file format v14

[General]
AudioFilename: tytydeath.mp3
AudioLeadIn: 0
PreviewTime: -1
Countdown: 0
SampleSet: Soft
StackLeniency: 0.7
Mode: 0
LetterboxInBreaks: 1
WidescreenStoryboard: 1

[Editor]
DistanceSpacing: 0.8
BeatDivisor: 4
GridSize: 4
TimelineZoom: 1.4

[Metadata]
Title:Ty Circulation
TitleUnicode:Ty Circulation
Artist:TyTy
ArtistUnicode:TyTy
Creator:Peez
Version:autismo
Source:
Tags:oh boy its happening
BeatmapID:645624
BeatmapSetID:285912

[Difficulty]
HPDrainRate:4
CircleSize:4
OverallDifficulty:8
ApproachRate:8.6
SliderMultiplier:2.4
SliderTickRate:1

[Events]
//Background and Video events
0,0,"9d500b091e324362ba4c087616c794d5efed0e3d_full.jpg",0,0
//Break Periods
2,65700,71841
//Storyboard Layer 0 (Background)
//Storyboard Layer 1 (Fail)
//Storyboard Layer 2 (Pass)
//Storyboard Layer 3 (Foreground)
//Storyboard Sound Samples

[TimingPoints]
1500,500,4,2,0,75,1,0
9500,-66.6666666666667,4,2,0,75,0,0
57500,-55.5555555555556,4,2,0,75,0,1
75375,-55.5555555555556,4,2,0,75,0,0
75500,-55.5555555555556,4,2,0,75,0,1
76000,-55.5555555555556,4,2,0,75,0,0
76250,-55.5555555555556,4,2,0,75,0,1
78250,-55.5555555555556,4,2,0,75,0,0
78500,-55.5555555555556,4,2,0,75,0,1
79625,-55.5555555555556,4,2,0,75,0,0
79750,-55.5555555555556,4,2,0,75,0,1
80750,-55.5555555555556,4,2,0,75,0,0
81000,-55.5555555555556,4,2,0,75,0,1
81875,-55.5555555555556,4,2,0,75,0,0
82000,-55.5555555555556,4,2,0,75,0,1
82250,-55.5555555555556,4,2,0,75,0,0
83250,-55.5555555555556,4,2,0,75,0,1
84250,-55.5555555555556,4,2,0,75,0,0
84500,-55.5555555555556,4,2,0,75,0,1
85000,-55.5555555555556,4,2,0,75,0,0
85250,-55.5555555555556,4,2,0,75,0,1
85500,-55.5555555555556,4,2,0,75,0,0
85625,-55.5555555555556,4,2,0,75,0,1
86250,-55.5555555555556,4,2,0,75,0,0
86500,-55.5555555555556,4,2,0,75,0,1
87375,-55.5555555555556,4,2,0,75,0,0
87500,-55.5555555555556,4,2,0,75,0,1
87625,-55.5555555555556,4,2,0,75,0,0
87750,-55.5555555555556,4,2,0,75,0,1
91000,-100,4,2,0,75,0,0

[HitObjects]
108,132,1500,6,0,L|116:232,1,60
120,272,1750,1,0,0:0:0:0:
192,220,1875,2,0,B|248:212|248:212|328:236,1,120
380,264,2250,1,0,0:0:0:0:
456,312,2500,2,0,P|424:344|312:308,1,120
316,328,2875,1,0,0:0:0:0:
372,128,3250,1,0,0:0:0:0:
336,260,3500,2,0,P|312:284|248:288,2,60
208,308,3875,2,0,P|228:348|332:356,1,120
336,360,4250,1,0,0:0:0:0:
136,256,4500,2,0,L|-8:264,1,120
16,262,4875,1,0,0:0:0:0:
256,368,5250,1,0,0:0:0:0:
232,224,5500,6,0,L|220:152,1,60
208,88,5750,1,0,0:0:0:0:
308,180,5875,2,0,P|320:228|248:312,1,120
264,308,6250,1,0,0:0:0:0:
156,268,6375,1,0,0:0:0:0:
72,240,6500,2,0,P|80:220|128:188,1,60
192,192,6750,1,0,0:0:0:0:
128,348,6875,2,0,P|100:336|72:244,1,120
76,224,7250,1,0,0:0:0:0:
112,112,7375,1,0,0:0:0:0:
192,192,7500,2,0,L|296:184,1,60
336,180,7750,1,0,0:0:0:0:
424,160,7875,2,0,P|408:120|308:96,1,120
440,248,8250,2,0,P|480:232|504:132,1,120
376,24,8750,1,0,0:0:0:0:
272,152,9000,1,0,0:0:0:0:
96,344,9500,6,0,L|212:336,1,90.0000034332277
240,256,9750,1,0,0:0:0:0:
180,179,9875,2,0,P|145:259|185:337,1,180.000006866455
304,328,10250,2,0,L|420:320,1,90.0000034332277
448,248,10500,2,0,P|464:208|448:136,1,90.0000034332277
352,104,10750,1,0,0:0:0:0:
352,104,10875,2,0,P|348:148|364:190,1,90.0000034332277
104,92,11250,1,0,0:0:0:0:
208,56,11375,1,0,0:0:0:0:
104,92,11500,6,0,L|92:200,1,90.0000034332277
200,152,11750,1,0,0:0:0:0:
264,68,11875,2,0,P|232:52|96:108,1,180.000006866455
272,228,12250,2,0,P|296:192|296:124,1,90.0000034332277
96,176,12500,2,0,P|115:214|174:248,1,90.0000034332277
200,152,12750,1,0,0:0:0:0:
60,52,12875,2,0,L|36:236,1,180.000006866455
64,316,13250,1,0,0:0:0:0:
348,280,13500,6,0,L|492:288,1,90.0000034332277
284,368,13750,1,0,0:0:0:0:
224,272,13875,2,0,P|204:220|280:116,1,180.000006866455
352,84,14250,2,0,P|356:128|316:200,1,90.0000034332277
170,170,14500,2,0,P|156:128|160:84,1,90.0000034332277
256,116,14750,1,0,0:0:0:0:
268,212,14875,2,0,P|264:264|140:312,1,180.000006866455
36,232,15250,2,0,L|156:240,1,90.0000034332277
392,256,15500,5,0,0:0:0:0:
344,172,15625,2,0,P|328:144|232:120,1,90.0000034332277
204,336,15875,2,0,P|274:286|266:201,1,180.000006866455
108,244,16250,2,0,L|197:249,1,90.0000034332277
344,172,16500,1,0,0:0:0:0:
96,64,16750,1,0,0:0:0:0:
204,336,17000,1,0,0:0:0:0:
436,188,17500,6,0,L|448:72,1,90.0000034332277
344,172,17750,1,0,0:0:0:0:
376,256,17875,2,0,P|432:280|528:184,1,180.000006866455
344,172,18250,2,0,P|300:200|292:276,1,90.0000034332277
436,188,18500,2,0,L|420:76,1,90.0000034332277
356,32,18750,1,0,0:0:0:0:
344,172,18875,2,0,P|296:192|200:92,1,180.000006866455
404,104,19250,2,0,L|512:92,1,90.0000034332277
296,96,19500,6,0,L|192:76,1,90.0000034332277
120,52,19750,1,0,0:0:0:0:
120,52,19875,2,0,P|152:104|68:200,1,180.000006866455
40,288,20250,2,0,P|80:272|148:292,1,90.0000034332277
216,300,20500,2,0,P|204:228|300:156,1,180.000006866455
296,248,20875,2,0,L|388:236,1,90.0000034332277
472,332,21250,1,0,0:0:0:0:
208,212,21500,6,0,L|104:224,1,90.0000034332277
260,132,21750,1,0,0:0:0:0:
304,212,21875,2,0,P|336:240|460:184,1,180.000006866455
363,62,22250,2,0,L|376:152,1,90.0000034332277
400,272,22500,1,0,0:0:0:0:
304,212,22625,2,0,P|276:200|192:212,1,90.0000034332277
131,197,22875,2,0,P|166:275|252:280,1,180.000006866455
176,124,23250,2,0,L|76:104,1,90.0000034332277
304,212,23500,5,0,0:0:0:0:
376,144,23625,1,0,0:0:0:0:
288,124,23750,1,0,0:0:0:0:
392,232,23875,2,0,P|432:216|432:80,1,180.000006866455
304,212,24250,2,0,L|324:356,1,90.0000034332277
392,360,24500,1,0,0:0:0:0:
152,80,24750,1,0,0:0:0:0:
60,320,25000,1,0,0:0:0:0:
324,280,25500,5,0,0:0:0:0:
388,348,25625,1,0,0:0:0:0:
272,208,25750,2,0,P|244:240|312:368,1,180.000006866455
368,200,26125,1,0,0:0:0:0:
312,120,26250,2,0,L|180:104,1,90.0000034332277
96,216,26500,2,0,P|132:216|180:172,1,90.0000034332277
72,48,26750,2,0,P|72:84|116:132,1,90.0000034332277
164,52,27000,1,0,0:0:0:0:
332,28,27250,6,0,P|376:16|456:124,1,180.000006866455
368,108,27625,1,0,0:0:0:0:
280,140,27750,2,0,P|248:140|192:88,1,90.0000034332277
348,204,28000,2,0,P|325:226|249:229,1,90.0000034332277
368,108,28250,2,0,P|404:116|444:200,1,90.0000034332277
436,244,28500,2,0,L|424:352,1,90.0000034332277
332,320,28750,6,0,B|248:312|248:312|228:256|152:256,2,180.000006866455
164,340,29375,2,0,L|48:328,1,90.0000034332277
48,240,29625,1,0,0:0:0:0:
116,172,29750,2,0,P|128:132|112:72,1,90.0000034332277
144,260,30000,2,0,L|328:252,1,180.000006866455
396,184,30375,1,0,0:0:0:0:
404,296,30500,1,0,0:0:0:0:
404,296,30625,1,0,0:0:0:0:
296,128,30750,1,0,0:0:0:0:
296,128,30875,1,0,0:0:0:0:
296,244,31000,2,0,P|264:268|132:200,1,180.000006866455
124,136,31375,1,0,0:0:0:0:
204,204,31500,6,0,L|184:312,1,90.0000034332277
124,136,31750,2,0,L|107:47,1,90.0000034332277
224,104,32000,2,0,P|280:136|272:264,1,180.000006866455
192,300,32375,1,0,0:0:0:0:
136,192,32500,2,0,P|144:144|212:100,1,90.0000034332277
364,144,32750,2,0,P|318:161|246:124,1,90.0000034332277
260,48,33000,1,0,0:0:0:0:
460,148,33250,6,0,L|452:340,1,180.000006866455
420,244,33625,1,0,0:0:0:0:
336,216,33750,1,0,0:0:0:0:
252,248,33875,1,0,0:0:0:0:
224,332,34000,2,0,P|232:272|136:196,1,180.000006866455
140,288,34375,1,0,0:0:0:0:
168,196,34500,2,0,L|176:76,1,90.0000034332277
64,224,34750,2,0,L|69:313,1,90.0000034332277
69,313,35000,1,0,0:0:0:0:
284,164,35250,5,0,0:0:0:0:
284,164,35375,2,0,B|320:136|320:136|344:64,1,90.0000034332277
192,124,35625,1,0,0:0:0:0:
204,220,35750,2,0,L|216:340,1,90.0000034332277
340,240,36000,2,0,P|364:208|308:72,1,180.000006866455
195,150,36375,2,0,L|284:164,1,90.0000034332277
476,114,36625,2,0,L|388:128,1,90.0000034332277
368,232,36875,1,0,0:0:0:0:
368,232,37000,1,0,0:0:0:0:
112,340,37500,5,0,0:0:0:0:
80,204,38000,2,0,L|96:104,1,90.0000034332277
208,40,38250,2,0,L|192:140,1,90.0000034332277
180,240,38500,2,0,P|208:256|296:232,1,90.0000034332277
408,196,38750,2,0,P|380:180|292:204,1,90.0000034332277
448,296,39000,1,0,0:0:0:0:
500,160,39125,2,0,P|508:96|400:16,1,180.000006866455
352,60,39500,6,0,P|304:68|236:44,1,90.0000034332277
216,136,39750,2,0,P|246:173|260:244,1,90.0000034332277
352,212,40000,2,0,P|369:166|423:119,1,90.0000034332277
216,136,40250,2,0,L|100:144,1,90.0000034332277
348,208,40500,2,0,L|412:304,1,90.0000034332277
428,132,40750,2,0,L|479:27,1,90.0000034332277
328,104,41000,1,0,0:0:0:0:
248,176,41125,1,0,0:0:0:0:
260,276,41250,1,0,0:0:0:0:
328,104,41750,6,0,P|300:80|216:72,1,90.0000034332277
172,128,42000,2,0,L|68:132,1,90.0000034332277
212,220,42250,2,0,P|244:196|228:48,1,180.000006866455
164,36,42625,1,0,0:0:0:0:
256,80,42750,2,0,L|368:60,1,90.0000034332277
412,152,43000,2,0,L|300:172,1,90.0000034332277
220,172,43250,2,0,P|248:216|152:324,1,180.000006866455
156,236,43625,1,0,0:0:0:0:
156,236,43750,1,0,0:0:0:0:
136,148,44000,6,0,L|116:48,1,90.0000034332277
196,12,44250,1,0,0:0:0:0:
196,12,44375,1,0,0:0:0:0:
260,84,44500,2,0,P|284:88|356:56,1,90.0000034332277
464,156,44750,2,0,L|348:144,1,90.0000034332277
248,192,45000,2,0,P|272:191|338:234,1,90.0000034332277
152,240,45250,2,0,P|127:240|61:197,1,90.0000034332277
152,132,45500,5,0,0:0:0:0:
152,132,45625,1,0,0:0:0:0:
244,300,45750,1,0,0:0:0:0:
244,300,45875,1,0,0:0:0:0:
68,308,46000,1,0,0:0:0:0:
68,308,46125,1,0,0:0:0:0:
252,184,46250,1,0,0:0:0:0:
252,184,46375,1,0,0:0:0:0:
152,240,46500,6,0,P|120:228|76:156,1,90.0000034332277
184,136,46750,2,0,P|210:114|294:112,1,90.0000034332277
252,208,47000,2,0,P|257:241|217:315,1,90.0000034332277
184,136,47250,2,0,L|192:20,1,90.0000034332277
312,120,47500,6,0,P|348:128|428:88,1,90.0000034332277
512,220,47750,2,0,P|476:228|396:188,1,90.0000034332277
256,292,48000,2,0,P|292:300|372:260,1,90.0000034332277
284,184,48250,2,0,P|248:176|168:216,1,90.0000034332277
96,232,48500,2,0,P|104:196|64:116,1,90.0000034332277
64,52,48750,2,0,P|100:60|180:20,1,90.0000034332277
252,4,49000,2,0,P|244:40|284:120,1,90.0000034332277
96,332,49750,6,0,L|212:328,1,90.0000034332277
260,276,50000,1,0,0:0:0:0:
260,276,50125,1,0,0:0:0:0:
116,84,50375,2,0,P|96:124|136:204,2,90.0000034332277
164,220,50750,2,0,P|184:180|144:100,2,90.0000034332277
200,56,51125,1,0,0:0:0:0:
264,124,51250,2,0,L|416:116,1,90.0000034332277
200,56,51500,6,0,P|172:100|248:216,1,180.000006866455
308,200,51875,1,0,0:0:0:0:
400,190,52000,2,0,P|350:119|264:124,1,180.000006866455
364,272,52375,1,0,0:0:0:0:
456,264,52500,2,0,P|480:232|480:156,1,90.0000034332277
382,103,52750,2,0,L|400:192,1,90.0000034332277
472,88,53000,2,0,P|468:48|408:0,3,90.0000034332277
440,176,53500,6,0,L|216:160,1,180.000006866455
200,96,53875,1,0,0:0:0:0:
168,180,54000,2,0,P|108:200|8:116,1,180.000006866455
108,108,54375,1,0,0:0:0:0:
144,280,54500,2,0,L|168:376,1,90.0000034332277
10,367,54750,2,0,L|31:279,1,90.0000034332277
88,196,55000,2,0,P|120:180|236:256,1,180.000006866455
224,340,55375,1,0,0:0:0:0:
224,340,55500,6,0,P|212:304|244:224,1,90.0000034332277
136,232,55750,2,0,P|152:198|232:164,1,90.0000034332277
148,92,56000,2,0,P|184:79|264:112,1,90.0000034332277
252,0,56250,2,0,P|285:16|319:96,1,90.0000034332277
392,8,56500,2,0,P|403:43|371:124,1,90.0000034332277
120,376,56750,2,0,P|108:340|140:260,1,90.0000034332277
256,112,57000,1,0,0:0:0:0:
256,272,57500,1,0,0:0:0:0:
448,72,58000,6,0,P|440:192|360:40,1,431.999986816407
380,128,58625,1,0,0:0:0:0:
292,196,58750,2,0,L|156:188,1,107.999996704102
28,104,59000,2,0,L|164:112,1,107.999996704102
192,240,59250,2,0,P|200:288|128:364,1,107.999996704102
56,156,59500,2,0,P|48:108|176:28,1,215.999993408203
144,116,59875,1,0,0:0:0:0:
236,92,60000,2,0,L|348:88,1,107.999996704102
440,184,60250,2,0,L|332:180,1,107.999996704102
240,248,60500,2,0,P|220:192|248:112,1,107.999996704102
332,40,60750,2,0,P|352:96|324:176,1,107.999996704102
236,356,61000,6,0,P|172:332|332:204,1,431.999986816407
416,340,62000,1,0,0:0:0:0:
180,324,62250,2,0,P|92:252|156:132,1,215.999993408203
400,164,62750,2,0,P|414:265|331:325,1,215.999993408203
168,228,63250,6,0,P|256:176|343:231,1,215.999993408203
256,320,63750,1,0,0:0:0:0:
128,192,64000,1,0,0:0:0:0:
256,64,64250,1,0,0:0:0:0:
384,192,64500,1,0,0:0:0:0:
360,156,64625,1,0,0:0:0:0:
352,112,64750,1,0,0:0:0:0:
356,68,64875,1,0,0:0:0:0:
376,28,65000,2,0,P|260:64|160:4,2,215.999993408203
256,192,72500,12,0,74000,0:0:0:0:
360,104,74125,5,0,0:0:0:0:
360,104,74250,1,0,0:0:0:0:
320,188,74375,2,0,L|336:296,1,107.999996704102
236,300,74625,1,0,0:0:0:0:
132,232,74750,1,0,0:0:0:0:
212,164,74875,2,0,P|172:128|28:208,1,215.999993408203
288,224,75250,2,0,P|300:176|256:84,1,107.999996704102
72,328,75500,6,0,P|192:340|56:252,1,431.999986816407
288,208,76250,2,0,B|308:196|328:184|328:184|336:208|336:224|336:224|416:180|476:228,1,215.999993408203
272,292,76625,2,0,P|232:272|280:124,1,215.999993408203
255,130,77000,2,0,L|88:112,1,107.999996704102
40,220,77250,2,0,L|207:201,2,107.999996704102
256,308,77625,2,0,L|88:289,2,107.999996704102
384,332,78000,1,0,0:0:0:0:
412,228,78125,2,0,P|428:184|392:104,1,107.999996704102
256,192,78500,12,0,79500,0:0:0:0:
104,272,79750,5,0,0:0:0:0:
184,320,79875,2,0,P|196:264|28:216,1,215.999993408203
188,204,80250,2,0,L|336:192,1,107.999996704102
396,152,80500,2,0,L|408:24,1,107.999996704102
296,84,80750,1,0,0:0:0:0:
368,328,81000,6,0,P|432:280|288:160,1,323.999990112305
144,56,81500,2,0,P|80:104|224:224,1,323.999990112305
256,132,82000,2,0,L|256:356,1,215.999993408203
92,260,83250,6,0,B|84:236|84:236|100:212|100:212|60:172|72:84|112:56,1,215.999993408203
216,36,83625,1,0,0:0:0:0:
176,176,83750,2,0,P|160:132|200:92,1,107.999996704102
336,208,84000,2,0,P|352:252|312:292,1,107.999996704102
116,336,84250,2,0,P|144:312|240:328,1,107.999996704102
360,340,84500,6,0,P|248:284|436:216,1,431.999986816407
336,244,85250,2,0,L|184:232,1,107.999996704102
108,164,85500,6,0,P|176:208|16:216,1,431.999986816407
16,136,86125,1,0,0:0:0:0:
84,68,86250,1,0,0:0:0:0:
88,248,86500,2,0,P|124:252|196:196,1,107.999996704102
252,112,86750,1,0,0:0:0:0:
424,136,86875,2,0,P|388:132|316:188,1,107.999996704102
392,348,87500,6,0,L|400:216,1,107.999996704102
376,152,87750,2,0,P|328:180|380:328,1,215.999993408203
472,164,88125,2,0,P|464:108|308:88,1,215.999993408203
259,129,88500,2,0,P|220:164|168:160,2,107.999996704102
256,24,88875,1,0,0:0:0:0:
256,192,89000,12,0,91125,0:0:0:0:
