osu file format v12

[General]
AudioFilename: TwoThirds - Breathe.mp3
AudioLeadIn: 0
PreviewTime: 44042
Countdown: 0
SampleSet: Soft
StackLeniency: 0.7
Mode: 0
LetterboxInBreaks: 1
WidescreenStoryboard: 0

[Editor]
Bookmarks: 87908,136643
DistanceSpacing: 1
BeatDivisor: 4
GridSize: 4
TimelineZoom: 1

[Metadata]
Title:Breathe
TitleUnicode:Breathe
Artist:TwoThirds
ArtistUnicode:TwoThirds
Creator:Secretpipe
Version:Easy
Source:
Tags:DnB BarricadeX75 Sala- _Gezo_ Gezo
BeatmapID:370972
BeatmapSetID:124458

[Difficulty]
HPDrainRate:3
CircleSize:3
OverallDifficulty:3
ApproachRate:3
SliderMultiplier:0.7
SliderTickRate:1

[Events]
//Background and Video events
0,0,"Breathe.jpg",0,0
//Break Periods
2,88699,98158
//Storyboard Layer 0 (Background)
//Storyboard Layer 1 (Fail)
//Storyboard Layer 2 (Pass)
//Storyboard Layer 3 (Foreground)
//Storyboard Sound Samples
//Background Colour Transformations
3,100,163,162,255

[TimingPoints]
61,346.820809248555,4,2,1,25,1,0
1101,346.820809248555,4,2,1,25,1,0
44106,-100,4,1,2,75,0,1
48268,-100,4,1,1,75,0,1
49655,-100,4,1,2,75,0,1
53817,-100,4,1,1,75,0,1
55205,-100,4,1,2,75,0,1
59366,-100,4,1,1,75,0,1
60754,-100,4,1,2,75,0,1
64916,-100,4,1,1,75,0,1
66303,-100,4,1,2,75,0,1
70465,-100,4,1,1,75,0,1
71852,-100,4,1,2,75,0,1
76014,-100,4,1,1,75,0,1
77401,-100,4,1,2,75,0,1
81563,-100,4,1,1,75,0,1
82950,-100,4,1,2,75,0,1
88499,-100,4,2,1,75,0,0
99598,-100,4,2,1,50,0,0
114858,-100,4,1,1,50,0,0
116245,-100,4,2,1,50,0,0
120407,-100,4,1,1,50,0,0
121794,-100,4,2,1,50,0,0
125956,-100,4,1,1,50,0,0
127343,-100,4,2,1,50,0,0
132892,-100,4,1,2,75,0,1
137054,-100,4,1,1,75,0,1
138442,-100,4,1,2,75,0,1
142603,-100,4,1,1,75,0,1
145378,-100,4,1,2,75,0,1
148153,-100,4,1,1,75,0,1
149540,-100,4,1,2,75,0,1
153702,-100,4,1,1,75,0,1
156476,-100,4,1,2,75,0,1
159251,-100,4,1,1,75,0,1
162025,-100,4,1,2,75,0,1
164800,-100,4,1,1,75,0,1
167574,-100,4,1,2,75,0,1
170349,-100,4,1,1,75,0,1
171736,-100,4,1,2,75,0,1
177285,-100,4,2,1,75,0,0

[Colours]
Combo1 : 120,236,81
Combo2 : 192,192,192
Combo3 : 255,187,119
Combo4 : 128,135,187
Combo5 : 255,255,128
Combo6 : 222,108,88

[HitObjects]
188,60,33008,6,0,P|252:28|312:64,1,140,0|2,3:2|0:0,0:0:0:0:
304,196,34395,2,0,P|248:228|176:188,2,140,4|2|4,1:3|1:3|1:3,0:0:0:0:
448,192,36476,1,0,3:1:0:0:
392,64,37170,1,2,1:3:0:0:
336,192,37864,1,8,3:2:0:0:
280,64,38557,6,0,P|216:48|144:64,1,140,4|8,3:2|0:3,0:0:0:0:
60,176,39944,2,0,L|60:328,2,140,2|4|2,0:2|1:2|0:2,0:0:0:0:
256,192,41679,12,0,43413,0:0:0:0:
304,320,44106,6,0,P|372:337|447:313,2,140,2|8|2,3:2|1:3|3:2,0:0:0:0:
368,196,46187,1,8,0:0:0:0:
296,76,46881,2,0,P|364:59|439:83,2,140,2|8|2,1:3|0:0|1:3,0:0:0:0:
260,136,48615,1,2,1:3:0:0:
244,204,48962,2,0,P|212:224|176:224,1,70,0|0,3:1|3:3,0:0:0:0:
112,224,49655,1,2,2:0:0:0:
48,196,50002,6,0,P|48:96|148:56,2,210,2|8|2,3:1|0:3|3:1,0:0:0:0:
84,256,52430,2,0,P|160:300|276:264,1,210,4|8,0:0|3:0,0:0:0:0:
320,216,53817,1,2,0:3:0:0:
336,148,54164,2,0,P|292:68|240:68,1,140,2|4,0:0|0:2,0:0:0:0:
180,68,55205,1,8,1:3:0:0:
112,84,55551,6,0,P|44:152|96:240,2,210,8|2|8,3:2|0:0|3:2,0:0:0:0:
180,88,57979,2,0,B|224:188|144:188|180:300,1,210,4|0,0:2|1:3,0:0:0:0:
220,348,59366,1,2,1:3:0:0:
292,348,59713,2,0,L|372:348,1,70,8|0,0:3|3:3,0:0:0:0:
432,348,60407,1,8,3:2:0:0:
468,288,60754,6,0,P|488:216|448:152,1,140,4|2,0:0|0:0,0:0:0:0:
392,188,61794,1,2,1:3:0:0:
328,216,62141,2,0,P|304:136|332:76,1,140,4|8,0:0|1:3,0:0:0:0:
380,44,63181,1,2,1:3:0:0:
452,44,63528,2,0,P|488:136|464:252,1,210,4|8,0:0|0:0,0:0:0:0:
428,300,64916,5,2,1:3:0:0:
368,336,65262,2,0,P|324:344|292:332,2,70,2|8|2,3:0|0:0|3:0,0:0:0:0:
428,300,66303,1,2,0:0:0:0:
228,236,67343,5,2,1:3:0:0:
264,176,67690,2,0,P|280:108|252:44,1,140,0|8,1:3|0:0,0:0:0:0:
112,40,69077,2,0,P|52:64|36:136,1,140,0|8,1:3|1:3,0:0:0:0:
32,272,70465,2,0,P|47:337|112:360,1,140,0|4,1:3|1:2,0:0:0:0:
252,356,71852,1,0,1:3:0:0:
316,232,72546,1,2,3:1:0:0:
384,356,73239,6,0,P|424:256|388:160,1,210,0|0,3:1|0:0,0:0:0:0:
344,112,74627,1,2,1:2:0:0:
220,48,75320,1,8,0:3:0:0:
96,112,76014,2,0,B|60:164|16:180|16:180|60:192|96:244,1,210,2|8,3:2|0:3,0:0:0:0:
136,300,77401,1,4,0:2:0:0:
416,320,78788,6,0,B|552:216|428:80,1,280,8|2,1:2|3:2,0:0:0:0:
356,200,80869,1,8,1:3:0:0:
284,80,81563,2,0,B|263:55|263:55|184:15,1,70,2|2,0:0|3:2,0:0:0:0:
160,44,82257,2,0,B|126:60|126:60|105:85,1,70,2|8,0:0|0:3,0:0:0:0:
60,140,82950,1,4,2:0:0:0:
144,252,83644,1,8,0:3:0:0:
256,192,84337,12,4,88499,0:0:0:0:
180,164,99598,6,0,P|229:179|278:163,2,105,2|0|2,1:3|0:0|1:3,0:0:0:0:
180,92,100985,2,0,P|229:77|278:93,2,105,2|0|2,1:3|3:3|1:3,0:0:0:0:
120,128,102372,6,0,P|92:200|136:252,1,140,8|0,1:3|3:3,0:0:0:0:
184,284,103413,1,2,0:0:0:0:
248,312,103759,2,0,P|312:336|376:304,1,140,8|4,1:3|0:0,0:0:0:0:
464,200,105147,6,0,P|476:128|440:72,1,140,8|0,0:1|3:3,0:0:0:0:
376,96,106187,1,2,0:0:0:0:
312,68,106534,2,0,P|277:127|290:194,1,140,8|0,0:1|3:3,0:0:0:0:
324,256,107574,1,4,0:0:0:0:
256,192,107921,12,0,110696,0:0:0:0:
48,304,112083,6,0,P|108:336|172:296,1,140,2|0,3:2|3:1,0:0:0:0:
208,248,113124,1,2,0:0:0:0:
236,184,113470,2,0,P|296:152|356:192,1,140,0|8,0:0|1:3,0:0:0:0:
392,244,114511,1,2,0:0:0:0:
392,316,114858,2,0,P|252:344|120:316,1,280,2|0,0:0|3:3,0:0:0:0:
388,232,117632,6,0,P|428:112|312:44,1,280,0|4,3:2|0:0,0:0:0:0:
52,140,120407,1,2,3:3:0:0:
124,260,121101,1,2,3:3:0:0:
196,140,121794,5,4,0:0:0:0:
452,32,123181,2,0,P|508:88|500:168,1,140,0|2,0:0|3:3,0:0:0:0:
460,276,124569,2,0,P|400:312|320:296,1,140,0|4,3:2|0:0,0:0:0:0:
208,240,125956,1,2,3:3:0:0:
308,144,126650,1,2,3:3:0:0:
196,60,127343,2,0,P|100:72|80:176,1,210,4|4,3:0|0:0,0:0:0:0:
256,192,128731,12,4,132892,0:0:0:0:
88,104,134280,6,0,B|192:60|192:136|296:96,1,210,2|8,3:0|3:3,0:0:0:0:
364,100,135667,2,0,P|420:188|392:292,1,210,0|8,3:2|3:3,0:0:0:0:
344,332,137054,2,0,P|284:348|208:312,1,140,2|0,0:0|3:3,0:0:0:0:
160,276,138095,1,2,2:0:0:0:
120,216,138442,6,0,P|120:88|248:56,1,280,2|2,1:2|0:0,0:0:0:0:
280,192,140522,1,0,0:0:0:0:
392,108,141216,1,2,3:2:0:0:
428,244,141910,1,0,0:0:0:0:
316,328,142603,2,0,B|212:272|212:368|108:316,1,210,2|4,0:2|0:2,0:0:0:0:
60,276,143991,6,0,P|44:204|68:124,1,140,2|2,1:3|0:0,0:0:0:0:
168,52,145378,2,0,P|235:37|303:53,1,140,2|2,3:1|0:0,0:0:0:0:
428,116,146765,2,0,P|460:176|436:248,1,140,2|8,3:3|0:3,0:0:0:0:
320,316,148153,1,2,0:0:0:0:
212,228,148846,1,2,0:0:0:0:
328,152,149540,6,0,P|432:180|468:272,1,210,4|0,0:0|0:0,0:0:0:0:
452,336,150927,2,0,B|356:376|356:296|232:344,1,210,4|0,0:0|3:3,0:0:0:0:
176,344,152314,2,0,P|108:328|84:268,1,140,2|8,3:2|0:0,0:0:0:0:
80,128,153702,2,0,P|124:64|184:64,1,140,0|8,3:2|0:0,0:0:0:0:
320,64,155089,5,2,3:2:0:0:
408,172,155783,1,2,3:2:0:0:
336,292,156476,2,0,P|272:308|200:292,1,140,0|0,3:3|3:3,0:0:0:0:
76,232,157864,2,0,P|60:168|76:96,1,140,0|0,3:0|2:0,0:0:0:0:
200,36,159251,1,2,0:0:0:0:
340,36,159944,1,2,0:0:0:0:
448,124,160638,6,0,P|472:188|456:260,1,140,4|0,0:0|0:0,0:0:0:0:
340,332,162025,2,0,P|272:346|207:322,1,140,4|0,0:0|3:2,0:0:0:0:
108,224,163413,1,0,0:0:0:0:
108,84,164106,1,2,0:0:0:0:
248,48,164800,2,0,P|320:32|396:56,1,140,2|2,0:0|0:0,0:0:0:0:
452,168,166187,5,0,0:0:0:0:
380,284,166881,1,0,0:0:0:0:
248,328,167574,2,0,P|196:340|144:324,2,105,2|0|2,0:0|3:1|0:0,0:0:0:0:
284,268,168962,2,0,P|296:216|280:164,2,105,2|0|2,0:0|3:1|0:0,0:0:0:0:
216,260,170349,1,2,0:0:0:0:
120,156,171043,1,2,0:0:0:0:
232,72,171736,6,0,P|301:51|367:79,1,140,0|2,3:3|0:0,0:0:0:0:
460,176,173124,1,2,0:0:0:0:
376,288,173817,1,4,1:3:0:0:
256,192,174511,12,4,177285,0:0:0:0:
