osu file format v14

[General]
AudioFilename: TwoThirds & Feint feat. Veela - Epiphany.mp3
AudioLeadIn: 0
PreviewTime: 131125
Countdown: 0
SampleSet: Normal
StackLeniency: 0.7
Mode: 0
LetterboxInBreaks: 0
WidescreenStoryboard: 0

[Editor]
Bookmarks: 22082,44025,54997,65968,76940,87911,109854,131797,142768,153740,164711,175682,197625
DistanceSpacing: 0.7
BeatDivisor: 4
GridSize: 4
TimelineZoom: 2.496

[Metadata]
Title:Epiphany (feat. Veela)
TitleUnicode:Epiphany (feat. Veela)
Artist:TwoThirds & Feint
ArtistUnicode:TwoThirds & Feint
Creator:Streliteela
Version:Insane
Source:
Tags:Drum & Bass DnB Electronic Cut version AlpacaCokelat Frey imoutosan
BeatmapID:557703
BeatmapSetID:241474

[Difficulty]
HPDrainRate:7
CircleSize:4
OverallDifficulty:8
ApproachRate:9
SliderMultiplier:1.8
SliderTickRate:1

[Events]
//Background and Video events
0,0,"bg.jpg",0,0
//Break Periods
//Storyboard Layer 0 (Background)
//Storyboard Layer 1 (Fail)
//Storyboard Layer 2 (Pass)
//Storyboard Layer 3 (Foreground)
//Storyboard Sound Samples

[TimingPoints]
148,342.857142857143,4,1,1,70,1,0
72148,-133.333333333333,4,1,1,70,0,0
72833,-200,4,1,1,70,0,0
73862,-66.6666666666667,4,1,1,70,0,0
74205,-100,4,1,1,70,0,0
75576,-100,4,1,1,70,0,0
76262,-133.333333333333,4,1,1,70,0,0
76605,-100,4,1,1,70,0,0
87919,-166.666666666667,4,2,1,40,0,0
90662,-166.666666666667,4,2,1,30,0,0
91005,-166.666666666667,4,2,1,40,0,0
93405,-166.666666666667,4,2,1,30,0,0
93748,-166.666666666667,4,2,1,40,0,0
96148,-166.666666666667,4,2,1,30,0,0
96490,-166.666666666667,4,2,1,40,0,0
98890,-166.666666666667,4,2,1,30,0,0
99233,-166.666666666667,4,2,1,40,0,0
101633,-166.666666666667,4,2,1,30,0,0
101976,-166.666666666667,4,2,1,40,0,0
104376,-166.666666666667,4,2,1,30,0,0
104719,-166.666666666667,4,2,1,40,0,0
107119,-166.666666666667,4,2,1,30,0,0
107462,-166.666666666667,4,2,1,40,0,0
112605,-166.666666666667,4,2,1,30,0,0
112948,-166.666666666667,4,2,1,40,0,0
115348,-166.666666666667,4,2,1,30,0,0
115690,-166.666666666667,4,2,1,40,0,0
118090,-166.666666666667,4,2,1,30,0,0
118433,-166.666666666667,4,2,1,40,0,0
120833,-166.666666666667,4,2,1,30,0,0
121176,-166.666666666667,4,2,1,40,0,0
123576,-166.666666666667,4,2,1,30,0,0
123919,-166.666666666667,4,2,1,40,0,0
129062,-100,4,2,1,50,0,0
130262,-100,4,2,1,60,0,0
130948,-100,4,2,1,70,0,0
131805,-66.6666666666667,4,1,1,80,0,1
134205,-83.3333333333333,4,1,1,80,0,1
134548,-66.6666666666667,4,1,1,80,0,1
136605,-100,4,1,1,80,0,1
136862,-100,4,1,1,5,0,1
136948,-100,4,1,1,80,0,1
137290,-66.6666666666667,4,1,1,80,0,1
139690,-83.3333333333333,4,1,1,80,0,1
140033,-66.6666666666667,4,1,1,80,0,1
142433,-83.3333333333333,4,1,1,80,0,1
142776,-66.6666666666667,4,1,1,80,0,1
145176,-83.3333333333333,4,1,1,80,0,1
145519,-66.6666666666667,4,1,1,80,0,1
146890,-83.3333333333333,4,1,1,80,0,1
147576,-100,4,1,1,80,0,1
147833,-100,4,1,1,5,0,1
147919,-100,4,1,1,80,0,1
148176,-66.6666666666667,4,1,1,80,0,1
150662,-83.3333333333333,4,1,1,80,0,1
151005,-66.6666666666667,4,1,1,80,0,1
157862,-83.3333333333333,4,1,1,80,0,1
158548,-125,4,1,1,80,0,1
158890,-66.6666666666667,4,1,1,80,0,1
160433,-83.3333333333333,4,1,1,80,0,1
160605,-66.6666666666667,4,1,1,80,0,1
161633,-83.3333333333333,4,1,1,80,0,1
161976,-66.6666666666667,4,1,1,80,0,1
168833,-83.3333333333333,4,1,1,80,0,1
169519,-125,4,1,1,80,0,1
169862,-66.6666666666667,4,1,1,80,0,1
170205,-125,4,1,1,80,0,1
170548,-66.6666666666667,4,1,1,80,0,1
170890,-125,4,1,1,80,0,1
171233,-66.6666666666667,4,1,1,80,0,1
171576,-100,4,1,1,80,0,1
172262,-200,4,1,1,80,0,1
172605,-66.6666666666667,4,1,1,80,0,1
175005,-133.333333333333,4,1,1,80,0,1
175348,-100,4,1,1,80,0,1
175690,-100,4,1,1,70,0,0

[Colours]
Combo1 : 68,111,153
Combo2 : 255,240,200
Combo3 : 162,205,249
Combo4 : 245,199,101

[HitObjects]
172,103,22090,5,12,0:0:0:0:
97,51,22262,2,0,B|77:93|77:93|88:140,1,90,0|2,0:0|0:0,0:0:0:0:
250,187,22605,1,0,0:0:0:0:
250,187,22690,1,0,0:0:0:0:
250,187,22776,2,0,L|158:195,1,90,0|8,0:0|0:0,0:0:0:0:
400,208,23119,2,0,B|418:249|418:249|401:302,1,90,2|0,0:0|0:0,0:0:0:0:
393,306,23376,1,0,0:0:0:0:
380,319,23462,5,0,0:0:0:0:
321,243,23633,1,8,0:0:0:0:
333,146,23805,2,0,B|321:104|321:104|336:61,1,90,2|0,0:0|0:0,0:0:0:0:
431,36,24148,1,0,0:0:0:0:
412,123,24319,1,8,0:0:0:0:
338,60,24490,2,0,L|294:49,1,45,2|0,0:0|0:0,0:0:0:0:
185,123,24662,2,0,L|229:115,1,45
129,54,24833,6,0,B|69:38|69:38|35:53,1,90,8|0,0:0|0:0,0:0:0:0:
227,35,25176,1,2,0:0:0:0:
107,229,25348,1,0,0:0:0:0:
107,229,25433,1,0,0:0:0:0:
107,229,25519,2,0,B|91:181|91:181|100:142,1,90,0|8,0:0|0:0,0:0:0:0:
228,35,25862,1,2,0:0:0:0:
319,155,26033,2,0,L|310:212,1,45
310,217,26205,6,0,B|357:228|357:228|398:219,1,90,0|8,0:0|0:0,0:0:0:0:
470,150,26548,1,2,0:0:0:0:
490,250,26719,1,0,0:0:0:0:
450,337,26890,2,0,B|425:320|425:320|356:335,1,90,0|8,0:0|0:0,0:0:0:0:
265,328,27233,2,0,L|207:321,1,45,2|0,0:0|0:0,0:0:0:0:
112,269,27405,2,0,L|157:261,1,45
33,326,27576,6,0,B|18:268|18:268|33:228,1,90,8|0,0:0|0:0,0:0:0:0:
179,342,27919,1,2,0:0:0:0:
268,191,28090,1,0,0:0:0:0:
265,217,28176,1,0,0:0:0:0:
261,243,28262,1,0,0:0:0:0:
126,186,28433,1,8,0:0:0:0:
194,80,28605,2,0,L|204:138,1,45,2|0,0:0|0:0,0:0:0:0:
111,47,28776,2,0,L|108:104,1,45
25,127,28948,6,0,L|18:229,1,90,0|8,0:0|0:0,0:0:0:0:
179,342,29290,2,0,B|187:296|187:296|168:244,1,90,2|0,0:0|0:0,0:0:0:0:
85,274,29633,1,0,0:0:0:0:
222,174,29805,1,8,0:0:0:0:
297,327,29976,2,0,L|347:338,1,45,2|0,0:0|0:0,0:0:0:0:
419,262,30148,2,0,L|375:269,1,45
493,325,30319,6,0,B|505:277|505:277|494:228,1,90,8|0,0:0|0:0,0:0:0:0:
405,171,30662,1,2,0:0:0:0:
306,234,30833,1,0,0:0:0:0:
309,260,30919,1,0,0:0:0:0:
313,286,31005,1,0,0:0:0:0:
393,361,31176,1,8,0:0:0:0:
494,299,31348,1,2,0:0:0:0:
497,272,31433,1,0,0:0:0:0:
499,245,31519,1,0,0:0:0:0:
503,218,31605,1,0,0:0:0:0:
506,191,31690,6,0,B|512:129|512:129|480:93,1,90,0|8,0:0|0:0,0:0:0:0:
321,38,32033,2,0,B|315:100|315:100|347:136,1,90,2|0,0:0|0:0,0:0:0:0:
415,82,32376,1,0,0:0:0:0:
406,171,32548,1,8,0:0:0:0:
333,121,32719,2,0,L|272:129,1,45,2|0,0:0|0:0,0:0:0:0:
188,48,32890,2,0,L|233:56,1,45
152,135,33062,6,0,L|52:157,1,90,8|0,0:0|0:0,0:0:0:0:
84,57,33405,1,2,0:0:0:0:
152,135,33576,1,0,0:0:0:0:
148,161,33662,1,0,0:0:0:0:
145,187,33748,1,0,0:0:0:0:
43,148,33919,1,8,0:0:0:0:
156,107,34090,1,2,0:0:0:0:
257,191,34262,1,0,0:0:0:0:
259,217,34348,1,0,0:0:0:0:
261,241,34433,5,0,0:0:0:0:
142,213,34605,1,8,0:0:0:0:
254,163,34776,1,2,0:0:0:0:
353,240,34948,1,0,0:0:0:0:
470,218,35119,2,0,B|480:172|480:172|464:128,1,90,0|8,0:0|0:0,0:0:0:0:
383,78,35462,2,0,L|377:135,1,45,2|0,0:0|0:0,0:0:0:0:
470,218,35633,2,0,L|481:269,1,45
430,335,35805,6,0,B|396:321|396:321|333:336,1,90,8|0,0:0|0:0,0:0:0:0:
260,367,36148,1,2,0:0:0:0:
179,327,36319,1,0,0:0:0:0:
179,327,36405,1,0,0:0:0:0:
179,327,36490,2,0,L|170:235,1,90,0|8,0:0|0:0,0:0:0:0:
76,102,36833,2,0,B|65:144|65:144|80:192,1,90,2|0,0:0|0:0,0:0:0:0:
104,178,37090,1,0,0:0:0:0:
130,171,37176,6,0,B|172:162|172:162|223:174,1,90,0|8,0:0|0:0,0:0:0:0:
392,215,37519,2,0,B|350:224|350:224|299:212,1,90,2|0,0:0|0:0,0:0:0:0:
294,123,37862,1,0,0:0:0:0:
305,213,38033,1,8,0:0:0:0:
294,123,38205,2,0,L|286:66,1,45,2|0,0:0|0:0,0:0:0:0:
214,219,38376,2,0,L|219:160,1,45
314,302,38548,6,0,L|303:197,1,90,8|0,0:0|0:0,0:0:0:0:
419,132,38890,1,2,0:0:0:0:
487,249,39062,1,0,0:0:0:0:
484,275,39148,1,0,0:0:0:0:
479,301,39233,1,0,0:0:0:0:
370,246,39405,1,8,0:0:0:0:
318,336,39576,2,0,L|260:348,1,45,2|0,0:0|0:0,0:0:0:0:
194,323,39748,2,0,L|136:335,1,45
71,361,39919,6,0,B|43:335|43:335|44:271,1,90,0|8,0:0|0:0,0:0:0:0:
110,147,40262,2,0,B|136:165|136:165|133:233,1,90,2|0,0:0|0:0,0:0:0:0:
37,200,40605,1,0,0:0:0:0:
73,77,40776,1,8,0:0:0:0:
196,118,40948,1,2,0:0:0:0:
200,135,41033,1,0,0:0:0:0:
203,152,41119,1,0,0:0:0:0:
200,169,41205,1,0,0:0:0:0:
193,186,41290,6,0,B|233:196|233:196|287:185,1,90,8|0,0:0|0:0,0:0:0:0:
361,101,41633,1,2,0:0:0:0:
454,143,41805,1,0,0:0:0:0:
452,169,41890,1,0,0:0:0:0:
449,195,41976,1,0,0:0:0:0:
358,224,42148,1,8,0:0:0:0:
505,270,42319,1,2,0:0:0:0:
507,296,42405,1,0,0:0:0:0:
508,323,42490,1,0,0:0:0:0:
510,349,42576,1,0,0:0:0:0:
512,375,42662,5,0,0:0:0:0:
256,192,42748,12,2,43690,0:0:0:0:
256,188,44033,5,12,0:0:0:0:
340,218,44205,1,0,0:0:0:0:
385,140,44376,1,2,0:0:0:0:
472,117,44548,1,0,0:0:0:0:
472,117,44633,1,0,0:0:0:0:
472,117,44719,2,0,B|486:162|486:162|473:214,1,90,0|8,0:0|0:0,0:0:0:0:
404,50,45062,1,2,0:0:0:0:
322,81,45233,1,0,0:0:0:0:
322,81,45319,1,0,0:0:0:0:
322,81,45405,6,0,B|296:106|296:106|228:97,1,90,0|8,0:0|0:0,0:0:0:0:
94,58,45748,2,0,B|120:33|120:33|188:42,1,90,2|0,0:0|0:0,0:0:0:0:
250,25,46090,1,0,0:0:0:0:
173,116,46262,1,8,0:0:0:0:
25,118,46433,1,2,0:0:0:0:
31,134,46519,1,0,0:0:0:0:
31,151,46605,1,0,0:0:0:0:
29,168,46690,1,0,0:0:0:0:
23,186,46776,6,0,B|12:230|12:230|32:280,1,90,8|0,0:0|0:0,0:0:0:0:
68,352,47119,1,2,0:0:0:0:
187,294,47290,2,0,L|143:301,1,45,0|0,0:0|0:0,0:0:0:0:
259,354,47462,2,0,B|307:364|307:364|359:350,1,90,0|8,0:0|0:0,0:0:0:0:
382,269,47805,1,2,0:0:0:0:
471,271,47976,1,0,0:0:0:0:
471,271,48062,1,0,0:0:0:0:
471,271,48148,6,0,B|485:317|485:317|472:362,1,90,0|8,0:0|0:0,0:0:0:0:
382,269,48490,2,0,B|366:225|366:225|381:178,1,90,2|0,0:0|0:0,0:0:0:0:
453,86,48833,1,0,0:0:0:0:
478,170,49005,1,8,0:0:0:0:
368,108,49176,2,0,L|324:115,1,45,2|0,0:0|0:0,0:0:0:0:
233,43,49348,2,0,L|278:47,1,45
180,115,49519,6,0,B|137:126|137:126|84:112,1,90,8|0,0:0|0:0,0:0:0:0:
14,30,49862,1,2,0:0:0:0:
3,124,50033,2,0,L|-2:187,1,45
82,198,50205,2,0,L|93:299,1,90,0|8,0:0|0:0,0:0:0:0:
26,345,50548,1,2,0:0:0:0:
179,280,50719,2,0,L|174:345,1,45
177,351,50890,6,0,B|225:360|225:360|267:350,1,90,0|8,0:0|0:0,0:0:0:0:
370,262,51233,2,0,B|324:252|324:252|280:263,1,90,2|0,0:0|0:0,0:0:0:0:
400,347,51576,1,0,0:0:0:0:
442,211,51748,1,8,0:0:0:0:
508,316,51919,2,0,L|512:272,1,45,2|0,0:0|0:0,0:0:0:0:
433,166,52090,2,0,L|442:211,1,45
506,114,52262,6,0,B|508:44|508:44|485:23,1,90,8|0,0:0|0:0,0:0:0:0:
396,0,52605,1,2,0:0:0:0:
341,67,52776,1,0,0:0:0:0:
345,93,52862,1,0,0:0:0:0:
349,119,52948,1,0,0:0:0:0:
429,82,53119,1,8,0:0:0:0:
258,112,53290,1,2,0:0:0:0:
255,129,53376,1,0,0:0:0:0:
252,146,53462,1,0,0:0:0:0:
250,164,53548,1,0,0:0:0:0:
246,181,53633,6,0,B|202:194|202:194|153:180,1,90,0|8,0:0|0:0,0:0:0:0:
118,27,53976,2,0,B|155:55|155:55|163:102,1,90,2|0,0:0|0:0,0:0:0:0:
53,217,54319,2,0,B|58:172|58:172|96:142,1,90,0|8,0:0|0:0,0:0:0:0:
141,231,54662,1,2,0:0:0:0:
145,257,54748,1,0,0:0:0:0:
151,282,54833,1,0,0:0:0:0:
157,308,54919,1,0,0:0:0:0:
161,334,55005,6,0,B|209:322|209:322|257:333,1,90,8|0,0:0|0:0,0:0:0:0:
413,313,55348,1,2,0:0:0:0:
334,263,55519,1,0,0:0:0:0:
334,263,55605,1,0,0:0:0:0:
334,263,55690,2,0,L|328:365,1,90,0|8,0:0|0:0,0:0:0:0:
461,239,56033,1,2,0:0:0:0:
380,112,56205,1,0,0:0:0:0:
380,112,56290,1,0,0:0:0:0:
380,112,56376,6,0,B|372:179|372:179|393:205,1,90,0|8,0:0|0:0,0:0:0:0:
462,149,56719,2,0,B|470:82|470:82|445:49,1,90,2|0,0:0|0:0,0:0:0:0:
376,23,57062,1,0,0:0:0:0:
462,149,57233,1,8,0:0:0:0:
303,131,57405,2,0,L|238:145,1,45,2|0,0:0|0:0,0:0:0:0:
159,64,57576,2,0,L|204:67,1,45
108,153,57748,6,0,B|79:145|79:145|50:163|20:159,1,90,8|0,0:0|0:0,0:0:0:0:
121,74,58090,2,0,B|150:82|150:82|179:64|209:68,1,90,2|0,0:0|0:0,0:0:0:0:
197,49,58348,1,0,0:0:0:0:
189,32,58433,2,0,L|183:142,1,90,0|8,0:0|0:0,0:0:0:0:
264,203,58776,1,2,0:0:0:0:
374,176,58948,1,0,0:0:0:0:
374,176,59033,1,0,0:0:0:0:
374,176,59119,6,0,B|387:129|387:129|368:83,1,90,0|8,0:0|0:0,0:0:0:0:
305,29,59462,1,2,0:0:0:0:
288,117,59633,1,0,0:0:0:0:
466,155,59805,1,0,0:0:0:0:
449,66,59976,1,8,0:0:0:0:
366,187,60148,1,2,0:0:0:0:
358,203,60233,1,0,0:0:0:0:
357,221,60319,1,0,0:0:0:0:
361,238,60405,1,0,0:0:0:0:
370,252,60490,6,0,B|392:286|348:310|372:346,1,90,8|0,0:0|0:0,0:0:0:0:
470,319,60833,1,2,0:0:0:0:
359,352,61005,1,0,0:0:0:0:
331,355,61090,1,0,0:0:0:0:
305,359,61176,1,0,0:0:0:0:
411,235,61348,1,8,0:0:0:0:
381,348,61519,1,2,0:0:0:0:
286,343,61690,1,0,0:0:0:0:
267,321,61776,1,0,0:0:0:0:
249,301,61862,5,0,0:0:0:0:
317,185,62033,1,8,0:0:0:0:
345,38,62205,2,0,B|317:35|317:35|346:103,1,90,2|0,0:0|0:0,0:0:0:0:
465,135,62548,2,0,B|481:112|481:112|408:103,1,90,0|8,0:0|0:0,0:0:0:0:
316,186,62890,2,0,B|327:211|327:211|371:152,1,90,2|0,0:0|0:0,0:0:0:0:
376,146,63148,1,0,0:0:0:0:
373,127,63233,6,0,P|331:101|277:106,1,90,8|0,0:0|0:0,0:0:0:0:
241,9,63576,2,0,P|204:50|156:65,1,90,2|0,0:0|0:0,0:0:0:0:
206,159,63919,2,0,P|160:141|108:155,1,90,0|8,0:0|0:0,0:0:0:0:
81,46,64262,2,0,P|55:97|21:111,1,90,2|0,0:0|0:0,0:0:0:0:
2,30,64519,1,0,0:0:0:0:
2,30,64605,6,0,P|56:97|50:203,1,180,0|2,0:0|0:0,0:0:0:0:
52,279,65119,1,0,0:0:0:0:
140,301,65290,2,0,P|225:295|314:348,1,180,0|2,0:0|0:0,0:0:0:0:
338,357,65719,1,0,0:0:0:0:
374,358,65805,1,0,0:0:0:0:
404,339,65890,1,0,0:0:0:0:
426,310,65976,6,0,L|434:221,1,90,12|0,0:0|0:0,0:0:0:0:
377,158,66319,1,2,0:0:0:0:
287,149,66490,1,0,0:0:0:0:
287,149,66576,1,0,0:0:0:0:
287,149,66662,2,0,B|298:215|298:215|335:228,1,90,0|8,0:0|0:0,0:0:0:0:
437,228,67005,1,2,0:0:0:0:
456,119,67176,1,0,0:0:0:0:
456,119,67262,1,0,0:0:0:0:
456,119,67348,6,0,B|451:88|451:88|383:60,1,90,0|8,0:0|0:0,0:0:0:0:
214,72,67690,2,0,L|303:56,1,90,2|0,0:0|0:0,0:0:0:0:
123,84,68033,2,0,B|93:52|93:52|104:6,1,90,0|8,0:0|0:0,0:0:0:0:
211,100,68376,1,2,0:0:0:0:
210,122,68462,1,0,0:0:0:0:
209,144,68548,1,0,0:0:0:0:
207,166,68633,1,0,0:0:0:0:
205,188,68719,6,0,B|159:199|159:199|110:190,1,90,8|0,0:0|0:0,0:0:0:0:
30,142,69062,1,2,0:0:0:0:
30,142,69233,2,0,L|20:204,1,45,0|0,0:0|0:0,0:0:0:0:
104,220,69405,2,0,L|113:320,1,90,0|8,0:0|0:0,0:0:0:0:
204,345,69748,1,2,0:0:0:0:
293,233,69919,1,0,0:3:0:0:
293,233,70005,1,0,0:3:0:0:
293,233,70090,6,0,B|304:188|304:188|287:141,1,90,0|8,0:0|0:0,0:0:0:0:
223,84,70433,1,2,0:0:0:0:
209,173,70605,1,0,0:0:0:0:
377,200,70776,1,0,0:0:0:0:
293,233,70948,1,8,0:0:0:0:
467,236,71119,1,2,0:0:0:0:
463,262,71205,1,0,0:0:0:0:
462,288,71290,1,0,0:0:0:0:
459,314,71376,1,0,0:0:0:0:
457,341,71462,6,0,P|415:313|366:309,1,90,8|0,0:0|0:0,0:0:0:0:
401,73,71805,2,0,P|359:101|310:105,1,90,2|0,0:0|0:0,0:0:0:0:
322,258,72148,6,0,P|289:238|250:240,1,67.5000025749208,0|8,0:0|0:0,0:0:0:0:
246,120,72490,2,0,P|220:141|174:150,1,67.5000025749208,2|0,0:0|0:0,0:0:0:0:
179,233,72833,6,0,P|153:218|129:213,1,45,0|8,0:0|0:0,0:0:0:0:
90,158,73176,2,0,P|64:173|40:178,1,45,2|0,0:0|0:0,0:0:0:0:
8,194,73519,2,0,P|34:199|61:218,1,45,0|8,0:0|0:0,0:0:0:0:
8,194,73862,6,0,B|52:166|97:217|141:191,1,135.000005149842,2|0,0:0|0:0,0:0:0:0:
247,121,74205,6,0,B|223:97|223:97|166:114,1,90,8|0,0:0|0:0,0:0:0:0:
288,253,74548,2,0,B|312:277|312:277|369:260,1,90,2|0,0:0|0:0,0:0:0:0:
276,126,74890,2,0,B|252:102|252:102|183:120,1,90,0|8,0:0|0:0,0:0:0:0:
305,262,75233,2,0,B|329:286|329:286|399:266,1,90,2|0,0:0|0:0,0:0:0:0:
489,233,75490,1,0,0:0:0:0:
489,233,75576,6,0,B|467:240|467:240|477:337,1,90,0|8,0:0|0:0,0:0:0:0:
275,332,75919,2,0,B|285:309|285:309|336:350,1,90,2|0,0:0|0:0,0:0:0:0:
375,261,76262,6,0,L|320:131,1,135.000005149842,0|2,0:0|0:0,0:0:0:0:
291,121,76690,1,0,0:0:0:0:
265,112,76776,1,0,0:0:0:0:
238,114,76862,1,0,0:0:0:0:
214,127,76948,6,0,L|250:209,1,90,8|0,0:0|0:0,0:0:0:0:
339,270,77290,1,2,0:0:0:0:
419,207,77462,1,0,0:0:0:0:
419,207,77548,1,0,0:0:0:0:
419,207,77633,2,0,L|436:103,1,90,0|8,0:0|0:0,0:0:0:0:
376,38,77976,2,0,B|352:53|352:53|324:32|284:37,1,90,2|0,0:0|0:0,0:0:0:0:
268,27,78233,1,0,0:0:0:0:
243,30,78319,5,0,0:0:0:0:
196,118,78490,1,8,0:0:0:0:
109,65,78662,1,2,0:0:0:0:
196,117,78833,1,0,0:0:0:0:
56,147,79005,2,0,B|47:198|47:198|67:243,1,90,0|8,0:0|0:0,0:0:0:0:
143,290,79348,2,0,L|200:283,1,45,2|0,0:0|0:0,0:0:0:0:
285,345,79519,2,0,L|241:343,1,45
327,273,79690,6,0,B|356:259|356:259|436:282,1,90,8|0,0:0|0:0,0:0:0:0:
478,342,80033,1,2,0:0:0:0:
499,250,80205,1,0,0:0:0:0:
501,223,80290,1,0,0:0:0:0:
504,196,80376,1,0,0:0:0:0:
416,78,80548,1,8,0:0:0:0:
418,105,80633,1,0,0:0:0:0:
421,132,80719,1,2,0:0:0:0:
316,191,80890,1,0,0:0:0:0:
318,164,80976,1,0,0:0:0:0:
321,137,81062,6,0,B|277:123|277:123|230:138,1,90,0|8,0:0|0:0,0:0:0:0:
135,118,81405,2,0,B|113:77|113:77|130:27,1,90,2|0,0:0|0:0,0:0:0:0:
231,163,81748,2,0,L|221:279,1,90,0|8,0:0|0:0,0:0:0:0:
135,329,82090,2,0,L|126:269,1,45,2|0,0:0|0:0,0:0:0:0:
35,260,82262,2,0,L|43:188,1,45
109,82,82433,6,0,L|123:171,1,90,8|0,0:0|0:0,0:0:0:0:
174,22,82776,1,2,0:0:0:0:
37,19,82948,1,0,0:0:0:0:
33,44,83033,1,0,0:0:0:0:
28,70,83119,1,0,0:0:0:0:
191,127,83290,1,8,0:0:0:0:
24,109,83462,1,2,0:0:0:0:
194,149,83633,1,0,0:0:0:0:
199,175,83719,1,0,0:0:0:0:
204,201,83805,5,0,0:0:0:0:
279,152,83976,1,8,0:0:0:0:
122,186,84148,1,2,0:0:0:0:
263,65,84319,1,0,0:0:0:0:
362,204,84490,1,0,0:0:0:0:
388,116,84662,1,8,0:0:0:0:
468,171,84833,1,2,0:0:0:0:
467,198,84919,1,0,0:0:0:0:
465,225,85005,1,0,0:0:0:0:
463,251,85090,1,0,0:0:0:0:
462,278,85176,6,0,B|458:315|458:315|398:337,1,90,8|0,0:0|0:0,0:0:0:0:
242,317,85519,1,2,0:0:0:0:
330,289,85690,1,0,0:0:0:0:
327,316,85776,1,0,0:0:0:0:
324,344,85862,1,0,0:0:0:0:
238,238,86033,1,8,0:0:0:0:
172,357,86205,2,0,B|148:325|148:325|82:344,1,90,2|0,0:0|0:0,0:0:0:0:
79,348,86462,1,0,0:0:0:0:
61,333,86548,6,0,B|44:315|44:315|51:245,1,90,0|8,0:0|0:0,0:0:0:0:
108,157,86890,2,0,B|128:167|128:167|143:258,1,90,2|0,0:0|0:0,0:0:0:0:
41,89,87233,1,0,0:0:0:0:
23,180,87405,1,8,0:0:0:0:
140,71,87576,1,2,0:0:0:0:
166,76,87662,1,0,0:0:0:0:
191,80,87748,1,0,0:0:0:0:
217,86,87833,1,0,0:0:0:0:
243,92,87919,5,6,0:0:0:0:
243,92,88262,2,0,B|270:115|270:115|278:186,1,107.999996704102,0|8,0:0|2:0,0:0:0:0:
351,227,88948,1,0,0:0:0:0:
426,191,89119,2,0,B|435:114|435:114|470:92,1,107.999996704102,2|0,2:0|0:0,0:0:0:0:
498,244,89805,1,2,0:0:0:0:
473,326,89976,2,0,L|418:337,2,53.9999983520508,2|0|2,0:0|0:0|0:0,0:0:0:0:
327,201,90662,5,2,2:0:0:0:
427,191,91005,2,0,B|396:175|396:175|310:208,1,107.999996704102,0|8,0:0|0:0,0:0:0:0:
346,292,91690,1,0,0:0:0:0:
264,263,91862,2,0,B|235:239|235:239|228:159,1,107.999996704102,2|0,0:0|0:0,0:0:0:0:
199,330,92548,1,0,0:0:0:0:
125,295,92719,2,0,L|64:305,2,53.9999983520508,2|0|2,0:0|0:0|0:0,0:0:0:0:
139,104,93405,6,0,L|131:215,2,107.999996704102,2|0|8,2:0|0:0|2:0,0:0:0:0:
139,104,94433,1,0,0:0:0:0:
85,40,94605,2,0,B|117:15|117:15|198:29,1,107.999996704102,2|0,0:0|0:0,0:0:0:0:
341,61,95290,1,0,0:0:0:0:
269,99,95462,2,0,L|265:172,2,53.9999983520508,2|0|2,0:0|0:0|0:0,0:0:0:0:
393,211,96148,6,0,B|418:191|418:191|407:107,2,107.999996704102,2|0|8,2:0|0:0|2:0,0:0:0:0:
393,211,97176,1,0,0:0:0:0:
309,223,97348,2,0,B|284:243|284:243|279:318,1,107.999996704102,2|0,0:0|0:0,0:0:0:0:
439,297,98033,1,0,0:0:0:0:
396,376,98205,2,0,L|328:386,1,53.9999983520508,2|0,0:0|0:0,0:0:0:0:
282,320,98548,2,0,B|242:307|242:307|210:323|166:325,1,107.999996704102,2|2,0:0|2:0,0:0:0:0:
9,308,99233,6,0,P|37:358|85:373,1,107.999996704102,0|8,0:0|0:0,0:0:0:0:
26,220,99919,1,0,0:0:0:0:
106,210,100090,2,0,P|154:237|171:288,1,107.999996704102,2|0,0:0|0:0,0:0:0:0:
89,291,100776,1,0,0:0:0:0:
26,220,100948,1,2,0:0:0:0:
25,133,101119,1,0,0:0:0:0:
73,61,101290,2,0,B|103:73|103:73|140:54|190:69,1,107.999996704102,2|2,0:0|2:0,0:0:0:0:
251,110,101976,6,0,B|245:150|245:150|255:173|255:173|250:223,1,107.999996704102,0|8,0:0|0:0,0:0:0:0:
250,215,102662,1,0,0:0:0:0:
344,300,102833,2,0,B|350:260|350:260|340:237|340:237|345:187,1,107.999996704102,2|0,0:0|0:0,0:0:0:0:
436,131,103519,1,0,0:0:0:0:
436,131,103690,2,0,L|446:193,1,53.9999983520508,2|0,0:0|0:0,0:0:0:0:
366,79,104033,2,0,P|309:69|263:96,1,107.999996704102,2|2,0:0|2:0,0:0:0:0:
100,46,104719,6,0,P|156:48|207:22,1,107.999996704102,0|8,0:0|0:0,0:0:0:0:
202,26,105405,1,0,0:0:0:0:
265,84,105576,2,0,B|259:123|259:123|266:153|266:153|261:197,1,107.999996704102,2|0,0:0|0:0,0:0:0:0:
261,190,106262,1,0,0:0:0:0:
178,163,106433,1,2,0:0:0:0:
95,188,106605,1,0,0:0:0:0:
24,140,106776,2,0,B|27:118|27:118|14:102|14:80|14:80|25:52|20:27,1,107.999996704102,2|2,0:0|2:0,0:0:0:0:
179,163,107462,6,0,B|176:185|176:185|189:201|189:223|189:223|178:251|183:276,1,107.999996704102,0|8,0:0|0:0,0:0:0:0:
181,266,108148,1,0,0:0:0:0:
251,320,108319,2,0,B|269:335|269:335|292:323|292:323|324:341|357:332,1,107.999996704102,2|0,0:0|0:0,0:0:0:0:
468,284,109005,1,0,0:0:0:0:
468,284,109176,2,0,L|463:337,1,53.9999983520508,2|0,0:0|0:0,0:0:0:0:
384,260,109519,2,0,B|392:228|392:228|376:192|380:152,1,107.999996704102,2|6,0:0|0:0,0:0:0:0:
467,54,110205,6,0,B|459:86|459:86|475:122|471:162,1,107.999996704102,0|8,0:0|0:0,0:0:0:0:
471,159,110890,1,0,0:0:0:0:
380,126,111062,2,0,B|354:124|354:124|308:155|308:155|276:152,1,107.999996704102,2|0,0:0|0:0,0:0:0:0:
198,105,111748,1,0,0:0:0:0:
198,105,111919,2,0,L|191:52,2,53.9999983520508,2|0|2,0:0|0:0|0:0,0:0:0:0:
43,146,112605,6,0,P|84:173|153:161,2,107.999996704102,2|0|8,2:0|0:0|0:0,0:0:0:0:
106,94,113633,1,0,0:0:0:0:
156,161,113805,2,0,B|153:202|153:202|166:234|166:234|161:285,1,107.999996704102,2|0,0:0|0:0,0:0:0:0:
243,322,114490,1,0,0:0:0:0:
243,322,114662,2,0,P|272:330|302:323,1,53.9999983520508,2|0,0:0|0:0,0:0:0:0:
383,285,115005,2,0,B|396:213|396:213|375:171,1,107.999996704102,2|2,0:0|2:0,0:0:0:0:
286,40,115690,6,0,B|273:112|273:112|294:154,1,107.999996704102,0|8,0:0|0:0,0:0:0:0:
288,143,116376,1,0,0:0:0:0:
378,106,116548,2,0,B|393:137|393:137|380:209,1,107.999996704102,2|0,0:0|0:0,0:0:0:0:
379,209,117233,1,0,0:0:0:0:
235,154,117405,2,0,L|288:143,1,53.9999983520508,2|0,0:0|0:0,0:0:0:0:
195,67,117748,2,0,B|126:57|126:57|95:80,1,107.999996704102,2|2,0:0|2:0,0:0:0:0:
95,79,118433,5,0,0:0:0:0:
267,92,118776,2,0,P|265:42|216:-8,1,107.999996704102,8|0,0:0|0:0,0:0:0:0:
183,72,119290,2,0,B|177:113|177:113|188:143|188:143|182:189,1,107.999996704102,2|0,0:0|0:0,0:0:0:0:
183,177,119976,1,0,0:0:0:0:
257,221,120148,1,2,0:0:0:0:
337,189,120319,1,0,0:0:0:0:
416,223,120490,2,0,B|429:204|429:204|411:130|411:130|432:108,1,107.999996704102,2|2,0:0|2:0,0:0:0:0:
446,299,121176,6,0,B|419:313|419:313|369:295|369:295|337:313,1,107.999996704102,0|8,0:0|0:0,0:0:0:0:
347,306,121862,1,0,0:0:0:0:
263,359,122033,1,2,0:0:0:0:
258,337,122376,1,0,0:0:0:0:
253,315,122719,1,0,0:0:0:0:
161,283,122890,1,2,0:0:0:0:
80,327,123062,1,0,0:0:0:0:
0,290,123233,2,0,L|7:215,1,53.9999983520508,2|0,0:0|0:0,0:0:0:0:
31,140,123576,5,2,2:0:0:0:
143,74,123919,1,0,0:0:0:0:
147,95,124262,1,8,0:0:0:0:
151,116,124605,1,0,0:0:0:0:
247,169,124776,1,2,0:0:0:0:
244,190,125119,1,0,0:0:0:0:
241,211,125462,1,0,0:0:0:0:
331,247,125633,1,2,0:0:0:0:
411,192,125805,1,0,0:0:0:0:
504,217,125976,2,0,L|497:141,1,53.9999983520508,2|0,0:0|0:0,0:0:0:0:
486,66,126319,5,2,2:0:0:0:
361,30,126662,1,0,0:0:0:0:
359,51,127005,1,8,0:0:0:0:
357,72,127348,1,0,0:0:0:0:
270,127,127519,1,2,0:0:0:0:
273,148,127862,1,0,0:0:0:0:
277,169,128205,1,0,0:0:0:0:
193,194,128376,1,2,0:0:0:0:
123,143,128548,1,0,0:0:0:0:
277,169,128719,1,2,0:0:0:0:
43,167,128890,1,0,0:0:0:0:
193,194,129062,6,0,L|186:259,3,45,0|0|0|0,0:0|0:0|0:0|0:0,0:0:0:0:
191,283,129405,2,0,L|261:313,3,45,0|0|0|0,0:0|0:0|0:0|0:0,0:0:0:0:
267,272,129748,1,2,0:0:0:0:
311,265,129833,1,0,0:0:0:0:
354,276,129919,1,0,0:0:0:0:
388,305,130005,1,0,0:0:0:0:
412,342,130090,1,0,0:0:0:0:
454,357,130176,1,0,0:0:0:0:
496,340,130262,5,2,0:0:0:0:
510,297,130348,1,0,0:0:0:0:
500,253,130433,1,0,0:0:0:0:
466,222,130519,1,0,0:0:0:0:
452,176,130605,1,2,0:0:0:0:
462,134,130690,1,0,0:0:0:0:
482,93,130776,1,0,0:0:0:0:
469,54,130862,1,0,0:0:0:0:
429,31,130948,1,8,0:0:0:0:
384,33,131033,1,0,0:0:0:0:
342,51,131119,6,0,L|334:109,1,45,8|0,0:0|0:0,0:0:0:0:
262,77,131290,2,0,L|254:135,1,45
181,101,131462,2,0,L|173:159,1,45,8|0,0:0|0:0,0:0:0:0:
97,129,131633,2,0,L|89:187,1,45
25,329,131805,6,0,P|54:273|128:275,1,135.000005149842,12|0,0:0|0:0,0:0:0:0:
193,345,132148,2,0,B|244:365|244:365|322:342,1,135.000005149842,2|0,0:0|0:0,0:0:0:0:
468,263,132490,2,0,P|475:339|420:374,1,135.000005149842,0|8,0:0|0:0,0:0:0:0:
370,266,132833,2,0,B|363:221|363:221|379:177|379:177|373:132,1,135.000005149842,2|0,0:0|0:0,0:0:0:0:
392,28,133176,6,0,P|451:46|479:110,1,135.000005149842,0|8,0:0|0:0,0:0:0:0:
307,71,133519,2,0,B|260:93|260:93|177:74,1,135.000005149842,2|0,0:0|0:0,0:0:0:0:
82,29,133862,2,0,P|28:67|32:132,1,135.000005149842,0|8,0:0|0:0,0:0:0:0:
130,226,134205,2,0,L|130:164,1,53.9999983520508,2|0,0:0|0:0,0:0:0:0:
44,232,134376,2,0,L|42:285,1,53.9999983520508
219,237,134548,6,0,B|247:277|247:277|229:366,1,135.000005149842,8|0,0:0|0:0,0:0:0:0:
134,258,134890,1,2,0:0:0:0:
131,234,134976,1,0,0:0:0:0:
128,207,135062,1,0,0:0:0:0:
201,135,135233,1,0,0:0:0:0:
218,237,135405,1,8,0:0:0:0:
59,67,135576,1,2,0:0:0:0:
41,185,135748,1,0,0:0:0:0:
150,30,135919,5,0,0:0:0:0:
126,178,136090,1,8,0:0:0:0:
275,69,136262,1,2,0:0:0:0:
308,201,136433,1,0,0:0:0:0:
441,262,136605,6,0,P|384:273|362:343,1,135,0|2,0:0|0:0,0:0:0:0:
366,349,136948,2,0,L|420:341,1,45,2|0,0:0|0:0,0:0:0:0:
224,285,137119,2,0,L|278:277,1,45
440,261,137290,5,8,0:0:0:0:
298,293,137462,2,0,B|262:319|262:319|212:287|164:312,1,135.000005149842,0|2,0:0|0:0,0:0:0:0:
75,349,137805,1,0,0:0:0:0:
75,349,137890,1,0,0:0:0:0:
75,349,137976,2,0,B|56:308|56:308|80:277|72:215,1,135.000005149842,0|8,0:0|0:0,0:0:0:0:
115,122,138319,1,2,0:0:0:0:
201,190,138490,1,0,0:0:0:0:
201,190,138576,1,0,0:0:0:0:
201,190,138662,6,0,B|221:210|257:214|257:214|289:194|326:198,1,135.000005149842,0|8,0:0|0:0,0:0:0:0:
433,121,139005,2,0,B|413:101|377:97|377:97|345:117|308:113,1,135.000005149842,2|0,0:0|0:0,0:0:0:0:
454,38,139348,1,0,0:0:0:0:
412,204,139519,1,8,0:0:0:0:
307,113,139690,2,0,L|360:102,1,53.9999983520508,2|0,0:0|0:0,0:0:0:0:
198,36,139862,2,0,L|265:41,1,53.9999983520508
130,122,140033,6,0,B|82:136|42:104|42:104|2:141,1,135.000005149842,8|0,0:0|0:0,0:0:0:0:
106,37,140376,1,2,0:0:0:0:
222,125,140548,1,0,0:0:0:0:
222,125,140633,1,0,0:0:0:0:
222,125,140719,2,0,B|215:178|215:178|226:206|226:206|219:264,1,135.000005149842,0|8,0:0|0:0,0:0:0:0:
144,335,141062,1,2,0:0:0:0:
50,281,141233,1,0,0:0:0:0:
50,281,141319,1,0,0:0:0:0:
50,281,141405,6,0,B|43:233|43:233|56:199|56:199|47:145,1,135.000005149842,0|8,0:0|0:0,0:0:0:0:
119,81,141748,1,2,0:0:0:0:
47,150,141919,1,0,0:0:0:0:
222,125,142090,1,0,0:0:0:0:
217,234,142262,1,8,0:0:0:0:
310,282,142433,2,0,L|364:276,1,53.9999983520508,2|0,0:0|0:0,0:0:0:0:
475,349,142605,2,0,L|418:340,1,53.9999983520508
448,257,142776,6,0,B|458:226|458:226|431:146|431:146|438:129,1,135.000005149842,8|0,0:0|0:0,0:0:0:0:
345,16,143119,2,0,B|352:33|352:33|325:113|325:113|335:144,1,135.000005149842,2|0,0:0|0:0,0:0:0:0:
465,180,143462,2,0,P|421:181|368:261,1,135.000005149842,0|8,0:0|0:0,0:0:0:0:
310,366,143805,2,0,B|249:348|249:348|243:303|204:288,1,135.000005149842,2|0,0:0|0:0,0:0:0:0:
45,306,144148,6,0,B|44:343|75:360|75:360|104:334|144:335,1,135.000005149842,0|8,0:0|0:0,0:0:0:0:
124,242,144490,2,0,B|112:213|112:213|143:171|132:113,1,135.000005149842,2|0,0:0|0:0,0:0:0:0:
47,9,144833,2,0,B|59:38|59:38|20:77|40:138,1,135.000005149842,0|8,0:0|0:0,0:0:0:0:
168,123,145176,2,0,L|224:130,1,53.9999983520508,2|0,0:0|0:0,0:0:0:0:
317,42,145348,2,0,L|263:48,1,53.9999983520508
368,127,145519,5,8,0:0:0:0:
512,75,145690,1,0,0:0:0:0:
414,29,145862,1,2,0:0:0:0:
466,172,146033,1,0,0:0:0:0:
276,129,146205,2,0,P|262:162|265:193,1,67.5000025749208,0|0,0:0|0:0,0:0:0:0:
339,226,146376,2,0,P|351:257|347:293,1,67.5000025749208,8|0,0:0|0:0,0:0:0:0:
402,352,146548,2,0,P|346:325|262:336,1,135.000005149842,2|0,0:0|0:0,0:0:0:0:
131,343,146890,6,0,P|75:323|54:281,1,107.999996704102,0|8,0:0|0:0,0:0:0:0:
128,188,147233,2,0,P|184:208|205:250,1,107.999996704102,2|0,0:0|0:0,0:0:0:0:
130,265,147576,6,0,B|103:240|153:156|128:130,1,135,0|2,0:0|0:0,0:0:0:0:
105,103,147919,2,0,L|59:111,1,45,2|0,0:0|0:0,0:0:0:0:
212,162,148090,2,0,L|261:168,1,45
363,113,148262,5,8,0:0:0:0:
344,13,148433,2,0,L|201:31,1,135.000005149842,0|2,0:0|0:0,0:0:0:0:
450,49,148776,1,0,0:0:0:0:
450,49,148862,1,0,0:0:0:0:
450,49,148948,2,0,P|479:107|464:173,1,135.000005149842,0|8,0:0|0:0,0:0:0:0:
366,218,149290,1,2,0:0:0:0:
263,164,149462,1,0,0:0:0:0:
263,164,149548,1,0,0:0:0:0:
263,164,149633,6,0,P|246:240|269:291,1,135.000005149842,0|8,0:0|0:0,0:0:0:0:
358,320,149976,2,0,P|282:315|224:348,1,135.000005149842,2|0,0:0|0:0,0:0:0:0:
75,276,150319,1,0,0:0:0:0:
127,354,150490,1,8,0:0:0:0:
134,200,150662,2,0,L|135:147,1,53.9999983520508,2|0,0:0|0:0,0:0:0:0:
50,110,150833,2,0,L|40:185,1,53.9999983520508
225,225,151005,6,0,B|244:194|244:194|219:91,1,135.000005149842,8|0,0:0|0:0,0:0:0:0:
72,14,151348,1,2,0:0:0:0:
141,85,151519,1,0,0:0:0:0:
141,85,151605,1,0,0:0:0:0:
141,85,151690,2,0,B|195:84|195:84|230:103|230:103|280:104,1,135.000005149842,0|8,0:0|0:0,0:0:0:0:
271,103,152033,1,2,0:0:0:0:
412,32,152205,1,0,0:0:0:0:
412,32,152290,1,0,0:0:0:0:
412,32,152376,6,0,B|370:31|370:31|335:12|335:12|281:13,1,135.000005149842,0|8,0:0|0:0,0:0:0:0:
281,12,152719,1,2,0:0:0:0:
271,104,152890,1,0,0:0:0:0:
366,138,153062,1,0,0:0:0:0:
357,234,153233,1,8,0:0:0:0:
235,277,153405,1,2,0:0:0:0:
231,257,153490,1,0,0:0:0:0:
227,237,153576,1,0,0:0:0:0:
223,216,153662,1,0,0:0:0:0:
220,195,153748,5,12,0:0:0:0:
123,153,153919,1,0,0:0:0:0:
21,186,154090,2,0,B|5:252|5:252|34:316,1,135.000005149842,2|0,0:0|0:0,0:0:0:0:
214,183,154433,1,0,0:0:0:0:
106,184,154605,1,8,0:0:0:0:
31,262,154776,2,0,B|50:327|50:327|106:367,1,135.000005149842,2|0,0:0|0:0,0:0:0:0:
211,160,155119,5,0,0:0:0:0:
118,215,155290,1,8,0:0:0:0:
296,109,155462,1,2,0:0:0:0:
188,91,155633,1,0,0:0:0:0:
382,111,155805,1,0,0:0:0:0:
310,27,155976,1,8,0:0:0:0:
459,154,156148,1,2,0:0:0:0:
455,181,156233,1,0,0:0:0:0:
453,207,156319,1,0,0:0:0:0:
450,234,156405,1,0,0:0:0:0:
445,263,156490,5,8,0:0:0:0:
322,205,156662,1,0,0:0:0:0:
442,290,156833,1,2,0:0:0:0:
334,340,157005,1,0,0:0:0:0:
346,193,157176,1,0,0:0:0:0:
430,314,157348,1,8,0:0:0:0:
311,324,157519,1,2,0:0:0:0:
373,191,157690,1,0,0:0:0:0:
296,302,157862,6,0,P|249:340|193:348,1,107.999996704102,0|8,0:0|0:0,0:0:0:0:
31,275,158205,2,0,P|82:271|135:303,1,107.999996704102,2|0,0:0|0:0,0:0:0:0:
208,254,158548,6,0,B|232:215|180:153|206:110,1,144,0|2,0:0|0:0,0:0:0:0:
263,58,158976,1,0,0:0:0:0:
343,45,159062,1,0,0:0:0:0:
417,78,159148,1,0,0:0:0:0:
461,144,159233,6,0,B|485:183|434:245|458:289,1,135.000005149842,8|0,0:0|0:0,0:0:0:0:
380,347,159576,2,0,B|340:314|340:314|307:338|258:344,1,135.000005149842,2|0,0:0|0:0,0:0:0:0:
186,370,159833,1,0,0:0:0:0:
132,308,159919,2,0,P|104:251|117:179,1,135.000005149842,0|8,0:0|0:0,0:0:0:0:
213,146,160262,1,2,0:0:0:0:
303,204,160433,6,0,L|298:263,2,53.9999983520508
403,162,160776,2,0,P|416:82|384:29,1,135.000005149842,8|2,0:0|0:0,0:0:0:0:
305,114,161119,1,0,0:0:0:0:
248,22,161290,2,0,B|223:46|223:46|184:18|121:29,1,135.000005149842,0|8,0:0|0:0,0:0:0:0:
40,107,161633,2,0,L|34:54,1,53.9999983520508,2|0,0:0|0:0,0:0:0:0:
116,197,161805,2,0,L|124:125,1,53.9999983520508
16,219,161976,6,0,P|5:289|43:346,1,135.000005149842,8|0,0:0|0:0,0:0:0:0:
129,298,162319,1,2,0:0:0:0:
220,354,162490,1,0,0:0:0:0:
220,354,162576,1,0,0:0:0:0:
220,354,162662,2,0,P|252:296|240:231,1,135.000005149842,0|8,0:0|0:0,0:0:0:0:
192,133,163005,1,2,0:0:0:0:
296,158,163176,1,0,0:0:0:0:
296,158,163262,1,0,0:0:0:0:
296,158,163348,5,0,0:0:0:0:
358,70,163519,1,8,0:0:0:0:
463,93,163690,1,2,0:0:0:0:
296,170,163862,5,0,0:3:0:0:
373,95,164033,1,0,0:3:0:0:
472,135,164205,1,8,0:0:0:0:
450,323,164376,1,2,0:0:0:0:
447,302,164462,1,0,0:0:0:0:
444,281,164548,1,0,0:0:0:0:
440,261,164633,1,0,0:0:0:0:
438,240,164719,5,8,0:0:0:0:
328,283,164890,1,0,0:0:0:0:
232,232,165062,2,0,B|210:163|210:163|238:102,1,135.000005149842,2|0,0:0|0:0,0:0:0:0:
331,302,165405,1,0,0:0:0:0:
215,285,165576,1,8,0:0:0:0:
157,192,165748,2,0,B|172:121|172:121|227:82,1,135.000005149842,2|0,0:0|0:0,0:0:0:0:
275,162,166090,5,0,0:0:0:0:
235,273,166262,1,8,0:0:0:0:
127,295,166433,2,0,B|65:256|65:256|46:191,1,135.000005149842,2|0,0:0|0:0,0:0:0:0:
244,297,166776,1,0,0:0:0:0:
145,362,166948,1,8,0:0:0:0:
28,324,167119,1,2,0:0:0:0:
23,297,167205,1,0,0:0:0:0:
19,270,167290,1,0,0:0:0:0:
15,243,167376,1,0,0:0:0:0:
11,216,167462,5,8,0:0:0:0:
95,88,167633,1,0,0:0:0:0:
103,241,167805,1,2,0:0:0:0:
6,122,167976,1,0,0:0:0:0:
154,162,168148,1,0,0:0:0:0:
154,162,168319,1,8,0:0:0:0:
249,53,168490,1,2,0:0:0:0:
249,53,168662,1,0,0:0:0:0:
400,96,168833,6,0,P|424:128|424:200,1,107.999996704102,0|8,0:0|0:0,0:0:0:0:
363,303,169176,2,0,P|363:244|396:206,1,107.999996704102,2|0,0:0|0:0,0:0:0:0:
435,334,169519,6,0,L|284:350,1,144,0|2,0:0|0:0,0:0:0:0:
209,314,169948,1,0,0:0:0:0:
162,234,170033,1,0,0:0:0:0:
171,143,170119,1,0,0:0:0:0:
215,62,170205,6,0,L|362:70,1,144,8|2,0:0|0:0,0:0:0:0:
399,94,170633,1,0,0:0:0:0:
415,141,170719,1,0,0:0:0:0:
413,188,170805,1,0,0:0:0:0:
393,222,170890,6,0,L|239:234,1,144,0|2,0:0|0:0,0:0:0:0:
255,205,171319,1,0,0:0:0:0:
268,181,171405,1,0,0:0:0:0:
291,168,171490,1,0,0:0:0:0:
318,165,171576,6,0,L|337:264,1,90,0|8,0:0|0:0,0:0:0:0:
203,121,171919,2,0,L|222:220,1,90,2|0,0:0|0:0,0:0:0:0:
83,82,172262,6,0,L|102:181,1,90,0|2,0:0|0:0,0:0:0:0:
96,197,172690,1,0,0:0:0:0:
94,224,172776,1,0,0:0:0:0:
90,250,172862,1,0,0:0:0:0:
88,277,172948,5,8,0:0:0:0:
163,343,173119,1,0,0:0:0:0:
256,289,173290,1,2,0:0:0:0:
163,343,173462,1,0,0:0:0:0:
349,343,173633,1,0,0:0:0:0:
256,289,173805,1,8,0:0:0:0:
424,277,173976,1,2,0:0:0:0:
349,343,174148,1,0,0:0:0:0:
336,235,174319,6,0,B|322:147|322:147|349:105,1,135.000005149842,0|8,0:0|0:0,0:0:0:0:
436,39,174662,2,0,B|450:127|450:127|423:169,1,135.000005149842,2|0,0:0|0:0,0:0:0:0:
320,105,175005,6,0,B|288:89|288:89|228:106|228:106|189:87,1,135.000005149842,0|2,0:0|0:0,0:0:0:0:
163,67,175433,1,0,0:0:0:0:
124,62,175519,1,0,0:0:0:0:
89,71,175605,1,0,0:0:0:0:
65,98,175690,6,0,B|52:143|52:143|76:197,1,90,12|0,0:0|0:0,0:0:0:0:
166,172,176033,1,2,0:0:0:0:
216,247,176205,1,0,0:0:0:0:
216,247,176290,1,0,0:0:0:0:
216,247,176376,2,0,L|206:349,1,90,0|8,0:0|0:0,0:0:0:0:
124,257,176719,1,2,0:0:0:0:
260,175,176890,1,0,0:0:0:0:
286,181,176976,1,0,0:0:0:0:
312,187,177062,5,0,0:0:0:0:
378,256,177233,1,8,0:0:0:0:
493,145,177405,1,2,0:0:0:0:
466,236,177576,1,0,0:0:0:0:
332,92,177748,1,0,0:0:0:0:
424,69,177919,1,8,0:0:0:0:
288,81,178090,2,0,L|332:92,1,45,2|0,0:0|0:0,0:0:0:0:
211,28,178262,2,0,L|160:37,1,45
38,93,178433,6,0,P|70:119|121:124,1,90,8|0,0:0|0:0,0:0:0:0:
84,19,178776,1,2,0:0:0:0:
201,129,178948,1,0,0:0:0:0:
201,129,179033,1,0,0:0:0:0:
201,129,179119,2,0,L|190:230,1,90,0|8,0:0|0:0,0:0:0:0:
110,259,179462,1,2,0:0:0:0:
273,263,179633,1,0,0:0:0:0:
277,289,179719,1,0,0:0:0:0:
284,315,179805,6,0,B|329:328|329:328|385:314,1,90,0|8,0:0|0:0,0:0:0:0:
451,244,180148,1,2,0:0:0:0:
466,350,180319,1,0,0:0:0:0:
371,127,180490,1,0,0:0:0:0:
354,234,180662,1,8,0:0:0:0:
472,117,180833,1,2,0:0:0:0:
475,100,180919,1,0,0:0:0:0:
473,83,181005,1,0,0:0:0:0:
465,68,181090,1,0,0:0:0:0:
453,53,181176,6,0,B|421:31|421:31|359:38,1,90,8|0,0:0|0:0,0:0:0:0:
210,71,181519,2,0,B|242:93|242:93|304:86,1,90,2|0,0:0|0:0,0:0:0:0:
371,127,181776,1,0,0:0:0:0:
371,127,181862,2,0,L|366:222,1,90,0|8,0:0|0:0,0:0:0:0:
277,334,182205,2,0,L|270:235,1,90,2|0,0:0|0:0,0:0:0:0:
264,217,182462,1,0,0:0:0:0:
246,195,182548,6,0,B|203:183|203:183|154:195,1,90,0|8,0:0|0:0,0:0:0:0:
72,216,182890,2,0,P|46:185|50:124,1,90,2|0,0:0|0:0,0:0:0:0:
147,60,183233,1,0,0:0:0:0:
148,156,183405,1,8,0:0:0:0:
147,60,183576,2,0,L|95:71,1,45,2|0,0:0|0:0,0:0:0:0:
232,109,183748,2,0,L|288:119,1,45
413,117,183919,6,0,P|432:83|423:28,1,90,8|0,0:0|0:0,0:0:0:0:
323,62,184262,1,2,0:0:0:0:
327,170,184433,1,0,0:0:0:0:
330,196,184519,1,0,0:0:0:0:
332,222,184605,1,0,0:0:0:0:
406,306,184776,1,8,0:0:0:0:
499,242,184948,1,2,0:0:0:0:
500,215,185033,1,0,0:0:0:0:
502,188,185119,1,0,0:0:0:0:
504,161,185205,1,0,0:0:0:0:
505,134,185290,6,0,P|498:77|465:45,1,90,0|8,0:0|0:0,0:0:0:0:
323,62,185633,2,0,L|226:76,1,90,2|0,0:0|0:0,0:0:0:0:
408,6,185976,1,0,0:0:0:0:
414,118,186148,1,8,0:0:0:0:
408,6,186319,2,0,L|463:17,1,45,2|0,0:0|0:0,0:0:0:0:
281,53,186490,2,0,L|336:64,1,45
172,18,186662,6,0,P|152:55|158:110,1,90,8|0,0:0|0:0,0:0:0:0:
250,229,187005,2,0,P|253:179|229:137,1,90,2|0,0:0|0:0,0:0:0:0:
155,101,187262,1,0,0:0:0:0:
155,101,187348,2,0,B|117:124|117:124|68:124,1,90,0|8,0:0|0:0,0:0:0:0:
49,211,187690,2,0,P|61:253|106:284,1,90,2|0,0:0|0:0,0:0:0:0:
122,289,187948,1,0,0:0:0:0:
148,286,188033,5,0,0:0:0:0:
154,185,188205,1,8,0:0:0:0:
242,125,188376,1,2,0:0:0:0:
251,229,188548,1,0,0:0:0:0:
344,285,188719,1,0,0:0:0:0:
354,179,188890,1,8,0:0:0:0:
457,68,189062,1,2,0:0:0:0:
474,90,189148,1,0,0:0:0:0:
480,120,189233,1,0,0:0:0:0:
477,147,189319,1,0,0:0:0:0:
464,171,189405,6,0,L|357:184,1,90,8|0,0:0|0:0,0:0:0:0:
330,84,189748,1,2,0:0:0:0:
248,215,189919,1,0,0:0:0:0:
248,215,190005,1,0,0:0:0:0:
248,214,190090,2,0,L|234:126,1,90,0|8,0:0|0:0,0:0:0:0:
211,295,190433,2,0,P|163:314|115:303,1,90,2|0,0:0|0:0,0:0:0:0:
101,297,190690,1,0,0:0:0:0:
84,275,190776,6,0,L|74:178,1,90,0|8,0:0|0:0,0:0:0:0:
196,75,191119,1,2,0:0:0:0:
189,172,191290,1,0,0:0:0:0:
314,324,191462,1,0,0:0:0:0:
307,227,191633,1,8,0:0:0:0:
211,295,191805,2,0,L|205:367,1,45,2|0,0:0|0:0,0:0:0:0:
307,228,191976,2,0,L|302:184,1,45
214,77,192148,6,0,L|203:203,1,90,8|0,0:0|0:0,0:0:0:0:
334,92,192490,2,0,P|381:82|427:95,1,90,2|0,0:0|0:0,0:0:0:0:
493,145,192748,1,0,0:0:0:0:
493,145,192833,2,0,L|499:39,1,90,0|8,0:0|0:0,0:0:0:0:
419,194,193176,1,2,0:0:0:0:
333,114,193348,1,0,0:0:0:0:
330,139,193433,1,0,0:0:0:0:
328,165,193519,5,0,0:0:0:0:
419,194,193690,1,8,0:0:0:0:
338,64,193862,1,2,0:0:0:0:
236,84,194033,1,0,0:0:0:0:
121,169,194205,1,0,0:0:0:0:
212,198,194376,1,8,0:0:0:0:
44,234,194548,1,2,0:0:0:0:
49,260,194633,1,0,0:0:0:0:
53,286,194719,1,0,0:0:0:0:
59,312,194805,1,0,0:0:0:0:
64,338,194890,6,0,B|112:328|112:328|153:338,1,90,8|0,0:0|0:0,0:0:0:0:
235,371,195233,1,2,0:0:0:0:
301,309,195405,1,0,0:0:0:0:
301,309,195490,1,0,0:0:0:0:
301,309,195576,2,0,L|308:208,1,90,0|8,0:0|0:0,0:0:0:0:
416,90,195919,2,0,P|438:122|434:183,1,90,2|0,0:0|0:0,0:0:0:0:
428,196,196176,1,0,0:0:0:0:
401,193,196262,6,0,B|359:183|359:183|308:194,1,90,0|8,0:0|0:0,0:0:0:0:
208,220,196605,2,0,P|177:187|175:134,1,90,2|0,0:0|0:0,0:0:0:0:
273,48,196948,1,0,0:0:0:0:
258,140,197119,1,8,0:0:0:0:
114,171,197290,1,2,0:0:0:0:
108,144,197376,1,0,0:0:0:0:
103,117,197462,1,0,0:0:0:0:
95,91,197548,1,0,0:0:0:0:
89,65,197633,5,12,0:0:0:0:
