osu file format v13

[General]
AudioFilename: Sons Of War.mp3
AudioLeadIn: 500
PreviewTime: 63906
Countdown: 0
SampleSet: Normal
StackLeniency: 0.4
Mode: 0
LetterboxInBreaks: 0
WidescreenStoryboard: 0

[Editor]
Bookmarks: 1563,9063,16563,24063,37188,52188,59688,64188,71688,79188,86688,95688
DistanceSpacing: 1
BeatDivisor: 4
GridSize: 16
TimelineZoom: 1.7

[Metadata]
Title:Sons of War
TitleUnicode:Sons of War
Artist:Two Steps From Hell
ArtistUnicode:Two Steps From Hell
Creator:Sieg
Version:Normal
Source:
Tags:thomas bergersen classics instrumental ichia7x
BeatmapID:497504
BeatmapSetID:194105

[Difficulty]
HPDrainRate:3.5
CircleSize:3.6
OverallDifficulty:4
ApproachRate:5
SliderMultiplier:1.2
SliderTickRate:1

[Events]
//Background and Video events
0,0,"hh.jpg",0,0
//Break Periods
//Storyboard Layer 0 (Background)
//Storyboard Layer 1 (Fail)
//Storyboard Layer 2 (Pass)
//Storyboard Layer 3 (Foreground)
//Storyboard Sound Samples
//Background Colour Transformations
3,100,163,162,255

[TimingPoints]
1563,375,5,1,1,40,1,0
8313,-100,5,1,1,25,0,0
8688,-100,5,1,1,33,0,0
9063,-100,5,1,1,40,0,0
15813,-100,5,1,1,50,0,0
16563,-100,5,1,1,50,0,0
18438,-100,5,1,1,35,0,0
18531,-100,5,1,1,50,0,0
24063,-100,5,1,1,50,0,0
32313,-100,5,1,1,50,0,0
34188,-100,5,1,1,50,0,0
36438,-100,5,1,1,65,0,0
37188,-100,5,1,1,90,0,1
37563,-100,5,1,1,70,0,1
52094,-100,5,1,1,70,0,0
52188,-100,5,1,1,70,0,1
59688,375,3,1,1,80,1,1
59781,-100,3,1,1,80,0,0
64188,375,5,1,1,80,1,0
64563,-100,5,1,1,70,0,0
86688,375,3,1,1,80,1,0
91563,-100,3,1,1,70,0,0
92688,-100,3,1,1,70,0,0
93438,-100,3,1,1,70,0,0
95688,-100,3,1,1,100,0,1
95781,-100,3,1,1,100,0,0

[Colours]
Combo1 : 40,167,170
Combo2 : 218,165,32

[HitObjects]
110,344,1563,22,0,B|148:305|108:256|108:244|71:176|100:115,1,240,12|0,0:0|3:0,0:0:0:0:
196,41,2688,1,0,0:0:0:0:
316,41,3063,1,8,0:0:0:0:
411,115,3438,6,0,B|440:176|403:244|403:256|363:305|402:344,1,240,12|0,0:0|3:0,0:0:0:0:
282,344,4563,1,0,0:0:0:0:
204,252,4938,1,8,0:0:0:0:
196,132,5313,5,8,0:0:0:0:
196,132,5500,2,0,P|240:55|334:36,1,180,4|0,0:0|3:0,0:0:0:0:
438,71,6438,1,0,0:0:0:0:
406,186,6813,1,8,0:0:0:0:
359,296,7188,5,8,0:0:0:0:
359,296,7375,2,0,P|294:356|198:353,1,180,4|0,0:0|3:0,0:0:0:0:
94,312,8313,2,0,P|128:253|108:193,2,120,0|0|4,0:0|0:0|0:0,0:0:0:0:
50,247,9250,1,4,0:0:0:0:
13,132,9625,2,0,L|1:71,1,60,8|0,0:0|0:0,0:0:0:0:
121,58,10188,1,0,0:0:0:0:
229,110,10563,1,8,0:0:0:0:
294,210,10938,5,8,0:0:0:0:
225,246,11125,2,0,P|310:286|367:233,1,180,4|0,0:0|3:0,0:0:0:0:
413,125,12063,1,8,0:0:0:0:
343,27,12438,1,8,0:0:0:0:
224,43,12813,5,8,0:0:0:0:
148,23,13000,2,0,P|67:37|32:138,1,180,4|0,0:0|3:0,0:0:0:0:
52,237,13938,1,8,0:0:0:0:
137,321,14313,2,0,P|181:277|240:284,1,120,8|0,0:0|0:0,0:0:0:0:
294,332,14875,6,0,P|376:317|386:228,1,180,12|0,0:0|3:0,0:0:0:0:
313,138,15813,2,0,L|319:68,1,60,8|0,0:0|0:0,0:0:0:0:
381,31,16188,2,0,L|464:55,1,60,2|2,0:0|0:0,0:0:0:0:
476,115,16563,6,0,L|472:255,1,120,12|0,0:2|0:0,0:0:0:0:
468,354,17313,1,2,0:0:0:0:
368,286,17688,2,0,P|312:255|252:297,1,120,8|8,0:0|0:0,0:0:0:0:
157,330,18438,6,0,P|99:326|67:277,1,120,6|2,0:2|0:0,0:0:0:0:
29,164,19188,1,0,0:0:0:0:
80,55,19563,2,0,L|141:31,2,60,8|0|8,0:0|0:0|0:0,0:0:0:0:
165,139,20313,6,0,L|301:145,2,120,6|0|2,0:2|0:0|0:0,0:0:0:0:
244,49,21438,2,0,L|365:34,1,120,8|8,0:0|0:0,0:0:0:0:
480,57,22188,6,0,P|460:84|462:127,1,60,6|0,0:2|0:0,0:0:0:0:
461,187,22563,2,0,P|456:252|411:298,1,120,2|2,0:0|0:0,0:0:0:0:
316,348,23313,1,8,0:0:0:0:
311,226,23688,2,0,P|281:243|241:245,1,60,8|0,0:0|0:0,0:0:0:0:
257,164,24063,6,0,B|242:132|258:102|258:96|278:65|243:30,1,120,12|0,0:2|0:0,0:0:0:0:
137,27,24813,1,2,0:0:0:0:
35,90,25188,2,0,L|24:214,1,120,8|8,0:0|0:0,0:0:0:0:
55,325,25938,6,0,P|109:359|172:339,1,120,6|2,0:2|0:0,0:0:0:0:
256,274,26688,1,0,0:0:0:0:
369,314,27063,2,0,L|388:398,2,60,8|0|8,0:0|0:0|0:0,0:0:0:0:
428,209,27813,6,0,P|488:154|491:107,2,120,6|0|2,0:2|0:0|0:0,0:0:0:0:
374,101,28938,2,0,P|293:90|255:118,1,120,8|12,0:0|0:0,0:0:0:0:
268,229,29688,6,0,P|247:307|207:332,1,120,12|12,0:0|0:0,0:0:0:0:
99,341,30438,1,2,0:3:0:0:
2,269,30813,1,12,0:0:0:0:
15,149,31188,1,12,0:0:0:0:
66,40,31563,6,0,B|204:25,1,120,2|2,0:3|0:3,0:0:0:0:
304,36,32313,2,0,L|365:78,1,60,6|0,0:0|0:0,0:0:0:0:
293,120,32688,2,0,L|335:180,1,60,6|0,0:0|0:0,0:0:0:0:
254,196,33063,2,0,L|267:268,1,60,6|0,0:0|0:0,0:0:0:0:
187,262,33438,6,0,P|205:309|269:333,1,120,2|2,0:3|0:3,0:0:0:0:
383,348,34188,2,0,L|456:355,1,60,6|0,0:0|0:0,0:0:0:0:
429,276,34563,2,0,L|500:257,1,60,6|0,0:0|0:0,0:0:0:0:
448,193,34938,2,0,L|505:145,1,60,6|0,0:0|0:0,0:0:0:0:
481,77,35313,6,0,P|430:42|354:50,1,120,2|0,0:0|0:0,0:0:0:0:
266,96,36063,1,2,0:0:0:0:
146,91,36438,1,2,0:3:0:0:
44,26,36813,1,2,0:3:0:0:
7,140,37188,6,0,B|-2:216|-2:216|31:273,1,120,12|0,0:2|0:0,0:0:0:0:
94,347,37938,1,2,0:0:0:0:
160,247,38313,2,0,L|172:167,2,60,12|0|8,0:0|0:0|0:0,0:0:0:0:
239,336,39063,6,0,B|275:313|275:313|303:241,1,120,6|2,0:3|0:0,0:0:0:0:
284,123,39813,1,0,0:0:0:0:
387,62,40188,2,0,P|449:67|504:113,1,120,12|8,0:0|0:0,0:0:0:0:
460,215,40938,6,0,P|398:210|343:164,1,120,6|0,0:3|0:0,0:0:0:0:
256,103,41688,1,2,0:0:0:0:
158,173,42063,2,0,L|82:188,2,60,12|0|8,0:0|0:0|0:0,0:0:0:0:
256,242,42813,6,0,L|268:317,1,60,6|0,0:3|0:0,0:0:0:0:
323,353,43188,2,0,P|387:330|413:282,1,120,0|0,0:0|0:0,0:0:0:0:
464,141,43938,2,0,P|480:112|477:79,1,60,2|2,0:0|0:0,0:0:0:0:
401,95,44313,2,0,P|394:62|371:39,1,60,0|0,0:0|0:0,0:0:0:0:
322,98,44688,6,0,P|288:157|236:174,1,120,12|0,0:2|0:0,0:0:0:0:
208,58,45438,1,2,0:0:0:0:
88,42,45813,2,0,L|92:177,1,120,12|8,0:0|0:0,0:0:0:0:
76,281,46563,6,0,P|26:344|-20:348,2,120,6|2|0,0:3|0:0|0:0,0:0:0:0:
92,161,47688,2,0,B|156:148|156:148|227:184,1,120,12|8,0:0|0:0,0:0:0:0:
206,293,48438,6,0,B|242:333|242:333|307:344,1,120,6|0,0:3|0:0,0:0:0:0:
353,232,49188,1,2,0:0:0:0:
275,140,49563,2,0,B|206:173,2,60,12|0|8,0:0|0:0|0:0,0:0:0:0:
375,73,50313,6,0,L|440:40,1,60,6|0,0:3|0:0,0:0:0:0:
465,112,50688,2,0,P|443:170|475:230,1,120,0|0,0:0|0:0,0:0:0:0:
487,338,51438,2,0,L|423:358,1,60,2|2,0:0|0:0,0:0:0:0:
373,301,51813,2,0,L|309:321,1,60,0|0,0:0|0:0,0:0:0:0:
245,353,52188,6,0,P|176:344|147:279,1,120,12|0,0:2|0:0,0:0:0:0:
140,186,52938,1,2,0:0:0:0:
25,221,53313,2,0,L|11:307,2,60,12|0|8,0:0|0:0|0:0,0:0:0:0:
40,101,54063,6,0,B|77:52|77:52|154:39,1,120,6|2,0:3|0:0,0:0:0:0:
256,41,54813,1,0,0:0:0:0:
256,160,55188,2,0,B|271:192|255:222|255:228|235:259|270:294,1,120,12|8,0:0|0:0,0:0:0:0:
355,346,55938,6,0,B|416:349|416:349|475:298,1,120,6|0,0:3|0:0,0:0:0:0:
507,200,56688,1,2,0:0:0:0:
505,80,57063,2,0,L|497:6,2,60,12|0|8,0:0|0:0|0:0,0:0:0:0:
385,94,57813,6,0,L|366:30,1,60,6|0,0:3|0:0,0:0:0:0:
299,74,58188,2,0,L|282:201,1,120,0|0,0:0|0:0,0:0:0:0:
243,306,58938,2,0,L|224:370,1,60,2|2,0:0|0:0,0:0:0:0:
157,326,59313,2,0,L|96:304,1,60,0|2,0:0|0:0,0:0:0:0:
134,235,59688,1,12,0:2:0:0:
395,223,60813,5,12,0:2:0:0:
117,161,61938,5,12,0:2:0:0:
35,332,64188,6,0,P|91:324|140:279,1,120,12|0,0:2|0:0,0:0:0:0:
171,168,64938,1,2,0:0:0:0:
54,140,65313,2,0,L|42:73,2,60,12|0|8,0:0|0:0|0:0,0:0:0:0:
161,86,66063,6,0,P|215:97|253:168,1,120,6|2,0:2|0:0,0:0:0:0:
256,267,66813,1,0,0:0:0:0:
364,317,67188,2,0,P|419:318|472:257,1,120,12|8,0:0|0:0,0:0:0:0:
486,158,67938,6,0,P|430:156|377:217,1,120,6|0,0:2|0:0,0:0:0:0:
365,316,68688,1,2,0:0:0:0:
279,232,69063,2,0,L|262:172,2,60,12|0|8,0:0|0:0|0:0,0:0:0:0:
259,350,69813,6,0,L|189:362,1,60,6|0,0:2|0:0,0:0:0:0:
129,326,70188,2,0,B|83:293|83:293|77:228,1,120,0|0,0:0|0:0,0:0:0:0:
70,110,70938,2,0,P|62:77|75:47,1,60,2|2,0:0|0:0,0:0:0:0:
143,84,71313,2,0,P|158:54|187:38,1,60,0|0,0:0|0:0,0:0:0:0:
218,108,71688,6,0,P|234:174|279:204,1,120,12|0,0:2|0:0,0:0:0:0:
336,100,72438,1,2,0:0:0:0:
428,176,72813,2,0,L|437:253,2,60,12|0|12,0:0|0:0|0:0,0:0:0:0:
403,58,73563,6,0,P|350:23|281:42,1,120,6|2,0:2|0:0,0:0:0:0:
209,113,74313,1,0,0:0:0:0:
112,184,74688,2,0,P|56:202|4:175,1,120,12|8,0:0|0:0,0:0:0:0:
20,56,75438,6,0,L|144:24,1,120,6|0,0:2|0:0,0:0:0:0:
256,40,76188,1,2,0:0:0:0:
371,72,76563,2,0,L|433:86,2,60,12|0|8,0:0|0:0|0:0,0:0:0:0:
285,156,77313,6,0,L|212:195,1,60,6|0,0:2|0:0,0:0:0:0:
164,224,77688,2,0,P|133:193|52:186,1,120,0|0,0:0|0:0,0:0:0:0:
50,301,78438,2,0,P|74:318|114:321,1,60,2|2,0:0|0:0,0:0:0:0:
183,325,78813,2,0,P|213:315|248:325,1,60,0|0,0:0|0:0,0:0:0:0:
312,352,79188,6,0,P|378:365|438:329,1,120,12|0,0:2|0:0,0:0:0:0:
502,254,79938,1,2,0:0:0:0:
471,137,80313,2,0,L|493:9,1,120,12|8,0:0|0:0,0:0:0:0:
380,65,81063,6,0,L|358:193,1,120,6|2,0:2|0:0,0:0:0:0:
256,245,81813,1,0,0:0:0:0:
140,278,82188,2,0,L|71:298,2,60,12|0|8,0:0|0:0|0:0,0:0:0:0:
176,163,82938,6,0,P|182:83|151:41,1,120,6|0,0:2|0:0,0:0:0:0:
60,120,83688,1,2,0:0:0:0:
21,234,84063,2,0,P|37:312|78:344,1,120,12|8,0:0|0:0,0:0:0:0:
184,353,84813,6,0,P|222:336|240:301,1,60,6|0,0:2|0:0,0:0:0:0:
256,248,85188,2,0,B|271:216|255:186|255:180|235:149|270:114,1,120,0|0,0:0|0:0,0:0:0:0:
348,52,85938,2,0,L|421:48,1,60,2|2,0:0|0:0,0:0:0:0:
390,125,86313,2,0,L|459:147,1,60,0|0,0:0|0:0,0:0:0:0:
407,210,86688,1,12,0:2:0:0:
106,239,87813,5,12,0:2:0:0:
406,145,88938,5,12,0:2:0:0:
209,325,91188,5,12,0:2:0:0:
94,295,91563,2,0,P|126:239|182:209,1,120,2|0,0:0|0:0,0:0:0:0:
285,169,92313,5,12,0:2:0:0:
262,51,92688,2,0,P|321:54|371:85,1,120,2|0,0:0|0:0,0:0:0:0:
256,192,93438,12,12,95688,0:2:0:0:
