osu file format v12

[General]
AudioFilename: Heart of Courage Remix - Two Steps From Hell (Dance Remix by Plasma3Music feat. BMIZ Crew).mp3
AudioLeadIn: 0
PreviewTime: -1
Countdown: 1
SampleSet: Soft
StackLeniency: 0.7
Mode: 0
LetterboxInBreaks: 1

[Editor]
Bookmarks: 89158,116345,187593,240092
DistanceSpacing: 0.8
BeatDivisor: 4
GridSize: 4

[Metadata]
Title:Heart of Courage (Remix)
TitleUnicode:Heart of Courage (Remix)
Artist:Two Steps From Hell
ArtistUnicode:Two Steps From Hell
Creator:hornex
Version:Brave
Source:
Tags:
BeatmapID:209279
BeatmapSetID:73476

[Difficulty]
HPDrainRate:6
CircleSize:4
OverallDifficulty:7
ApproachRate:7
SliderMultiplier:1.4
SliderTickRate:1

[Events]
//Background and Video events
0,0,"violet_twilight-1920x1080.jpg",0,0
//Break Periods
2,86546,89195
2,180293,186693
//Storyboard Layer 0 (Background)
//Storyboard Layer 1 (Fail)
//Storyboard Layer 2 (Pass)
//Storyboard Layer 3 (Foreground)
//Storyboard Sound Samples
//Background Colour Transformations
3,100,163,162,255

[TimingPoints]
75096,468.74,4,2,0,66,1,0
105095,-100,4,3,0,87,0,1
120095,-100,4,2,0,100,0,0
121032,-100,4,2,0,100,0,0
133219,-100,4,2,0,100,0,0
176226,-100,4,3,0,60,0,0
187124,-100,4,2,0,100,0,0
188003,-66.6666666666667,4,2,0,100,0,0
188472,-50,4,2,0,100,0,0
191226,-100,4,2,0,100,0,0
195210,-50,4,2,0,100,0,0
203882,-100,4,2,0,100,0,0
208159,-84.0336134453781,4,2,0,100,0,0

[Colours]
Combo1 : 255,21,215
Combo2 : 220,24,98
Combo3 : 174,4,140
Combo4 : 124,67,231
Combo5 : 51,111,251
Combo6 : 38,143,249
Combo7 : 252,177,67
Combo8 : 251,96,21

[HitObjects]
68,56,75095,2,0,L|144:56,1,70
196,56,75564,1,0,0:0:0:0:
252,56,75799,2,0,L|316:56,2,35
196,56,76267,1,0,0:0:0:0:
140,56,76502,1,8,0:0:0:0:
84,56,76736,1,0,0:0:0:0:
84,112,76970,6,0,L|84:204,1,70
84,240,77439,1,0,0:0:0:0:
84,184,77674,1,0,0:0:0:0:
128,148,77908,2,0,L|204:148,1,70,8|0,0:0|0:0,0:0:0:0:
260,240,78377,2,0,L|336:240,1,70,8|0,0:0|0:0,0:0:0:0:
412,160,78845,5,8,0:0:0:0:
412,160,79080,1,8,0:0:0:0:
356,160,79314,2,0,L|260:160,1,70,2|0,0:0|0:0,0:0:0:0:
284,216,79783,1,8,0:0:0:0:
284,216,80017,1,8,0:0:0:0:
228,216,80252,2,0,L|144:216,1,70,2|0,0:0|0:0,0:0:0:0:
160,160,80720,1,0,0:0:0:0:
160,104,80955,1,8,0:0:0:0:
216,104,81189,2,0,L|292:104,1,70,2|0,0:0|0:0,0:0:0:0:
312,104,81541,2,0,L|368:104,3,35
348,160,82127,1,2,0:0:0:0:
404,272,82595,21,0,0:0:0:0:
348,272,82830,1,0,0:0:0:0:
292,272,83064,2,0,L|208:272,1,70,2|0,0:0|0:0,0:0:0:0:
168,268,83533,2,0,L|228:212,1,70,2|0,0:0|0:0,0:0:0:0:
260,180,84002,2,0,L|204:128,1,70,2|0,0:0|0:0,0:0:0:0:
256,192,84470,12,4,86346,0:0:0:0:
256,192,90095,5,8,0:0:0:0:
344,192,90330,1,0,0:0:0:0:
176,192,90564,1,0,0:0:0:0:
256,192,90798,1,0,0:0:0:0:
256,272,91033,2,0,L|256:348,1,70,8|0,0:0|0:0,0:0:0:0:
256,112,91501,1,8,0:0:0:0:
256,36,91736,1,0,0:0:0:0:
180,192,91970,5,0,0:0:0:0:
328,192,92205,1,0,0:0:0:0:
128,76,92439,2,0,L|188:124,1,70,8|0,0:0|0:0,0:0:0:0:
392,300,92908,2,0,L|328:256,1,70
256,44,93376,1,8,0:0:0:0:
256,340,93611,1,0,0:0:0:0:
188,164,93845,6,0,P|200:128|232:140,2,70,8|0|8,0:0|0:0|0:0,0:0:0:0:
256,352,94548,1,0,0:0:0:0:
256,36,94783,1,0,0:0:0:0:
324,224,95017,6,0,P|304:264|280:264,2,70,0|8|0,0:0|0:0|0:0,0:0:0:0:
124,76,95720,53,0,0:0:0:0:
404,300,95954,1,0,0:0:0:0:
424,44,96189,2,0,L|364:104,1,70,8|0,0:0|0:0,0:0:0:0:
144,300,96658,2,0,L|80:360,2,70,8|0|8,0:0|0:0|0:0,0:0:0:0:
192,264,97361,1,0,0:0:0:0:
256,88,97595,38,0,L|256:172,1,70
360,192,98064,2,0,L|288:192,1,70,8|0,0:0|0:0,0:0:0:0:
156,196,98532,1,0,0:0:0:0:
360,192,98767,1,0,0:0:0:0:
256,312,99001,2,0,L|256:236,1,70,8|0,0:0|0:0,0:0:0:0:
256,88,99470,1,0,0:0:0:0:
256,88,99704,1,0,0:0:0:0:
96,76,99939,6,0,L|180:76,1,70,8|0,0:0|0:0,0:0:0:0:
424,80,100407,2,0,L|424:152,1,70
424,292,100876,2,0,L|328:292,1,70,8|0,0:0|0:0,0:0:0:0:
96,300,101345,2,0,L|96:212,2,70,8|0|8,0:0|0:0|0:0,0:0:0:0:
96,356,102048,1,0,0:0:0:0:
96,164,102282,1,0,0:0:0:0:
96,356,102517,1,0,0:0:0:0:
36,236,102751,1,8,0:0:0:0:
164,236,102986,1,0,0:0:0:0:
224,160,103220,6,0,L|168:108,1,70
288,224,103689,2,0,L|344:272,1,70,8|0,0:0|0:0,0:0:0:0:
288,160,104157,2,0,L|340:104,1,70
224,224,104626,2,0,L|156:296,1,70,8|0,0:0|0:0,0:0:0:0:
256,196,105095,5,0,0:0:0:0:
256,124,105329,1,2,0:0:0:0:
256,196,105564,1,0,0:0:0:0:
360,196,105798,1,2,0:0:0:0:
256,196,106032,1,0,0:0:0:0:
264,320,106267,1,2,0:0:0:0:
256,196,106501,1,0,0:0:0:0:
84,196,106735,1,2,0:0:0:0:
256,196,106970,6,0,L|256:120,1,70,8|2,0:0|0:0,0:0:0:0:
328,140,107439,2,0,L|368:76,1,70,8|2,0:0|0:0,0:0:0:0:
424,124,107907,2,0,L|492:72,1,70,8|2,0:0|0:0,0:0:0:0:
220,192,108376,6,0,L|292:192,4,70,8|2|8|2|8,0:0|0:0|0:0|0:0|0:0,0:0:0:0:
256,192,109548,54,0,L|256:276,1,70,2|8,0:0|0:0,0:0:0:0:
188,248,110017,2,0,L|144:324,1,70,2|8,0:0|0:0,0:0:0:0:
100,260,110485,2,0,L|12:312,1,70,2|8,0:0|0:0,0:0:0:0:
100,80,110954,101,2,0:0:0:0:
256,192,111188,1,2,0:0:0:0:
428,312,111423,1,2,0:0:0:0:
256,192,111657,1,2,0:0:0:0:
420,80,111892,1,2,0:0:0:0:
256,192,112126,1,0,0:0:0:0:
96,308,112360,1,2,0:0:0:0:
256,192,112595,1,2,0:0:0:0:
256,192,112829,38,8,L|256:108,1,70
256,192,113298,2,8,L|356:192,1,70
256,192,113767,2,8,L|256:292,1,70
256,192,114235,2,8,L|160:192,1,70
188,260,114704,5,2,0:0:0:0:
328,128,114938,1,2,0:0:0:0:
328,260,115173,1,2,0:0:0:0:
188,124,115407,1,2,0:0:0:0:
256,332,115642,5,8,0:0:0:0:
256,52,115876,1,8,0:0:0:0:
416,192,116110,1,8,0:0:0:0:
108,192,116345,6,8,L|160:192,15,35
172,192,118220,2,4,L|192:192,32,17.5,0|0|0|0|0|0|0|0|0|0|0|0|0|0|0|0|0|0|0|0|0|0|0|0|0|0|0|0|0|0|0|0|14,0:0|0:0|0:0|0:0|0:0|0:0|0:0|0:0|0:0|0:0|0:0|0:0|0:0|0:0|0:0|0:0|0:0|0:0|0:0|0:0|0:0|0:0|0:0|0:0|0:0|0:0|0:0|0:0|0:0|0:0|0:0|0:0|0:0,0:0:0:0:
96,48,120563,6,0,L|184:48,1,70
292,144,121032,2,0,L|192:144,1,70
352,52,121501,2,0,L|432:52,1,70
256,192,121969,101,8,0:0:0:0:
428,320,122438,2,0,L|348:320,1,70
144,240,122907,2,0,L|64:240,1,70
176,328,123376,2,0,L|256:328,1,70
256,192,123844,5,8,0:0:0:0:
88,80,124313,6,8,P|100:48|136:48,1,70
424,80,124782,2,8,P|408:44|372:48,1,70
224,324,125251,2,8,P|292:316|296:308,1,70
256,224,125719,5,2,0:0:0:0:
256,196,125837,1,2,0:0:0:0:
256,168,125954,1,10,0:0:0:0:
256,112,126188,1,8,0:0:0:0:
144,112,126423,1,0,0:0:0:0:
364,108,126657,1,8,0:0:0:0:
144,112,126891,1,0,0:0:0:0:
256,168,127126,2,8,L|256:248,1,70
144,112,128063,5,0,0:0:0:0:
352,112,128297,1,0,0:0:0:0:
144,112,128532,2,0,P|96:112|96:76,1,70
352,112,129001,2,0,P|400:112|400:76,1,70
352,268,129938,5,0,0:0:0:0:
160,268,130172,1,0,0:0:0:0:
352,268,130407,2,0,P|392:268|392:316,1,70
160,268,130876,2,0,P|116:268|116:316,1,70
116,192,131344,6,0,L|256:192,1,140
396,192,132282,2,0,L|256:192,1,140
256,192,133219,12,0,135094,0:0:0:0:
220,156,135563,22,0,L|164:104,1,70
292,228,136032,2,0,L|356:284,1,70
352,112,136500,1,0,0:0:0:0:
152,280,136735,1,0,0:0:0:0:
352,112,137438,6,0,L|416:176,1,70
152,280,137907,2,0,L|84:212,1,70
256,36,138375,1,0,0:0:0:0:
256,352,138610,1,0,0:0:0:0:
36,36,139313,6,0,L|120:36,1,70
476,352,139782,2,0,L|400:352,1,70
172,36,140250,1,0,0:0:0:0:
336,352,140485,1,0,0:0:0:0:
256,216,140719,5,0,0:0:0:0:
256,188,140836,1,0,0:0:0:0:
256,160,140953,1,0,0:0:0:0:
176,192,141188,1,0,0:0:0:0:
332,192,141422,1,0,0:0:0:0:
176,192,141657,1,0,0:0:0:0:
332,192,141891,1,0,0:0:0:0:
256,160,142125,2,0,L|256:232,1,70
184,288,143063,5,0,0:0:0:0:
324,104,143297,1,0,0:0:0:0:
324,288,143532,1,0,0:0:0:0:
184,100,143766,1,0,0:0:0:0:
256,228,144000,2,0,L|256:152,1,70
184,100,144938,6,0,L|284:100,1,70
324,288,145407,2,0,L|244:288,1,70
320,104,145875,1,0,0:0:0:0:
188,288,146110,1,0,0:0:0:0:
192,64,146344,6,0,P|256:36|320:68,1,140
316,320,147281,22,0,P|256:352|196:320,1,140
140,132,148219,22,0,P|108:192|140:252,1,140
372,252,149156,38,0,P|404:192|372:132,1,140
256,192,150094,5,14,0:0:0:0:
136,128,150563,6,0,L|200:60,1,70
348,272,151031,1,0,0:0:0:0:
208,244,151266,2,0,L|148:296,1,70
308,144,151734,2,0,L|384:80,1,70
224,160,152438,5,0,0:0:0:0:
288,224,152672,1,0,0:0:0:0:
384,76,152906,1,0,0:0:0:0:
128,316,153141,1,0,0:0:0:0:
256,192,153375,2,0,L|312:140,1,70
256,192,153844,2,0,L|188:268,1,70
128,316,154313,5,0,0:0:0:0:
384,76,154547,1,0,0:0:0:0:
48,92,154781,2,0,L|104:36,1,70
456,288,155250,2,0,L|404:340,1,70
256,332,155719,5,0,0:0:0:0:
228,332,155836,1,0,0:0:0:0:
200,332,155953,1,0,0:0:0:0:
56,192,156188,5,0,0:0:0:0:
56,164,156305,1,0,0:0:0:0:
56,136,156422,1,0,0:0:0:0:
256,60,156656,5,0,0:0:0:0:
284,60,156773,1,0,0:0:0:0:
312,60,156891,1,0,0:0:0:0:
444,192,157125,5,0,0:0:0:0:
444,220,157242,1,0,0:0:0:0:
444,252,157359,1,0,0:0:0:0:
256,192,157594,5,0,0:0:0:0:
220,156,158062,22,0,L|220:72,1,70
340,156,158531,6,0,L|432:156,1,70
348,276,159000,22,0,L|424:324,1,70
256,324,159937,6,0,L|256:248,1,70
172,252,160406,6,0,L|216:180,1,70
124,160,160875,6,0,L|192:116,1,70
256,192,161344,12,0,165094,0:0:0:0:
140,160,165562,86,0,L|240:160,1,70
376,224,166031,2,0,L|304:224,1,70
256,72,166500,1,0,0:0:0:0:
256,312,166734,1,0,0:0:0:0:
256,192,166969,1,0,0:0:0:0:
156,100,167437,6,0,L|96:56,1,70
356,280,167906,2,0,L|428:336,1,70
224,132,168375,1,0,0:0:0:0:
288,256,168609,1,0,0:0:0:0:
256,192,168844,1,0,0:0:0:0:
312,136,169312,5,0,0:0:0:0:
200,248,169547,1,0,0:0:0:0:
400,112,169781,1,0,0:0:0:0:
120,292,170015,1,0,0:0:0:0:
44,264,170250,1,0,0:0:0:0:
464,164,170484,1,0,0:0:0:0:
256,156,170718,70,0,L|256:112,2,35
220,192,171187,102,0,L|184:192,2,35
292,192,171656,102,0,L|336:192,2,35
256,228,172125,6,0,L|256:264,2,35
256,192,172593,21,0,0:0:0:0:
220,80,173062,6,0,L|288:32,1,70
292,312,173531,2,0,L|224:356,1,70
256,192,174000,2,0,B|220:176|256:204|280:192|272:172|248:172|240:192,1,70
184,276,174937,6,0,L|104:312,1,70
328,112,175406,2,0,L|412:76,1,70
256,192,175875,2,0,B|288:184|256:196|244:192|268:184|280:204|256:212|272:172|288:208|244:216|216:192|268:188,1,70
324,192,176343,6,4,L|360:192,3,35
188,192,176812,22,4,L|148:192,3,35
292,256,177281,6,0,L|328:288,3,35
220,128,177750,6,0,L|180:88,3,35
256,68,178218,6,0,L|256:16,3,35
256,316,178687,6,0,L|256:356,3,35
236,192,179156,6,0,L|276:192,8,35
220,48,187593,6,0,L|176:48,1,35,8|0,0:0|0:0,0:0:0:0:
288,48,187827,2,0,L|336:48,1,35
216,128,188062,6,0,L|144:128,1,52.5000020027161,8|0,0:0|0:0,0:0:0:0:
292,128,188296,2,0,L|348:128,1,52.5000020027161
216,208,188531,6,0,L|132:208,1,70,8|0,0:0|0:0,0:0:0:0:
292,208,188765,2,0,L|368:208,1,70
128,48,188999,6,0,L|128:128,1,70,8|0,0:0|0:0,0:0:0:0:
380,48,189234,2,0,L|380:140,1,70
240,56,189468,5,8,0:0:0:0:
264,72,189585,1,0,0:0:0:0:
240,96,189702,1,8,0:0:0:0:
264,112,189820,1,0,0:0:0:0:
240,136,189937,1,8,0:0:0:0:
264,156,190054,1,0,0:0:0:0:
240,180,190171,1,8,0:0:0:0:
224,348,190406,6,0,L|152:284,1,70
288,348,190640,2,8,L|340:292,1,70
224,304,190874,2,8,L|164:252,1,70
288,304,191109,2,8,L|336:252,1,70,8|0,0:0|0:0,0:0:0:0:
256,256,191343,22,0,P|180:256|140:208,1,140
256,256,192281,2,0,P|332:256|372:208,1,140
256,192,193218,12,4,195093,0:0:0:0:
256,192,195327,5,0,0:0:0:0:
188,72,195562,2,0,P|256:52|324:76,1,140
308,300,196030,2,0,P|248:336|196:292,1,140
80,192,196499,1,0,0:0:0:0:
428,192,196734,1,0,0:0:0:0:
256,192,196968,22,0,L|256:48,2,140
332,56,197671,1,0,0:0:0:0:
256,192,197905,2,0,L|256:332,2,140
184,332,198608,1,0,0:0:0:0:
200,140,198843,2,0,L|80:40,1,140
312,236,199312,2,0,L|432:332,1,140
96,52,199780,1,0,0:0:0:0:
420,324,200015,1,0,0:0:0:0:
288,60,200249,6,0,L|388:160,1,140
224,324,200718,2,0,L|120:220,1,140
172,108,201187,1,0,0:0:0:0:
352,276,201421,1,0,0:0:0:0:
152,88,201655,1,0,0:0:0:0:
368,292,201890,1,0,0:0:0:0:
256,192,202124,5,0,0:0:0:0:
164,276,202358,5,0,0:0:0:0:
368,100,202593,1,0,0:0:0:0:
140,296,202827,1,0,0:0:0:0:
388,80,203062,1,0,0:0:0:0:
256,348,203296,2,0,L|256:264,1,70
256,244,203530,1,0,0:0:0:0:
256,212,203647,1,0,0:0:0:0:
256,176,203765,1,0,0:0:0:0:
256,108,203999,2,0,L|256:24,1,70
220,156,204468,6,0,L|200:88,1,70
296,232,204936,2,0,L|320:312,1,70
156,132,205405,2,0,L|96:72,1,70
352,256,205874,2,0,L|408:312,1,70
256,156,206343,5,0,0:0:0:0:
256,228,206577,1,0,0:0:0:0:
256,88,206811,1,0,0:0:0:0:
256,296,207046,1,0,0:0:0:0:
312,192,207280,1,0,0:0:0:0:
200,192,207515,1,0,0:0:0:0:
312,192,207749,1,0,0:0:0:0:
200,192,207983,1,0,0:0:0:0:
256,316,208218,70,0,B|196:260|156:212|148:184|164:156|156:144|192:128|184:128|192:116|232:132|232:132|252:140|272:172|252:192|252:204|252:216|252:200|252:176|252:156|252:140|268:132|280:120|392:44|320:160|340:144|348:156|388:184|352:212|312:260|272:300|272:292|252:332,1,666.399986781006
