osu file format v12

[General]
AudioFilename: DragonRider.mp3
AudioLeadIn: 0
PreviewTime: -1
Countdown: 0
SampleSet: None
StackLeniency: 0.7
Mode: 3
LetterboxInBreaks: 0
SpecialStyle: 0
WidescreenStoryboard: 1

[Editor]
DistanceSpacing: 0.8
BeatDivisor: 4
GridSize: 8

[Metadata]
Title:Dragon Rider
TitleUnicode:Dragon Rider
Artist:Two Steps From Hell
ArtistUnicode:Two Steps From Hell
Creator:Entozer
Version:HONG MEILING_EX
Source:
Tags:
BeatmapID:379742
BeatmapSetID:154678

[Difficulty]
HPDrainRate:8
CircleSize:7
OverallDifficulty:8
ApproachRate:5
SliderMultiplier:1.4
SliderTickRate:1

[Events]
//Background and Video events
//Break Periods
//Storyboard Layer 0 (Background)
//Storyboard Layer 1 (Fail)
//Storyboard Layer 2 (Pass)
//Storyboard Layer 3 (Foreground)
//Storyboard Sound Samples
//Background Colour Transformations
3,100,163,162,255

[TimingPoints]
795,375,4,2,0,5,1,0

[HitObjects]
182,192,982,128,0,1076:0:0:0:0:
256,192,1170,1,0,0:0:0:0:
475,192,1170,1,0,0:0:0:0:
402,192,1170,1,0,0:0:0:0:
109,192,1170,128,0,1263:0:0:0:0:
36,192,1357,128,0,1451:0:0:0:0:
109,192,1545,128,0,1638:0:0:0:0:
182,192,1732,128,0,1826:0:0:0:0:
256,192,1920,1,0,0:0:0:0:
109,192,1920,1,0,0:0:0:0:
36,192,1920,1,0,0:0:0:0:
329,192,1920,128,0,2013:0:0:0:0:
402,192,2107,128,0,2201:0:0:0:0:
475,192,2295,128,0,2388:0:0:0:0:
402,192,2482,128,0,2576:0:0:0:0:
256,192,2670,1,0,0:0:0:0:
109,192,2670,1,0,0:0:0:0:
36,192,2670,1,0,0:0:0:0:
329,192,2670,128,0,2763:0:0:0:0:
182,192,2857,128,0,2951:0:0:0:0:
109,192,3045,128,0,3138:0:0:0:0:
36,192,3232,128,0,3326:0:0:0:0:
256,192,3420,1,0,0:0:0:0:
402,192,3420,1,0,0:0:0:0:
475,192,3420,1,0,0:0:0:0:
109,192,3420,128,0,3513:0:0:0:0:
182,192,3607,128,0,3701:0:0:0:0:
182,192,3982,128,0,4076:0:0:0:0:
256,192,4170,1,0,0:0:0:0:
402,192,4170,1,0,0:0:0:0:
475,192,4170,1,0,0:0:0:0:
109,192,4170,128,0,4263:0:0:0:0:
36,192,4357,128,0,4451:0:0:0:0:
109,192,4545,128,0,4638:0:0:0:0:
182,192,4732,128,0,4826:0:0:0:0:
256,192,4920,1,0,0:0:0:0:
109,192,4920,1,0,0:0:0:0:
36,192,4920,1,0,0:0:0:0:
329,192,4920,128,0,5013:0:0:0:0:
402,192,5107,128,0,5201:0:0:0:0:
475,192,5295,128,0,5388:0:0:0:0:
402,192,5482,128,0,5576:0:0:0:0:
256,192,5670,1,0,0:0:0:0:
109,192,5670,1,0,0:0:0:0:
36,192,5670,1,0,0:0:0:0:
329,192,5670,128,0,5763:0:0:0:0:
182,192,5857,128,0,5951:0:0:0:0:
109,192,6045,128,0,6138:0:0:0:0:
36,192,6232,128,0,6326:0:0:0:0:
256,192,6420,1,0,0:0:0:0:
402,192,6420,1,0,0:0:0:0:
475,192,6420,1,0,0:0:0:0:
329,192,6420,1,0,0:0:0:0:
109,192,6420,128,0,6513:0:0:0:0:
182,192,6607,128,0,6701:0:0:0:0:
36,192,6795,128,0,12795:0:0:0:0:
182,192,6982,128,0,7076:0:0:0:0:
256,192,7170,1,0,0:0:0:0:
402,192,7170,1,0,0:0:0:0:
475,192,7170,1,0,0:0:0:0:
109,192,7170,128,0,7263:0:0:0:0:
182,192,7357,128,0,7451:0:0:0:0:
329,192,7545,128,0,7638:0:0:0:0:
402,192,7732,128,0,7826:0:0:0:0:
256,192,7920,1,0,0:0:0:0:
109,192,7920,1,0,0:0:0:0:
182,192,7920,1,0,0:0:0:0:
475,192,7920,128,0,8013:0:0:0:0:
402,192,8107,128,0,8201:0:0:0:0:
329,192,8295,128,0,8388:0:0:0:0:
182,192,8482,128,0,8576:0:0:0:0:
256,192,8670,1,0,0:0:0:0:
402,192,8670,1,0,0:0:0:0:
475,192,8670,1,0,0:0:0:0:
109,192,8670,128,0,8763:0:0:0:0:
182,192,8857,128,0,8951:0:0:0:0:
329,192,9045,128,0,9138:0:0:0:0:
402,192,9232,128,0,9326:0:0:0:0:
256,192,9420,1,0,0:0:0:0:
182,192,9420,1,0,0:0:0:0:
109,192,9420,1,0,0:0:0:0:
475,192,9420,128,0,9513:0:0:0:0:
402,192,9607,128,0,9701:0:0:0:0:
475,192,9795,128,0,12795:0:0:0:0:
402,192,9982,128,0,10076:0:0:0:0:
256,192,10170,1,0,0:0:0:0:
109,192,10170,1,0,0:0:0:0:
329,192,10170,128,0,10263:0:0:0:0:
182,192,10357,128,0,10451:0:0:0:0:
109,192,10545,128,0,10638:0:0:0:0:
182,192,10732,128,0,10826:0:0:0:0:
256,192,10920,1,0,0:0:0:0:
109,192,10920,1,0,0:0:0:0:
329,192,10920,128,0,11013:0:0:0:0:
402,192,11107,128,0,11201:0:0:0:0:
329,192,11295,128,0,12795:0:0:0:0:
182,192,11295,128,0,12795:0:0:0:0:
109,192,11295,128,0,11388:0:0:0:0:
402,192,11482,128,0,11576:0:0:0:0:
256,192,11670,1,0,0:0:0:0:
109,192,11670,128,0,11763:0:0:0:0:
402,192,11857,128,0,11951:0:0:0:0:
402,192,12045,128,0,12138:0:0:0:0:
109,192,12232,128,0,12326:0:0:0:0:
256,192,12420,1,0,0:0:0:0:
109,192,12420,1,0,0:0:0:0:
402,192,12420,128,0,12513:0:0:0:0:
109,192,12607,128,0,12701:0:0:0:0:
402,192,12795,128,0,12888:0:0:0:0:
256,192,12795,1,0,0:0:0:0:
329,192,12982,128,0,13076:0:0:0:0:
109,192,13170,128,0,13263:0:0:0:0:
256,192,13170,1,0,0:0:0:0:
36,192,13170,1,0,0:0:0:0:
402,192,13170,1,0,0:0:0:0:
182,192,13357,128,0,13451:0:0:0:0:
329,192,13357,1,0,0:0:0:0:
256,192,13545,128,0,13638:0:0:0:0:
402,192,13545,1,0,0:0:0:0:
182,192,13732,128,0,13826:0:0:0:0:
329,192,13732,1,0,0:0:0:0:
475,192,13732,1,0,0:0:0:0:
256,192,13920,128,0,14013:0:0:0:0:
109,192,13920,1,0,0:0:0:0:
402,192,13920,1,0,0:0:0:0:
36,192,13920,1,0,0:0:0:0:
329,192,14107,128,0,14201:0:0:0:0:
182,192,14107,1,0,0:0:0:0:
475,192,14107,1,0,0:0:0:0:
36,192,14295,128,0,15795:0:0:0:0:
256,192,14295,1,0,0:0:0:0:
402,192,14295,128,0,14388:0:0:0:0:
109,192,14295,1,0,0:0:0:0:
182,192,14482,1,0,0:0:0:0:
329,192,14482,128,0,14576:0:0:0:0:
109,192,14670,1,0,0:0:0:0:
256,192,14670,128,0,14763:0:0:0:0:
402,192,14670,1,0,0:0:0:0:
475,192,14670,1,0,0:0:0:0:
182,192,14857,1,0,0:0:0:0:
329,192,14857,128,0,14951:0:0:0:0:
402,192,15045,1,0,0:0:0:0:
256,192,15045,128,0,15138:0:0:0:0:
182,192,15232,1,0,0:0:0:0:
329,192,15232,128,0,15326:0:0:0:0:
109,192,15232,1,0,0:0:0:0:
256,192,15420,1,0,0:0:0:0:
109,192,15420,128,0,15513:0:0:0:0:
402,192,15420,1,0,0:0:0:0:
475,192,15420,1,0,0:0:0:0:
329,192,15607,1,0,0:0:0:0:
182,192,15607,128,0,15701:0:0:0:0:
475,192,15607,1,0,0:0:0:0:
182,192,15795,128,0,17295:0:0:0:0:
109,192,15795,1,0,0:0:0:0:
256,192,15795,1,0,0:0:0:0:
402,192,15795,128,0,15888:0:0:0:0:
329,192,15982,1,0,0:0:0:0:
475,192,15982,128,0,16076:0:0:0:0:
402,192,16170,1,0,0:0:0:0:
256,192,16170,128,0,16263:0:0:0:0:
36,192,16170,1,0,0:0:0:0:
109,192,16170,1,0,0:0:0:0:
329,192,16357,1,0,0:0:0:0:
109,192,16357,128,0,16451:0:0:0:0:
256,192,16545,1,0,0:0:0:0:
36,192,16545,128,0,16638:0:0:0:0:
329,192,16732,1,0,0:0:0:0:
109,192,16732,128,0,16826:0:0:0:0:
475,192,16732,1,0,0:0:0:0:
256,192,16920,1,0,0:0:0:0:
402,192,16920,128,0,17013:0:0:0:0:
36,192,16920,1,0,0:0:0:0:
475,192,16920,1,0,0:0:0:0:
329,192,17107,1,0,0:0:0:0:
475,192,17107,128,0,17201:0:0:0:0:
109,192,17107,1,0,0:0:0:0:
329,192,17295,128,0,18045:0:0:0:0:
256,192,17295,1,0,0:0:0:0:
109,192,17295,128,0,17388:0:0:0:0:
36,192,17295,1,0,0:0:0:0:
402,192,17482,1,0,0:0:0:0:
182,192,17482,128,0,17576:0:0:0:0:
256,192,17670,1,0,0:0:0:0:
475,192,17670,128,0,17763:0:0:0:0:
36,192,17670,1,0,0:0:0:0:
109,192,17670,1,0,0:0:0:0:
182,192,17857,1,0,0:0:0:0:
402,192,17857,128,0,17951:0:0:0:0:
402,192,18045,128,0,18795:0:0:0:0:
109,192,18045,1,0,0:0:0:0:
256,192,18045,128,0,18138:0:0:0:0:
36,192,18232,1,0,0:0:0:0:
182,192,18232,128,0,18326:0:0:0:0:
329,192,18232,1,0,0:0:0:0:
256,192,18420,1,0,0:0:0:0:
109,192,18420,128,0,18513:0:0:0:0:
475,192,18420,1,0,0:0:0:0:
36,192,18420,1,0,0:0:0:0:
329,192,18420,1,0,0:0:0:0:
329,192,18607,1,0,0:0:0:0:
182,192,18607,128,0,18701:0:0:0:0:
109,192,18607,1,0,0:0:0:0:
475,192,18795,128,0,21795:0:0:0:0:
329,192,18795,128,0,18888:0:0:0:0:
36,192,18795,1,0,0:0:0:0:
256,192,18982,128,0,19076:0:0:0:0:
36,192,19170,128,0,19263:0:0:0:0:
182,192,19170,1,0,0:0:0:0:
329,192,19170,1,0,0:0:0:0:
402,192,19170,1,0,0:0:0:0:
109,192,19357,128,0,19451:0:0:0:0:
256,192,19357,1,0,0:0:0:0:
182,192,19545,1,0,0:0:0:0:
329,192,19545,128,0,19638:0:0:0:0:
109,192,19732,1,0,0:0:0:0:
256,192,19732,128,0,19826:0:0:0:0:
402,192,19732,1,0,0:0:0:0:
182,192,19920,1,0,0:0:0:0:
36,192,19920,128,0,20013:0:0:0:0:
329,192,19920,1,0,0:0:0:0:
402,192,19920,1,0,0:0:0:0:
256,192,20107,1,0,0:0:0:0:
109,192,20107,128,0,20201:0:0:0:0:
402,192,20107,1,0,0:0:0:0:
182,192,20295,1,0,0:0:0:0:
329,192,20295,128,0,20388:0:0:0:0:
36,192,20295,1,0,0:0:0:0:
256,192,20482,1,0,0:0:0:0:
402,192,20482,128,0,20576:0:0:0:0:
329,192,20670,1,0,0:0:0:0:
182,192,20670,128,0,20763:0:0:0:0:
36,192,20670,1,0,0:0:0:0:
109,192,20670,1,0,0:0:0:0:
256,192,20857,1,0,0:0:0:0:
109,192,20857,128,0,20951:0:0:0:0:
182,192,21045,1,0,0:0:0:0:
329,192,21045,128,0,21138:0:0:0:0:
256,192,21232,1,0,0:0:0:0:
402,192,21232,128,0,21326:0:0:0:0:
109,192,21232,1,0,0:0:0:0:
329,192,21420,1,0,0:0:0:0:
182,192,21420,128,0,21513:0:0:0:0:
36,192,21420,1,0,0:0:0:0:
402,192,21420,1,0,0:0:0:0:
256,192,21607,1,0,0:0:0:0:
109,192,21607,128,0,21701:0:0:0:0:
329,192,21607,1,0,0:0:0:0:
182,192,21795,128,0,24795:0:0:0:0:
402,192,21795,128,0,21888:0:0:0:0:
256,192,21795,1,0,0:0:0:0:
475,192,21982,128,0,22076:0:0:0:0:
256,192,21982,1,0,0:0:0:0:
109,192,22170,128,0,22263:0:0:0:0:
256,192,22170,1,0,0:0:0:0:
36,192,22357,128,0,22451:0:0:0:0:
256,192,22357,1,0,0:0:0:0:
402,192,22545,128,0,22638:0:0:0:0:
256,192,22545,1,0,0:0:0:0:
475,192,22732,128,0,22826:0:0:0:0:
256,192,22732,1,0,0:0:0:0:
109,192,22920,128,0,23013:0:0:0:0:
256,192,22920,1,0,0:0:0:0:
36,192,23107,128,0,23201:0:0:0:0:
256,192,23107,1,0,0:0:0:0:
329,192,23295,128,0,24795:0:0:0:0:
475,192,23295,128,0,23388:0:0:0:0:
256,192,23295,1,0,0:0:0:0:
402,192,23482,128,0,23576:0:0:0:0:
256,192,23482,1,0,0:0:0:0:
36,192,23670,128,0,23763:0:0:0:0:
256,192,23670,1,0,0:0:0:0:
109,192,23857,128,0,23951:0:0:0:0:
256,192,23857,1,0,0:0:0:0:
475,192,24045,128,0,24138:0:0:0:0:
256,192,24045,1,0,0:0:0:0:
256,192,24232,1,0,0:0:0:0:
402,192,24232,128,0,24420:0:0:0:0:
256,192,24420,1,0,0:0:0:0:
109,192,24420,128,0,24607:0:0:0:0:
475,192,24607,128,0,24795:0:0:0:0:
256,192,24607,1,0,0:0:0:0:
36,192,24795,128,0,25732:0:0:0:0:
402,192,24795,128,0,25732:0:0:0:0:
256,192,24795,1,0,0:0:0:0:
109,192,24795,1,0,0:0:0:0:
182,192,24982,1,0,0:0:0:0:
329,192,25170,1,0,0:0:0:0:
475,192,25170,1,0,0:0:0:0:
256,192,25170,1,0,0:0:0:0:
109,192,25357,1,0,0:0:0:0:
256,192,25545,1,0,0:0:0:0:
182,192,25732,1,0,0:0:0:0:
475,192,25732,1,0,0:0:0:0:
109,192,25920,128,0,26107:0:0:0:0:
329,192,25920,128,0,26107:0:0:0:0:
36,192,25920,1,0,0:0:0:0:
256,192,25920,1,0,0:0:0:0:
402,192,25920,1,0,0:0:0:0:
182,192,26107,1,0,0:0:0:0:
475,192,26107,1,0,0:0:0:0:
36,192,26295,128,0,26857:0:0:0:0:
402,192,26295,128,0,26857:0:0:0:0:
329,192,26295,1,0,0:0:0:0:
109,192,26295,1,0,0:0:0:0:
256,192,26482,1,0,0:0:0:0:
475,192,26482,1,0,0:0:0:0:
182,192,26670,1,0,0:0:0:0:
329,192,26670,1,0,0:0:0:0:
109,192,26670,1,0,0:0:0:0:
109,192,26857,128,0,27232:0:0:0:0:
475,192,26857,128,0,27232:0:0:0:0:
256,192,26857,1,0,0:0:0:0:
329,192,27045,1,0,0:0:0:0:
256,192,27232,1,0,0:0:0:0:
182,192,27232,1,0,0:0:0:0:
182,192,27420,128,0,27795:0:0:0:0:
402,192,27420,128,0,27795:0:0:0:0:
36,192,27420,1,0,0:0:0:0:
329,192,27420,1,0,0:0:0:0:
109,192,27420,1,0,0:0:0:0:
256,192,27607,1,0,0:0:0:0:
475,192,27607,1,0,0:0:0:0:
109,192,27795,128,0,28357:0:0:0:0:
329,192,27795,128,0,28357:0:0:0:0:
475,192,27795,1,0,0:0:0:0:
36,192,27795,1,0,0:0:0:0:
182,192,27982,1,0,0:0:0:0:
402,192,27982,1,0,0:0:0:0:
256,192,28170,1,0,0:0:0:0:
36,192,28170,1,0,0:0:0:0:
182,192,28357,128,0,28920:0:0:0:0:
402,192,28357,128,0,28920:0:0:0:0:
475,192,28357,1,0,0:0:0:0:
256,192,28545,1,0,0:0:0:0:
36,192,28732,1,0,0:0:0:0:
329,192,28732,1,0,0:0:0:0:
329,192,28920,128,0,29295:0:0:0:0:
36,192,28920,128,0,29295:0:0:0:0:
256,192,28920,1,0,0:0:0:0:
475,192,28920,1,0,0:0:0:0:
109,192,28920,1,0,0:0:0:0:
182,192,29107,1,0,0:0:0:0:
402,192,29107,1,0,0:0:0:0:
402,192,29295,128,0,30045:0:0:0:0:
109,192,29295,128,0,30045:0:0:0:0:
256,192,29295,1,0,0:0:0:0:
475,192,29295,1,0,0:0:0:0:
182,192,29482,1,0,0:0:0:0:
329,192,29482,1,0,0:0:0:0:
256,192,29670,1,0,0:0:0:0:
475,192,29670,1,0,0:0:0:0:
36,192,29670,1,0,0:0:0:0:
182,192,29857,1,0,0:0:0:0:
329,192,30045,1,0,0:0:0:0:
182,192,30232,128,0,30420:0:0:0:0:
402,192,30232,128,0,30420:0:0:0:0:
256,192,30232,1,0,0:0:0:0:
36,192,30232,1,0,0:0:0:0:
36,192,30420,128,0,30607:0:0:0:0:
475,192,30420,128,0,30607:0:0:0:0:
329,192,30420,1,0,0:0:0:0:
109,192,30420,1,0,0:0:0:0:
256,192,30420,1,0,0:0:0:0:
109,192,30607,128,0,30795:0:0:0:0:
329,192,30607,128,0,30795:0:0:0:0:
182,192,30607,1,0,0:0:0:0:
402,192,30607,1,0,0:0:0:0:
182,192,30795,128,0,31732:0:0:0:0:
402,192,30795,128,0,31732:0:0:0:0:
36,192,30795,1,0,0:0:0:0:
475,192,30795,1,0,0:0:0:0:
109,192,30982,1,0,0:0:0:0:
329,192,30982,1,0,0:0:0:0:
256,192,31170,1,0,0:0:0:0:
36,192,31170,1,0,0:0:0:0:
475,192,31170,1,0,0:0:0:0:
109,192,31357,1,0,0:0:0:0:
256,192,31545,1,0,0:0:0:0:
329,192,31732,1,0,0:0:0:0:
36,192,31732,1,0,0:0:0:0:
36,192,31920,128,0,32295:0:0:0:0:
475,192,31920,128,0,32295:0:0:0:0:
256,192,31920,1,0,0:0:0:0:
109,192,31920,1,0,0:0:0:0:
329,192,31920,1,0,0:0:0:0:
182,192,32107,1,0,0:0:0:0:
402,192,32107,1,0,0:0:0:0:
109,192,32295,128,0,32857:0:0:0:0:
329,192,32295,128,0,32857:0:0:0:0:
256,192,32295,1,0,0:0:0:0:
182,192,32295,1,0,0:0:0:0:
402,192,32482,1,0,0:0:0:0:
36,192,32482,1,0,0:0:0:0:
256,192,32670,1,0,0:0:0:0:
475,192,32670,1,0,0:0:0:0:
182,192,32670,1,0,0:0:0:0:
182,192,32857,128,0,33420:0:0:0:0:
402,192,32857,128,0,33420:0:0:0:0:
36,192,32857,1,0,0:0:0:0:
329,192,33045,1,0,0:0:0:0:
475,192,33232,1,0,0:0:0:0:
36,192,33232,1,0,0:0:0:0:
36,192,33420,128,0,33795:0:0:0:0:
475,192,33420,128,0,33795:0:0:0:0:
256,192,33420,1,0,0:0:0:0:
329,192,33420,1,0,0:0:0:0:
109,192,33420,1,0,0:0:0:0:
109,192,33607,1,0,0:0:0:0:
402,192,33607,1,0,0:0:0:0:
182,192,33795,128,0,34357:0:0:0:0:
402,192,33795,128,0,34357:0:0:0:0:
256,192,33795,1,0,0:0:0:0:
329,192,33795,1,0,0:0:0:0:
109,192,33982,1,0,0:0:0:0:
475,192,33982,1,0,0:0:0:0:
36,192,34170,1,0,0:0:0:0:
256,192,34170,1,0,0:0:0:0:
329,192,34170,1,0,0:0:0:0:
109,192,34357,128,0,34920:0:0:0:0:
329,192,34357,128,0,34920:0:0:0:0:
475,192,34357,1,0,0:0:0:0:
182,192,34545,1,0,0:0:0:0:
256,192,34732,1,0,0:0:0:0:
402,192,34732,1,0,0:0:0:0:
182,192,34920,128,0,36045:0:0:0:0:
402,192,34920,128,0,36045:0:0:0:0:
36,192,34920,1,0,0:0:0:0:
475,192,34920,1,0,0:0:0:0:
256,192,34920,1,0,0:0:0:0:
329,192,35107,1,0,0:0:0:0:
109,192,35107,1,0,0:0:0:0:
256,192,35295,1,0,0:0:0:0:
36,192,35295,1,0,0:0:0:0:
329,192,35482,1,0,0:0:0:0:
109,192,35482,1,0,0:0:0:0:
256,192,35670,1,0,0:0:0:0:
109,192,35670,1,0,0:0:0:0:
475,192,35670,1,0,0:0:0:0:
36,192,35857,1,0,0:0:0:0:
256,192,36045,1,0,0:0:0:0:
109,192,36232,128,0,36420:0:0:0:0:
475,192,36232,128,0,36420:0:0:0:0:
329,192,36232,1,0,0:0:0:0:
182,192,36232,1,0,0:0:0:0:
182,192,36420,128,0,36607:0:0:0:0:
329,192,36420,128,0,36607:0:0:0:0:
36,192,36420,1,0,0:0:0:0:
402,192,36420,1,0,0:0:0:0:
256,192,36420,1,0,0:0:0:0:
109,192,36607,128,0,36795:0:0:0:0:
475,192,36607,128,0,36795:0:0:0:0:
36,192,36607,1,0,0:0:0:0:
402,192,36607,1,0,0:0:0:0:
182,192,36795,128,0,37732:0:0:0:0:
329,192,36795,128,0,37732:0:0:0:0:
402,192,36795,1,0,0:0:0:0:
256,192,36795,1,0,0:0:0:0:
36,192,36795,1,0,0:0:0:0:
109,192,36982,1,0,0:0:0:0:
475,192,36982,1,0,0:0:0:0:
256,192,37170,1,0,0:0:0:0:
36,192,37170,1,0,0:0:0:0:
402,192,37170,1,0,0:0:0:0:
109,192,37357,1,0,0:0:0:0:
256,192,37545,1,0,0:0:0:0:
109,192,37732,1,0,0:0:0:0:
402,192,37732,1,0,0:0:0:0:
36,192,37920,128,0,38295:0:0:0:0:
402,192,37920,128,0,38295:0:0:0:0:
256,192,37920,1,0,0:0:0:0:
475,192,37920,1,0,0:0:0:0:
329,192,37920,1,0,0:0:0:0:
182,192,38107,1,0,0:0:0:0:
109,192,38107,1,0,0:0:0:0:
109,192,38295,128,0,38857:0:0:0:0:
475,192,38295,128,0,38857:0:0:0:0:
329,192,38295,1,0,0:0:0:0:
256,192,38295,1,0,0:0:0:0:
256,192,38482,1,0,0:0:0:0:
36,192,38482,1,0,0:0:0:0:
182,192,38670,1,0,0:0:0:0:
402,192,38670,1,0,0:0:0:0:
329,192,38670,1,0,0:0:0:0:
182,192,38857,128,0,39420:0:0:0:0:
329,192,38857,128,0,39420:0:0:0:0:
256,192,38857,1,0,0:0:0:0:
36,192,39045,1,0,0:0:0:0:
109,192,39232,1,0,0:0:0:0:
475,192,39232,1,0,0:0:0:0:
36,192,39420,128,0,39795:0:0:0:0:
402,192,39420,128,0,39795:0:0:0:0:
256,192,39420,1,0,0:0:0:0:
475,192,39420,1,0,0:0:0:0:
109,192,39420,1,0,0:0:0:0:
329,192,39607,1,0,0:0:0:0:
256,192,39607,1,0,0:0:0:0:
109,192,39795,128,0,40357:0:0:0:0:
475,192,39795,128,0,40357:0:0:0:0:
182,192,39795,1,0,0:0:0:0:
329,192,39795,1,0,0:0:0:0:
256,192,39982,1,0,0:0:0:0:
402,192,39982,1,0,0:0:0:0:
36,192,40170,1,0,0:0:0:0:
402,192,40170,1,0,0:0:0:0:
329,192,40170,1,0,0:0:0:0:
182,192,40357,128,0,40920:0:0:0:0:
329,192,40357,128,0,40920:0:0:0:0:
256,192,40357,1,0,0:0:0:0:
36,192,40545,1,0,0:0:0:0:
402,192,40732,1,0,0:0:0:0:
109,192,40732,1,0,0:0:0:0:
256,192,40920,128,0,41295:0:0:0:0:
36,192,40920,128,0,41295:0:0:0:0:
109,192,40920,1,0,0:0:0:0:
475,192,40920,1,0,0:0:0:0:
402,192,40920,1,0,0:0:0:0:
402,192,41107,1,0,0:0:0:0:
182,192,41107,1,0,0:0:0:0:
329,192,41295,128,0,42045:0:0:0:0:
109,192,41295,128,0,42045:0:0:0:0:
182,192,41295,1,0,0:0:0:0:
475,192,41295,1,0,0:0:0:0:
256,192,41482,1,0,0:0:0:0:
36,192,41482,1,0,0:0:0:0:
182,192,41670,1,0,0:0:0:0:
402,192,41670,1,0,0:0:0:0:
475,192,41857,1,0,0:0:0:0:
256,192,42045,1,0,0:0:0:0:
182,192,42232,128,0,42420:0:0:0:0:
402,192,42232,128,0,42420:0:0:0:0:
329,192,42232,1,0,0:0:0:0:
36,192,42232,1,0,0:0:0:0:
36,192,42420,128,0,42607:0:0:0:0:
475,192,42420,128,0,42607:0:0:0:0:
109,192,42420,1,0,0:0:0:0:
256,192,42420,1,0,0:0:0:0:
329,192,42420,1,0,0:0:0:0:
182,192,42607,128,0,42795:0:0:0:0:
402,192,42607,128,0,42795:0:0:0:0:
256,192,42607,1,0,0:0:0:0:
329,192,42607,1,0,0:0:0:0:
109,192,42795,128,0,44295:0:0:0:0:
329,192,42795,128,0,44295:0:0:0:0:
36,192,42795,1,0,0:0:0:0:
475,192,42795,1,0,0:0:0:0:
256,192,42982,1,0,0:0:0:0:
36,192,42982,1,0,0:0:0:0:
182,192,43170,1,0,0:0:0:0:
402,192,43170,1,0,0:0:0:0:
475,192,43170,1,0,0:0:0:0:
36,192,43170,128,0,43263:0:0:0:0:
256,192,43357,1,0,0:0:0:0:
475,192,43357,128,0,43451:0:0:0:0:
36,192,43545,1,0,0:0:0:0:
182,192,43545,128,0,43638:0:0:0:0:
256,192,43732,1,0,0:0:0:0:
475,192,43732,1,0,0:0:0:0:
402,192,43732,128,0,43826:0:0:0:0:
182,192,43920,1,0,0:0:0:0:
402,192,43920,1,0,0:0:0:0:
36,192,43920,1,0,0:0:0:0:
475,192,43920,128,0,44013:0:0:0:0:
256,192,44107,1,0,0:0:0:0:
475,192,44107,1,0,0:0:0:0:
182,192,44107,128,0,44201:0:0:0:0:
36,192,44295,128,0,44857:0:0:0:0:
475,192,44295,128,0,44857:0:0:0:0:
182,192,44295,1,0,0:0:0:0:
402,192,44295,1,0,0:0:0:0:
109,192,44482,1,0,0:0:0:0:
329,192,44482,1,0,0:0:0:0:
182,192,44670,1,0,0:0:0:0:
402,192,44670,1,0,0:0:0:0:
256,192,44670,1,0,0:0:0:0:
109,192,44670,128,0,44763:0:0:0:0:
109,192,44857,128,0,45420:0:0:0:0:
329,192,44857,128,0,45420:0:0:0:0:
402,192,44857,1,0,0:0:0:0:
256,192,44857,128,0,44951:0:0:0:0:
182,192,45045,1,0,0:0:0:0:
36,192,45045,128,0,45138:0:0:0:0:
256,192,45232,1,0,0:0:0:0:
475,192,45232,1,0,0:0:0:0:
402,192,45232,128,0,45326:0:0:0:0:
182,192,45420,128,0,45795:0:0:0:0:
402,192,45420,128,0,45795:0:0:0:0:
36,192,45420,1,0,0:0:0:0:
256,192,45420,1,0,0:0:0:0:
475,192,45420,128,0,45513:0:0:0:0:
329,192,45607,1,0,0:0:0:0:
109,192,45607,1,0,0:0:0:0:
256,192,45607,128,0,45701:0:0:0:0:
256,192,45795,128,0,47107:0:0:0:0:
475,192,45795,128,0,47107:0:0:0:0:
36,192,45795,128,0,47107:0:0:0:0:
329,192,45795,1,0,0:0:0:0:
109,192,45795,128,0,45888:0:0:0:0:
182,192,45982,1,0,0:0:0:0:
402,192,45982,1,0,0:0:0:0:
329,192,45982,128,0,46076:0:0:0:0:
329,192,46170,1,0,0:0:0:0:
109,192,46170,1,0,0:0:0:0:
182,192,46170,1,0,0:0:0:0:
402,192,46170,128,0,46263:0:0:0:0:
402,192,46357,1,0,0:0:0:0:
329,192,46357,128,0,46451:0:0:0:0:
109,192,46545,1,0,0:0:0:0:
182,192,46545,128,0,46638:0:0:0:0:
182,192,46732,1,0,0:0:0:0:
329,192,46732,1,0,0:0:0:0:
109,192,46732,128,0,46826:0:0:0:0:
402,192,46920,1,0,0:0:0:0:
109,192,46920,1,0,0:0:0:0:
329,192,46920,1,0,0:0:0:0:
182,192,46920,128,0,47013:0:0:0:0:
182,192,47107,1,0,0:0:0:0:
329,192,47107,128,0,47201:0:0:0:0:
402,192,47107,1,0,0:0:0:0:
475,192,47295,128,0,47670:0:0:0:0:
109,192,47295,128,0,47388:0:0:0:0:
402,192,47295,128,0,47388:0:0:0:0:
256,192,47295,1,0,0:0:0:0:
182,192,47295,1,0,0:0:0:0:
402,192,47482,128,0,47576:0:0:0:0:
109,192,47482,128,0,47576:0:0:0:0:
36,192,47482,1,0,0:0:0:0:
329,192,47482,1,0,0:0:0:0:
329,192,47670,128,0,47951:0:0:0:0:
109,192,47670,128,0,47763:0:0:0:0:
402,192,47670,128,0,47763:0:0:0:0:
182,192,47670,1,0,0:0:0:0:
256,192,47670,1,0,0:0:0:0:
36,192,47670,1,0,0:0:0:0:
402,192,47857,128,0,47951:0:0:0:0:
109,192,47857,128,0,47951:0:0:0:0:
475,192,47857,1,0,0:0:0:0:
182,192,47951,128,0,48420:0:0:0:0:
36,192,47951,1,0,0:0:0:0:
402,192,48045,128,0,48138:0:0:0:0:
329,192,48045,1,0,0:0:0:0:
256,192,48045,1,0,0:0:0:0:
109,192,48232,128,0,48326:0:0:0:0:
256,192,48232,1,0,0:0:0:0:
36,192,48232,1,0,0:0:0:0:
36,192,48420,128,0,48795:0:0:0:0:
402,192,48420,128,0,48513:0:0:0:0:
329,192,48420,1,0,0:0:0:0:
475,192,48420,1,0,0:0:0:0:
109,192,48420,1,0,0:0:0:0:
256,192,48513,1,0,0:0:0:0:
109,192,48607,128,0,48701:0:0:0:0:
182,192,48607,1,0,0:0:0:0:
402,192,48795,1,0,0:0:0:0:
109,192,48888,1,0,0:0:0:0:
402,192,48982,1,0,0:0:0:0:
109,192,49076,1,0,0:0:0:0:
256,192,49170,1,0,0:0:0:0:
402,192,49170,1,0,0:0:0:0:
109,192,49263,1,0,0:0:0:0:
402,192,49357,1,0,0:0:0:0:
109,192,49451,1,0,0:0:0:0:
402,192,49545,128,0,49638:0:0:0:0:
182,192,49545,1,0,0:0:0:0:
36,192,49545,1,0,0:0:0:0:
329,192,49545,1,0,0:0:0:0:
475,192,49545,1,0,0:0:0:0:
256,192,49545,1,0,0:0:0:0:
475,192,49732,128,0,49826:0:0:0:0:
109,192,49920,128,0,50013:0:0:0:0:
256,192,49920,1,0,0:0:0:0:
402,192,49920,1,0,0:0:0:0:
36,192,50107,128,0,50201:0:0:0:0:
182,192,50107,1,0,0:0:0:0:
402,192,50295,128,0,50388:0:0:0:0:
256,192,50295,1,0,0:0:0:0:
329,192,50388,1,0,0:0:0:0:
475,192,50482,128,0,50576:0:0:0:0:
182,192,50482,1,0,0:0:0:0:
36,192,50482,1,0,0:0:0:0:
109,192,50670,128,0,50763:0:0:0:0:
256,192,50670,1,0,0:0:0:0:
402,192,50670,1,0,0:0:0:0:
475,192,50670,1,0,0:0:0:0:
36,192,50857,128,0,50951:0:0:0:0:
329,192,50857,1,0,0:0:0:0:
182,192,51045,128,0,52545:0:0:0:0:
402,192,51045,128,0,51138:0:0:0:0:
256,192,51045,1,0,0:0:0:0:
109,192,51045,1,0,0:0:0:0:
475,192,51232,128,0,51326:0:0:0:0:
109,192,51420,128,0,51513:0:0:0:0:
256,192,51420,1,0,0:0:0:0:
402,192,51420,1,0,0:0:0:0:
36,192,51607,128,0,51701:0:0:0:0:
475,192,51607,1,0,0:0:0:0:
402,192,51795,128,0,51888:0:0:0:0:
256,192,51795,1,0,0:0:0:0:
109,192,51888,1,0,0:0:0:0:
475,192,51982,128,0,52076:0:0:0:0:
329,192,51982,1,0,0:0:0:0:
36,192,51982,1,0,0:0:0:0:
109,192,52170,128,0,52263:0:0:0:0:
256,192,52170,1,0,0:0:0:0:
402,192,52170,1,0,0:0:0:0:
475,192,52170,1,0,0:0:0:0:
36,192,52357,128,0,52451:0:0:0:0:
329,192,52357,1,0,0:0:0:0:
329,192,52545,128,0,55545:0:0:0:0:
475,192,52545,128,0,52638:0:0:0:0:
256,192,52545,1,0,0:0:0:0:
109,192,52545,1,0,0:0:0:0:
402,192,52732,128,0,52826:0:0:0:0:
36,192,52920,128,0,53013:0:0:0:0:
182,192,52920,1,0,0:0:0:0:
475,192,52920,1,0,0:0:0:0:
109,192,53107,128,0,53201:0:0:0:0:
402,192,53107,1,0,0:0:0:0:
475,192,53295,128,0,53388:0:0:0:0:
182,192,53295,1,0,0:0:0:0:
36,192,53388,1,0,0:0:0:0:
402,192,53482,128,0,53576:0:0:0:0:
256,192,53482,1,0,0:0:0:0:
109,192,53482,1,0,0:0:0:0:
36,192,53670,128,0,53763:0:0:0:0:
182,192,53670,1,0,0:0:0:0:
475,192,53670,1,0,0:0:0:0:
402,192,53670,1,0,0:0:0:0:
109,192,53857,128,0,53951:0:0:0:0:
256,192,53857,1,0,0:0:0:0:
475,192,54045,128,0,54138:0:0:0:0:
36,192,54045,1,0,0:0:0:0:
182,192,54045,1,0,0:0:0:0:
402,192,54232,128,0,54326:0:0:0:0:
36,192,54420,128,0,54513:0:0:0:0:
182,192,54420,1,0,0:0:0:0:
475,192,54420,1,0,0:0:0:0:
109,192,54607,128,0,54701:0:0:0:0:
256,192,54607,1,0,0:0:0:0:
475,192,54795,128,0,54888:0:0:0:0:
402,192,54795,1,0,0:0:0:0:
36,192,54888,1,0,0:0:0:0:
402,192,54982,128,0,55076:0:0:0:0:
109,192,54982,1,0,0:0:0:0:
256,192,54982,1,0,0:0:0:0:
36,192,55170,128,0,55263:0:0:0:0:
182,192,55170,1,0,0:0:0:0:
475,192,55170,1,0,0:0:0:0:
402,192,55170,1,0,0:0:0:0:
109,192,55357,128,0,55451:0:0:0:0:
36,192,55357,1,0,0:0:0:0:
402,192,55545,128,0,55638:0:0:0:0:
475,192,55545,1,0,0:0:0:0:
36,192,55545,1,0,0:0:0:0:
329,192,55732,128,0,55826:0:0:0:0:
109,192,55920,128,0,56013:0:0:0:0:
402,192,55920,1,0,0:0:0:0:
36,192,55920,1,0,0:0:0:0:
182,192,56107,128,0,56201:0:0:0:0:
329,192,56107,1,0,0:0:0:0:
402,192,56295,128,0,56388:0:0:0:0:
109,192,56295,1,0,0:0:0:0:
36,192,56388,1,0,0:0:0:0:
329,192,56482,128,0,56576:0:0:0:0:
182,192,56482,1,0,0:0:0:0:
475,192,56482,1,0,0:0:0:0:
109,192,56670,128,0,56763:0:0:0:0:
256,192,56670,1,0,0:0:0:0:
402,192,56670,1,0,0:0:0:0:
36,192,56670,1,0,0:0:0:0:
182,192,56857,128,0,56951:0:0:0:0:
329,192,56857,1,0,0:0:0:0:
475,192,57045,128,0,58545:0:0:0:0:
402,192,57045,128,0,57138:0:0:0:0:
256,192,57045,1,0,0:0:0:0:
36,192,57045,1,0,0:0:0:0:
329,192,57232,128,0,57326:0:0:0:0:
182,192,57232,1,0,0:0:0:0:
109,192,57420,128,0,57513:0:0:0:0:
256,192,57420,1,0,0:0:0:0:
402,192,57420,1,0,0:0:0:0:
36,192,57420,1,0,0:0:0:0:
182,192,57607,128,0,57701:0:0:0:0:
329,192,57607,1,0,0:0:0:0:
402,192,57795,128,0,57888:0:0:0:0:
109,192,57795,1,0,0:0:0:0:
36,192,57888,1,0,0:0:0:0:
329,192,57982,128,0,58076:0:0:0:0:
182,192,57982,1,0,0:0:0:0:
402,192,57982,1,0,0:0:0:0:
109,192,58170,128,0,58263:0:0:0:0:
256,192,58170,1,0,0:0:0:0:
36,192,58170,1,0,0:0:0:0:
329,192,58170,1,0,0:0:0:0:
182,192,58357,128,0,58451:0:0:0:0:
402,192,58357,1,0,0:0:0:0:
36,192,58545,128,0,61545:0:0:0:0:
329,192,58545,128,0,58638:0:0:0:0:
109,192,58545,1,0,0:0:0:0:
402,192,58545,1,0,0:0:0:0:
402,192,58732,128,0,58826:0:0:0:0:
182,192,58732,1,0,0:0:0:0:
182,192,58920,128,0,59013:0:0:0:0:
329,192,58920,1,0,0:0:0:0:
475,192,58920,1,0,0:0:0:0:
109,192,58920,1,0,0:0:0:0:
109,192,59107,128,0,59201:0:0:0:0:
256,192,59107,1,0,0:0:0:0:
329,192,59295,128,0,59388:0:0:0:0:
402,192,59295,1,0,0:0:0:0:
475,192,59388,1,0,0:0:0:0:
402,192,59482,128,0,59576:0:0:0:0:
256,192,59482,1,0,0:0:0:0:
182,192,59482,1,0,0:0:0:0:
182,192,59670,128,0,59763:0:0:0:0:
329,192,59670,1,0,0:0:0:0:
475,192,59670,1,0,0:0:0:0:
109,192,59670,1,0,0:0:0:0:
109,192,59857,128,0,59951:0:0:0:0:
256,192,59857,1,0,0:0:0:0:
329,192,60045,128,0,61545:0:0:0:0:
402,192,60045,128,0,60138:0:0:0:0:
256,192,60045,1,0,0:0:0:0:
475,192,60045,1,0,0:0:0:0:
475,192,60232,128,0,60326:0:0:0:0:
182,192,60232,1,0,0:0:0:0:
256,192,60420,128,0,60513:0:0:0:0:
109,192,60420,1,0,0:0:0:0:
402,192,60420,1,0,0:0:0:0:
475,192,60420,1,0,0:0:0:0:
182,192,60607,128,0,60701:0:0:0:0:
256,192,60607,1,0,0:0:0:0:
475,192,60701,1,0,0:0:0:0:
402,192,60795,128,0,60888:0:0:0:0:
109,192,60795,1,0,0:0:0:0:
182,192,60795,1,0,0:0:0:0:
256,192,60888,1,0,0:0:0:0:
475,192,60982,128,0,61076:0:0:0:0:
182,192,60982,1,0,0:0:0:0:
402,192,60982,1,0,0:0:0:0:
256,192,61170,128,0,61263:0:0:0:0:
109,192,61170,1,0,0:0:0:0:
402,192,61170,1,0,0:0:0:0:
475,192,61170,1,0,0:0:0:0:
182,192,61357,128,0,61451:0:0:0:0:
475,192,61357,1,0,0:0:0:0:
109,192,61451,1,0,0:0:0:0:
402,192,61545,128,0,61638:0:0:0:0:
256,192,61545,1,0,0:0:0:0:
475,192,61545,1,0,0:0:0:0:
182,192,61545,1,0,0:0:0:0:
329,192,61732,128,0,61826:0:0:0:0:
182,192,61920,128,0,62013:0:0:0:0:
329,192,61920,1,0,0:0:0:0:
475,192,61920,1,0,0:0:0:0:
109,192,61920,1,0,0:0:0:0:
36,192,62107,128,0,62201:0:0:0:0:
402,192,62107,1,0,0:0:0:0:
182,192,62107,1,0,0:0:0:0:
329,192,62201,1,0,0:0:0:0:
109,192,62295,128,0,62388:0:0:0:0:
402,192,62295,1,0,0:0:0:0:
475,192,62295,1,0,0:0:0:0:
256,192,62388,1,0,0:0:0:0:
182,192,62482,128,0,62576:0:0:0:0:
36,192,62482,1,0,0:0:0:0:
402,192,62482,1,0,0:0:0:0:
329,192,62670,128,0,62763:0:0:0:0:
109,192,62670,1,0,0:0:0:0:
256,192,62670,1,0,0:0:0:0:
475,192,62670,1,0,0:0:0:0:
475,192,62857,128,0,62951:0:0:0:0:
182,192,62857,1,0,0:0:0:0:
329,192,62951,1,0,0:0:0:0:
109,192,63045,128,0,64545:0:0:0:0:
402,192,63045,128,0,64545:0:0:0:0:
182,192,63045,128,0,63138:0:0:0:0:
256,192,63045,1,0,0:0:0:0:
475,192,63045,1,0,0:0:0:0:
36,192,63232,128,0,63326:0:0:0:0:
329,192,63420,128,0,63513:0:0:0:0:
182,192,63420,1,0,0:0:0:0:
36,192,63420,1,0,0:0:0:0:
256,192,63420,1,0,0:0:0:0:
475,192,63607,128,0,63701:0:0:0:0:
329,192,63607,1,0,0:0:0:0:
182,192,63795,128,0,63888:0:0:0:0:
36,192,63795,1,0,0:0:0:0:
475,192,63888,1,0,0:0:0:0:
36,192,63982,128,0,64076:0:0:0:0:
256,192,63982,1,0,0:0:0:0:
329,192,63982,1,0,0:0:0:0:
329,192,64170,128,0,64263:0:0:0:0:
182,192,64170,1,0,0:0:0:0:
36,192,64170,1,0,0:0:0:0:
475,192,64170,1,0,0:0:0:0:
475,192,64357,128,0,64451:0:0:0:0:
256,192,64357,1,0,0:0:0:0:
182,192,64545,128,0,67170:0:0:0:0:
329,192,64545,128,0,67170:0:0:0:0:
36,192,64545,128,0,64638:0:0:0:0:
475,192,64545,1,0,0:0:0:0:
256,192,64545,1,0,0:0:0:0:
109,192,64732,128,0,64826:0:0:0:0:
475,192,64920,128,0,65013:0:0:0:0:
256,192,64920,1,0,0:0:0:0:
36,192,64920,1,0,0:0:0:0:
402,192,64920,1,0,0:0:0:0:
402,192,65107,128,0,65201:0:0:0:0:
109,192,65107,1,0,0:0:0:0:
36,192,65295,128,0,65388:0:0:0:0:
475,192,65295,1,0,0:0:0:0:
402,192,65388,1,0,0:0:0:0:
109,192,65482,128,0,65576:0:0:0:0:
256,192,65482,1,0,0:0:0:0:
36,192,65482,1,0,0:0:0:0:
475,192,65670,128,0,65763:0:0:0:0:
36,192,65670,1,0,0:0:0:0:
402,192,65670,1,0,0:0:0:0:
256,192,65670,1,0,0:0:0:0:
402,192,65857,128,0,65951:0:0:0:0:
36,192,66045,128,0,66138:0:0:0:0:
256,192,66045,1,0,0:0:0:0:
475,192,66045,1,0,0:0:0:0:
109,192,66232,128,0,66326:0:0:0:0:
475,192,66420,128,0,66513:0:0:0:0:
36,192,66420,1,0,0:0:0:0:
256,192,66420,1,0,0:0:0:0:
402,192,66420,1,0,0:0:0:0:
402,192,66607,128,0,66701:0:0:0:0:
109,192,66607,1,0,0:0:0:0:
36,192,66795,128,0,66888:0:0:0:0:
402,192,66795,1,0,0:0:0:0:
475,192,66888,1,0,0:0:0:0:
109,192,66982,128,0,67076:0:0:0:0:
256,192,66982,1,0,0:0:0:0:
36,192,66982,1,0,0:0:0:0:
475,192,67170,128,0,67263:0:0:0:0:
402,192,67170,1,0,0:0:0:0:
36,192,67170,1,0,0:0:0:0:
256,192,67170,1,0,0:0:0:0:
402,192,67357,128,0,67451:0:0:0:0:
109,192,67357,1,0,0:0:0:0:
475,192,67545,128,0,70170:0:0:0:0:
36,192,67545,128,0,70170:0:0:0:0:
182,192,67545,128,0,67638:0:0:0:0:
256,192,67545,1,0,0:0:0:0:
329,192,67545,1,0,0:0:0:0:
109,192,67732,128,0,67826:0:0:0:0:
329,192,67920,128,0,68013:0:0:0:0:
182,192,67920,1,0,0:0:0:0:
402,192,67920,1,0,0:0:0:0:
256,192,67920,1,0,0:0:0:0:
402,192,68107,128,0,68201:0:0:0:0:
109,192,68107,1,0,0:0:0:0:
182,192,68295,128,0,68388:0:0:0:0:
329,192,68295,1,0,0:0:0:0:
402,192,68388,1,0,0:0:0:0:
109,192,68482,128,0,68576:0:0:0:0:
256,192,68482,1,0,0:0:0:0:
182,192,68482,1,0,0:0:0:0:
329,192,68670,128,0,68763:0:0:0:0:
182,192,68670,1,0,0:0:0:0:
402,192,68670,1,0,0:0:0:0:
109,192,68670,1,0,0:0:0:0:
402,192,68857,128,0,68951:0:0:0:0:
109,192,68857,1,0,0:0:0:0:
182,192,69045,128,0,69138:0:0:0:0:
256,192,69045,1,0,0:0:0:0:
329,192,69045,1,0,0:0:0:0:
109,192,69232,128,0,69326:0:0:0:0:
329,192,69420,128,0,69513:0:0:0:0:
182,192,69420,1,0,0:0:0:0:
402,192,69420,1,0,0:0:0:0:
256,192,69420,1,0,0:0:0:0:
402,192,69607,128,0,69701:0:0:0:0:
256,192,69607,1,0,0:0:0:0:
182,192,69795,128,0,69888:0:0:0:0:
109,192,69795,1,0,0:0:0:0:
402,192,69888,1,0,0:0:0:0:
109,192,69982,128,0,70076:0:0:0:0:
329,192,69982,1,0,0:0:0:0:
182,192,69982,1,0,0:0:0:0:
329,192,70170,128,0,70263:0:0:0:0:
256,192,70170,1,0,0:0:0:0:
402,192,70170,1,0,0:0:0:0:
109,192,70170,1,0,0:0:0:0:
402,192,70357,128,0,70451:0:0:0:0:
182,192,70357,1,0,0:0:0:0:
109,192,70545,128,0,71857:0:0:0:0:
402,192,70545,128,0,71857:0:0:0:0:
36,192,70545,128,0,70638:0:0:0:0:
256,192,70545,1,0,0:0:0:0:
182,192,70732,128,0,70826:0:0:0:0:
475,192,70920,128,0,71013:0:0:0:0:
329,192,70920,1,0,0:0:0:0:
36,192,70920,1,0,0:0:0:0:
182,192,70920,1,0,0:0:0:0:
329,192,71107,128,0,71201:0:0:0:0:
256,192,71107,1,0,0:0:0:0:
36,192,71295,128,0,71388:0:0:0:0:
475,192,71295,1,0,0:0:0:0:
329,192,71388,1,0,0:0:0:0:
182,192,71482,128,0,71576:0:0:0:0:
256,192,71482,1,0,0:0:0:0:
36,192,71482,1,0,0:0:0:0:
475,192,71670,128,0,71763:0:0:0:0:
329,192,71670,1,0,0:0:0:0:
36,192,71670,1,0,0:0:0:0:
182,192,71670,1,0,0:0:0:0:
329,192,71857,128,0,71951:0:0:0:0:
256,192,71857,1,0,0:0:0:0:
182,192,72045,128,0,73357:0:0:0:0:
329,192,72045,128,0,73357:0:0:0:0:
36,192,72045,128,0,72138:0:0:0:0:
475,192,72045,1,0,0:0:0:0:
109,192,72232,128,0,72326:0:0:0:0:
475,192,72420,128,0,72513:0:0:0:0:
256,192,72420,1,0,0:0:0:0:
36,192,72420,1,0,0:0:0:0:
402,192,72420,1,0,0:0:0:0:
402,192,72607,128,0,72701:0:0:0:0:
109,192,72607,1,0,0:0:0:0:
36,192,72795,128,0,72888:0:0:0:0:
109,192,72795,1,0,0:0:0:0:
475,192,72795,1,0,0:0:0:0:
256,192,72888,1,0,0:0:0:0:
402,192,72888,1,0,0:0:0:0:
109,192,72982,128,0,73076:0:0:0:0:
475,192,72982,1,0,0:0:0:0:
36,192,72982,1,0,0:0:0:0:
256,192,73076,1,0,0:0:0:0:
402,192,73076,1,0,0:0:0:0:
475,192,73170,128,0,73263:0:0:0:0:
36,192,73170,1,0,0:0:0:0:
109,192,73170,1,0,0:0:0:0:
256,192,73263,1,0,0:0:0:0:
402,192,73357,128,0,73451:0:0:0:0:
109,192,73357,1,0,0:0:0:0:
475,192,73357,1,0,0:0:0:0:
256,192,73451,1,0,0:0:0:0:
36,192,73545,1,0,0:0:0:0:
329,192,73545,1,0,0:0:0:0:
475,192,73545,1,0,0:0:0:0:
109,192,73638,1,0,0:0:0:0:
182,192,73732,1,0,0:0:0:0:
475,192,73732,1,0,0:0:0:0:
256,192,73826,1,0,0:0:0:0:
329,192,73920,1,0,0:0:0:0:
109,192,73920,1,0,0:0:0:0:
402,192,74013,1,0,0:0:0:0:
182,192,74013,1,0,0:0:0:0:
475,192,74107,1,0,0:0:0:0:
109,192,74107,1,0,0:0:0:0:
329,192,74107,128,0,74201:0:0:0:0:
402,192,74201,1,0,0:0:0:0:
329,192,74295,1,0,0:0:0:0:
182,192,74295,128,0,74388:0:0:0:0:
109,192,74388,1,0,0:0:0:0:
256,192,74388,128,0,74482:0:0:0:0:
182,192,74482,1,0,0:0:0:0:
36,192,74482,128,0,74576:0:0:0:0:
256,192,74576,1,0,0:0:0:0:
109,192,74576,128,0,74670:0:0:0:0:
182,192,74670,1,0,0:0:0:0:
475,192,74670,1,0,0:0:0:0:
329,192,74670,128,0,74763:0:0:0:0:
402,192,74763,1,0,0:0:0:0:
256,192,74763,128,0,74857:0:0:0:0:
329,192,74857,1,0,0:0:0:0:
475,192,74857,128,0,74951:0:0:0:0:
256,192,74951,1,0,0:0:0:0:
402,192,74951,128,0,75045:0:0:0:0:
329,192,75045,1,0,0:0:0:0:
36,192,75045,1,0,0:0:0:0:
182,192,75045,128,0,75138:0:0:0:0:
109,192,75138,1,0,0:0:0:0:
256,192,75138,128,0,75232:0:0:0:0:
182,192,75232,1,0,0:0:0:0:
36,192,75232,128,0,75326:0:0:0:0:
256,192,75326,1,0,0:0:0:0:
109,192,75326,128,0,75420:0:0:0:0:
182,192,75420,1,0,0:0:0:0:
475,192,75420,1,0,0:0:0:0:
329,192,75420,128,0,75513:0:0:0:0:
402,192,75513,1,0,0:0:0:0:
256,192,75513,128,0,75607:0:0:0:0:
329,192,75607,1,0,0:0:0:0:
475,192,75607,128,0,75701:0:0:0:0:
256,192,75701,1,0,0:0:0:0:
402,192,75701,128,0,75795:0:0:0:0:
329,192,75795,1,0,0:0:0:0:
36,192,75795,128,0,76545:0:0:0:0:
182,192,75795,1,0,0:0:0:0:
475,192,75795,1,0,0:0:0:0:
109,192,75795,1,0,0:0:0:0:
182,192,75982,128,0,76170:0:0:0:0:
329,192,75982,128,0,76170:0:0:0:0:
475,192,76170,128,0,76545:0:0:0:0:
109,192,76170,128,0,76357:0:0:0:0:
402,192,76170,128,0,76357:0:0:0:0:
182,192,76357,128,0,76545:0:0:0:0:
329,192,76357,128,0,76545:0:0:0:0:
109,192,76545,128,0,77482:0:0:0:0:
402,192,76545,128,0,77482:0:0:0:0:
256,192,76545,1,0,0:0:0:0:
329,192,76638,1,0,0:0:0:0:
182,192,76732,1,0,0:0:0:0:
36,192,76732,1,0,0:0:0:0:
256,192,76826,1,0,0:0:0:0:
329,192,76920,1,0,0:0:0:0:
475,192,76920,1,0,0:0:0:0:
36,192,76920,1,0,0:0:0:0:
256,192,77013,1,0,0:0:0:0:
182,192,77107,1,0,0:0:0:0:
475,192,77107,1,0,0:0:0:0:
36,192,77201,1,0,0:0:0:0:
329,192,77295,1,0,0:0:0:0:
256,192,77295,1,0,0:0:0:0:
36,192,77388,1,0,0:0:0:0:
182,192,77388,1,0,0:0:0:0:
256,192,77482,1,0,0:0:0:0:
475,192,77482,1,0,0:0:0:0:
329,192,77482,1,0,0:0:0:0:
109,192,77576,1,0,0:0:0:0:
36,192,77670,128,0,78045:0:0:0:0:
329,192,77670,128,0,78045:0:0:0:0:
182,192,77670,1,0,0:0:0:0:
402,192,77670,1,0,0:0:0:0:
475,192,77670,1,0,0:0:0:0:
256,192,77763,1,0,0:0:0:0:
402,192,77857,1,0,0:0:0:0:
109,192,77857,1,0,0:0:0:0:
182,192,77857,1,0,0:0:0:0:
256,192,77951,1,0,0:0:0:0:
109,192,78045,128,0,78607:0:0:0:0:
402,192,78045,128,0,78607:0:0:0:0:
475,192,78045,1,0,0:0:0:0:
182,192,78045,1,0,0:0:0:0:
36,192,78138,1,0,0:0:0:0:
329,192,78232,1,0,0:0:0:0:
475,192,78232,1,0,0:0:0:0:
256,192,78326,1,0,0:0:0:0:
182,192,78420,1,0,0:0:0:0:
36,192,78420,1,0,0:0:0:0:
475,192,78420,1,0,0:0:0:0:
256,192,78513,1,0,0:0:0:0:
182,192,78607,128,0,79170:0:0:0:0:
475,192,78607,128,0,79170:0:0:0:0:
329,192,78607,1,0,0:0:0:0:
36,192,78607,1,0,0:0:0:0:
256,192,78701,1,0,0:0:0:0:
36,192,78795,1,0,0:0:0:0:
329,192,78795,1,0,0:0:0:0:
402,192,78888,1,0,0:0:0:0:
256,192,78888,1,0,0:0:0:0:
109,192,78982,1,0,0:0:0:0:
329,192,78982,1,0,0:0:0:0:
36,192,78982,1,0,0:0:0:0:
256,192,79076,1,0,0:0:0:0:
36,192,79170,128,0,79545:0:0:0:0:
329,192,79170,128,0,79545:0:0:0:0:
402,192,79170,1,0,0:0:0:0:
109,192,79170,1,0,0:0:0:0:
182,192,79263,1,0,0:0:0:0:
109,192,79357,1,0,0:0:0:0:
475,192,79357,1,0,0:0:0:0:
402,192,79357,1,0,0:0:0:0:
256,192,79451,1,0,0:0:0:0:
182,192,79545,128,0,80107:0:0:0:0:
475,192,79545,128,0,80107:0:0:0:0:
402,192,79545,1,0,0:0:0:0:
109,192,79545,1,0,0:0:0:0:
256,192,79638,1,0,0:0:0:0:
329,192,79732,1,0,0:0:0:0:
36,192,79732,1,0,0:0:0:0:
109,192,79826,1,0,0:0:0:0:
256,192,79920,1,0,0:0:0:0:
36,192,79920,1,0,0:0:0:0:
402,192,79920,1,0,0:0:0:0:
329,192,80013,1,0,0:0:0:0:
402,192,80107,128,0,80670:0:0:0:0:
109,192,80107,128,0,80670:0:0:0:0:
256,192,80107,1,0,0:0:0:0:
36,192,80107,1,0,0:0:0:0:
329,192,80201,1,0,0:0:0:0:
36,192,80295,1,0,0:0:0:0:
256,192,80295,1,0,0:0:0:0:
475,192,80388,1,0,0:0:0:0:
182,192,80388,1,0,0:0:0:0:
256,192,80482,1,0,0:0:0:0:
36,192,80482,1,0,0:0:0:0:
329,192,80482,1,0,0:0:0:0:
182,192,80576,1,0,0:0:0:0:
329,192,80670,128,0,81045:0:0:0:0:
36,192,80670,128,0,81045:0:0:0:0:
475,192,80670,1,0,0:0:0:0:
256,192,80670,1,0,0:0:0:0:
182,192,80763,1,0,0:0:0:0:
475,192,80857,1,0,0:0:0:0:
109,192,80857,1,0,0:0:0:0:
256,192,80857,1,0,0:0:0:0:
402,192,80951,1,0,0:0:0:0:
182,192,81045,128,0,81795:0:0:0:0:
475,192,81045,128,0,81795:0:0:0:0:
256,192,81045,1,0,0:0:0:0:
109,192,81045,1,0,0:0:0:0:
329,192,81138,1,0,0:0:0:0:
109,192,81232,1,0,0:0:0:0:
402,192,81232,1,0,0:0:0:0:
256,192,81326,1,0,0:0:0:0:
329,192,81420,1,0,0:0:0:0:
36,192,81420,1,0,0:0:0:0:
109,192,81420,1,0,0:0:0:0:
256,192,81513,1,0,0:0:0:0:
402,192,81607,1,0,0:0:0:0:
36,192,81607,1,0,0:0:0:0:
329,192,81701,1,0,0:0:0:0:
109,192,81795,1,0,0:0:0:0:
256,192,81795,1,0,0:0:0:0:
402,192,81888,1,0,0:0:0:0:
475,192,81888,1,0,0:0:0:0:
36,192,81982,128,0,82170:0:0:0:0:
329,192,81982,128,0,82170:0:0:0:0:
182,192,81982,1,0,0:0:0:0:
109,192,81982,1,0,0:0:0:0:
256,192,82076,1,0,0:0:0:0:
182,192,82170,128,0,82357:0:0:0:0:
475,192,82170,128,0,82357:0:0:0:0:
109,192,82170,1,0,0:0:0:0:
402,192,82170,1,0,0:0:0:0:
256,192,82263,1,0,0:0:0:0:
36,192,82357,128,0,82545:0:0:0:0:
329,192,82357,128,0,82545:0:0:0:0:
402,192,82357,1,0,0:0:0:0:
256,192,82451,1,0,0:0:0:0:
109,192,82545,128,0,83482:0:0:0:0:
402,192,82545,128,0,83482:0:0:0:0:
182,192,82545,1,0,0:0:0:0:
475,192,82545,1,0,0:0:0:0:
256,192,82638,1,0,0:0:0:0:
329,192,82732,1,0,0:0:0:0:
36,192,82732,1,0,0:0:0:0:
182,192,82826,1,0,0:0:0:0:
256,192,82920,1,0,0:0:0:0:
475,192,82920,1,0,0:0:0:0:
329,192,82920,1,0,0:0:0:0:
36,192,83013,1,0,0:0:0:0:
329,192,83107,1,0,0:0:0:0:
182,192,83107,1,0,0:0:0:0:
256,192,83201,1,0,0:0:0:0:
36,192,83295,1,0,0:0:0:0:
182,192,83295,1,0,0:0:0:0:
475,192,83388,1,0,0:0:0:0:
256,192,83388,1,0,0:0:0:0:
182,192,83482,1,0,0:0:0:0:
329,192,83482,1,0,0:0:0:0:
36,192,83482,1,0,0:0:0:0:
402,192,83576,1,0,0:0:0:0:
36,192,83670,128,0,83857:0:0:0:0:
329,192,83670,128,0,83857:0:0:0:0:
256,192,83670,1,0,0:0:0:0:
109,192,83670,1,0,0:0:0:0:
182,192,83670,1,0,0:0:0:0:
475,192,83763,1,0,0:0:0:0:
109,192,83857,128,0,84045:0:0:0:0:
402,192,83857,128,0,84045:0:0:0:0:
182,192,83857,1,0,0:0:0:0:
256,192,83951,1,0,0:0:0:0:
182,192,84045,128,0,84607:0:0:0:0:
475,192,84045,128,0,84607:0:0:0:0:
329,192,84045,1,0,0:0:0:0:
36,192,84045,1,0,0:0:0:0:
109,192,84138,1,0,0:0:0:0:
36,192,84232,1,0,0:0:0:0:
256,192,84232,1,0,0:0:0:0:
329,192,84326,1,0,0:0:0:0:
256,192,84420,1,0,0:0:0:0:
402,192,84420,1,0,0:0:0:0:
109,192,84420,1,0,0:0:0:0:
36,192,84513,1,0,0:0:0:0:
402,192,84607,128,0,85170:0:0:0:0:
109,192,84607,128,0,85170:0:0:0:0:
329,192,84607,1,0,0:0:0:0:
256,192,84607,1,0,0:0:0:0:
475,192,84701,1,0,0:0:0:0:
36,192,84795,1,0,0:0:0:0:
182,192,84795,1,0,0:0:0:0:
475,192,84888,1,0,0:0:0:0:
256,192,84888,1,0,0:0:0:0:
182,192,84982,1,0,0:0:0:0:
329,192,84982,1,0,0:0:0:0:
256,192,85076,1,0,0:0:0:0:
36,192,85170,128,0,85545:0:0:0:0:
329,192,85170,128,0,85545:0:0:0:0:
182,192,85170,1,0,0:0:0:0:
475,192,85170,1,0,0:0:0:0:
256,192,85263,1,0,0:0:0:0:
402,192,85357,1,0,0:0:0:0:
109,192,85357,1,0,0:0:0:0:
475,192,85357,1,0,0:0:0:0:
182,192,85451,1,0,0:0:0:0:
109,192,85545,128,0,86107:0:0:0:0:
402,192,85545,128,0,86107:0:0:0:0:
475,192,85545,1,0,0:0:0:0:
256,192,85545,1,0,0:0:0:0:
182,192,85638,1,0,0:0:0:0:
329,192,85732,1,0,0:0:0:0:
36,192,85732,1,0,0:0:0:0:
475,192,85826,1,0,0:0:0:0:
256,192,85920,1,0,0:0:0:0:
36,192,85920,1,0,0:0:0:0:
329,192,85920,1,0,0:0:0:0:
182,192,86013,1,0,0:0:0:0:
36,192,86107,128,0,86670:0:0:0:0:
329,192,86107,128,0,86670:0:0:0:0:
475,192,86107,1,0,0:0:0:0:
256,192,86107,1,0,0:0:0:0:
182,192,86201,1,0,0:0:0:0:
109,192,86295,1,0,0:0:0:0:
475,192,86295,1,0,0:0:0:0:
402,192,86388,1,0,0:0:0:0:
256,192,86388,1,0,0:0:0:0:
475,192,86482,1,0,0:0:0:0:
182,192,86482,1,0,0:0:0:0:
256,192,86576,1,0,0:0:0:0:
182,192,86670,128,0,87045:0:0:0:0:
475,192,86670,128,0,87045:0:0:0:0:
109,192,86670,1,0,0:0:0:0:
402,192,86670,1,0,0:0:0:0:
256,192,86763,1,0,0:0:0:0:
329,192,86857,1,0,0:0:0:0:
36,192,86857,1,0,0:0:0:0:
109,192,86857,1,0,0:0:0:0:
256,192,86951,1,0,0:0:0:0:
402,192,87045,128,0,87982:0:0:0:0:
109,192,87045,128,0,87982:0:0:0:0:
36,192,87045,1,0,0:0:0:0:
329,192,87045,1,0,0:0:0:0:
475,192,87138,1,0,0:0:0:0:
256,192,87232,1,0,0:0:0:0:
182,192,87232,1,0,0:0:0:0:
475,192,87326,1,0,0:0:0:0:
182,192,87420,1,0,0:0:0:0:
329,192,87420,1,0,0:0:0:0:
36,192,87420,1,0,0:0:0:0:
256,192,87513,1,0,0:0:0:0:
36,192,87607,1,0,0:0:0:0:
182,192,87607,1,0,0:0:0:0:
475,192,87701,1,0,0:0:0:0:
329,192,87795,1,0,0:0:0:0:
256,192,87795,1,0,0:0:0:0:
182,192,87888,1,0,0:0:0:0:
36,192,87888,1,0,0:0:0:0:
256,192,87982,1,0,0:0:0:0:
475,192,87982,1,0,0:0:0:0:
329,192,87982,1,0,0:0:0:0:
109,192,88076,1,0,0:0:0:0:
182,192,88170,128,0,88357:0:0:0:0:
329,192,88170,1,0,0:0:0:0:
475,192,88170,1,0,0:0:0:0:
36,192,88170,1,0,0:0:0:0:
402,192,88170,1,0,0:0:0:0:
109,192,88263,1,0,0:0:0:0:
256,192,88357,128,0,88545:0:0:0:0:
402,192,88357,1,0,0:0:0:0:
36,192,88357,1,0,0:0:0:0:
475,192,88357,1,0,0:0:0:0:
182,192,88451,1,0,0:0:0:0:
329,192,88545,128,0,89295:0:0:0:0:
109,192,88545,1,0,0:0:0:0:
475,192,88545,1,0,0:0:0:0:
36,192,88545,1,0,0:0:0:0:
402,192,88545,1,0,0:0:0:0:
256,192,88732,1,0,0:0:0:0:
182,192,88920,1,0,0:0:0:0:
36,192,88920,1,0,0:0:0:0:
402,192,88920,1,0,0:0:0:0:
109,192,89107,1,0,0:0:0:0:
182,192,89295,128,0,89576:0:0:0:0:
402,192,89295,1,0,0:0:0:0:
36,192,89295,1,0,0:0:0:0:
256,192,89482,1,0,0:0:0:0:
109,192,89576,128,0,89857:0:0:0:0:
329,192,89670,1,0,0:0:0:0:
475,192,89670,1,0,0:0:0:0:
36,192,89670,1,0,0:0:0:0:
329,192,89857,128,0,90045:0:0:0:0:
182,192,89857,1,0,0:0:0:0:
402,192,90045,128,0,90607:0:0:0:0:
109,192,90045,1,0,0:0:0:0:
475,192,90045,1,0,0:0:0:0:
256,192,90232,1,0,0:0:0:0:
182,192,90420,1,0,0:0:0:0:
36,192,90420,1,0,0:0:0:0:
329,192,90420,1,0,0:0:0:0:
475,192,90607,128,0,90982:0:0:0:0:
109,192,90607,1,0,0:0:0:0:
402,192,90795,1,0,0:0:0:0:
256,192,90795,1,0,0:0:0:0:
402,192,90982,1,0,0:0:0:0:
182,192,90982,1,0,0:0:0:0:
109,192,91170,128,0,91545:0:0:0:0:
329,192,91170,1,0,0:0:0:0:
475,192,91170,1,0,0:0:0:0:
36,192,91170,1,0,0:0:0:0:
256,192,91357,1,0,0:0:0:0:
402,192,91545,128,0,92107:0:0:0:0:
182,192,91545,1,0,0:0:0:0:
329,192,91545,1,0,0:0:0:0:
36,192,91732,1,0,0:0:0:0:
109,192,91920,1,0,0:0:0:0:
256,192,91920,1,0,0:0:0:0:
475,192,91920,1,0,0:0:0:0:
329,192,92107,1,0,0:0:0:0:
475,192,92295,128,0,92576:0:0:0:0:
182,192,92295,1,0,0:0:0:0:
36,192,92295,1,0,0:0:0:0:
402,192,92482,1,0,0:0:0:0:
329,192,92576,128,0,92857:0:0:0:0:
109,192,92670,1,0,0:0:0:0:
256,192,92670,1,0,0:0:0:0:
36,192,92670,1,0,0:0:0:0:
182,192,92857,128,0,93045:0:0:0:0:
475,192,92857,1,0,0:0:0:0:
36,192,93045,128,0,93795:0:0:0:0:
329,192,93045,1,0,0:0:0:0:
109,192,93045,1,0,0:0:0:0:
402,192,93232,1,0,0:0:0:0:
256,192,93420,1,0,0:0:0:0:
402,192,93420,1,0,0:0:0:0:
182,192,93420,1,0,0:0:0:0:
109,192,93607,1,0,0:0:0:0:
329,192,93795,1,0,0:0:0:0:
475,192,93795,1,0,0:0:0:0:
329,192,93982,1,0,0:0:0:0:
182,192,93982,1,0,0:0:0:0:
475,192,94170,128,0,94357:0:0:0:0:
182,192,94170,128,0,94357:0:0:0:0:
256,192,94170,1,0,0:0:0:0:
402,192,94170,1,0,0:0:0:0:
329,192,94357,128,0,94545:0:0:0:0:
36,192,94357,128,0,94545:0:0:0:0:
109,192,94357,1,0,0:0:0:0:
182,192,94545,128,0,95295:0:0:0:0:
475,192,94545,128,0,95295:0:0:0:0:
256,192,94545,1,0,0:0:0:0:
109,192,94732,1,0,0:0:0:0:
402,192,94920,1,0,0:0:0:0:
256,192,94920,1,0,0:0:0:0:
109,192,95107,1,0,0:0:0:0:
329,192,95295,128,0,95576:0:0:0:0:
36,192,95295,1,0,0:0:0:0:
402,192,95388,1,0,0:0:0:0:
109,192,95482,1,0,0:0:0:0:
475,192,95482,1,0,0:0:0:0:
182,192,95576,128,0,95857:0:0:0:0:
36,192,95670,1,0,0:0:0:0:
256,192,95670,1,0,0:0:0:0:
402,192,95670,1,0,0:0:0:0:
329,192,95857,128,0,96045:0:0:0:0:
475,192,95857,1,0,0:0:0:0:
109,192,95857,1,0,0:0:0:0:
402,192,96045,128,0,96607:0:0:0:0:
109,192,96045,128,0,96607:0:0:0:0:
182,192,96045,1,0,0:0:0:0:
256,192,96232,1,0,0:0:0:0:
329,192,96420,1,0,0:0:0:0:
36,192,96420,1,0,0:0:0:0:
475,192,96607,128,0,97170:0:0:0:0:
182,192,96607,128,0,97170:0:0:0:0:
256,192,96607,1,0,0:0:0:0:
109,192,96795,1,0,0:0:0:0:
36,192,96888,1,0,0:0:0:0:
329,192,96982,1,0,0:0:0:0:
402,192,96982,1,0,0:0:0:0:
402,192,97170,128,0,97545:0:0:0:0:
109,192,97170,128,0,97545:0:0:0:0:
256,192,97170,1,0,0:0:0:0:
36,192,97170,1,0,0:0:0:0:
329,192,97170,1,0,0:0:0:0:
182,192,97357,1,0,0:0:0:0:
475,192,97357,1,0,0:0:0:0:
329,192,97545,128,0,99795:0:0:0:0:
36,192,97545,128,0,99795:0:0:0:0:
256,192,97545,128,0,99045:0:0:0:0:
475,192,97545,1,0,0:0:0:0:
182,192,97732,1,0,0:0:0:0:
402,192,97920,1,0,0:0:0:0:
109,192,97920,1,0,0:0:0:0:
182,192,98107,1,0,0:0:0:0:
475,192,98295,1,0,0:0:0:0:
402,192,98388,1,0,0:0:0:0:
182,192,98482,1,0,0:0:0:0:
109,192,98482,1,0,0:0:0:0:
109,192,98670,1,0,0:0:0:0:
402,192,98670,1,0,0:0:0:0:
475,192,98670,1,0,0:0:0:0:
475,192,98857,1,0,0:0:0:0:
182,192,98857,1,0,0:0:0:0:
182,192,99045,128,0,99795:0:0:0:0:
109,192,99045,1,0,0:0:0:0:
402,192,99232,1,0,0:0:0:0:
256,192,99420,1,0,0:0:0:0:
475,192,99420,1,0,0:0:0:0:
256,192,99607,1,0,0:0:0:0:
109,192,99607,1,0,0:0:0:0:
475,192,99701,1,0,0:0:0:0:
109,192,99795,1,0,0:0:0:0:
402,192,99795,1,0,0:0:0:0:
182,192,99982,1,0,0:0:0:0:
329,192,99982,1,0,0:0:0:0:
475,192,100170,1,0,0:0:0:0:
36,192,100357,1,0,0:0:0:0:
329,192,100545,128,0,100920:0:0:0:0:
256,192,100545,1,0,0:0:0:0:
182,192,100732,128,0,101107:0:0:0:0:
256,192,100732,1,0,0:0:0:0:
475,192,100920,128,0,101295:0:0:0:0:
109,192,100920,1,0,0:0:0:0:
402,192,100920,1,0,0:0:0:0:
36,192,101107,128,0,101482:0:0:0:0:
256,192,101107,1,0,0:0:0:0:
329,192,101295,128,0,101670:0:0:0:0:
256,192,101295,1,0,0:0:0:0:
182,192,101482,128,0,101857:0:0:0:0:
256,192,101482,1,0,0:0:0:0:
475,192,101670,128,0,102045:0:0:0:0:
109,192,101670,1,0,0:0:0:0:
402,192,101670,1,0,0:0:0:0:
36,192,101857,128,0,102045:0:0:0:0:
256,192,101857,1,0,0:0:0:0:
109,192,102045,1,0,0:0:0:0:
182,192,102045,1,0,0:0:0:0:
402,192,102045,1,0,0:0:0:0:
329,192,102045,1,0,0:0:0:0:
