osu file format v9

[General]
AudioFilename: 08 What You Know.mp3
AudioLeadIn: 0
PreviewTime: 55448
Countdown: 0
SampleSet: Soft
StackLeniency: 0.7
Mode: 0
LetterboxInBreaks: 0

[Editor]
DistanceSpacing: 0.9
BeatDivisor: 4
GridSize: 4

[Metadata]
Title:What You Know
Artist:Two Door Cinema Club
Creator:Krisom
Version:Normal
Source:
Tags:TDCC aleks719 icebeam Kurisuchianu Tourist History

[Difficulty]
HPDrainRate:4
CircleSize:3
OverallDifficulty:4
ApproachRate:4
SliderMultiplier:1.7
SliderTickRate:2

[Events]
//Background and Video events
0,0,"BG.jpg"
Video,-1089,"Gonz_ NO U .avi"
//Break Periods
2,141787,152555
//Storyboard Layer 0 (Background)
//Storyboard Layer 1 (Fail)
//Storyboard Layer 2 (Pass)
//Storyboard Layer 3 (Foreground)
//Storyboard Sound Samples
//Background Colour Transformations
3,100,163,162,255

[TimingPoints]
184,431.716793783278,4,2,1,100,1,0
27923,-117.647058823529,4,2,2,80,0,0
41523,-100,4,2,1,100,0,0
55443,-100,4,2,1,100,0,1
83073,-100,4,2,1,100,0,0
110703,-100,4,2,1,100,0,1
138333,-100,4,2,1,100,0,0
155602,-100,4,2,1,100,0,1
182800,-100,4,2,1,100,0,0
183016,-100,4,2,1,5,0,0

[Colours]
Combo1 : 30,50,234
Combo2 : 240,5,5
Combo3 : 5,240,5
Combo4 : 22,187,222
Combo5 : 241,236,14
Combo6 : 176,0,176
SliderBorder : 63,63,63

[HitObjects]
256,192,13998,1,4
148,84,14430,1,8
112,232,14862,2,0,B|56:260|48:340|92:376|144:396|196:360,1,255,2|8
148,300,15725,1,0
256,192,16157,1,8
400,152,16589,2,0,B|456:124|464:44|420:8|368:-12|316:24,1,255,2|8
364,84,17452,5,0
216,120,17884,1,8
68,152,18316,2,0,B|12:192|12:264,2,127.5,2|8|8
116,212,19179,2,0,B|172:288|272:264,1,170,2|8
245,118,20042,2,0,B|340:96|396:172,1,170,2|8
408,324,20906,5,0
256,340,21338,1,8
104,324,21769,2,0,B|104:140|104:140|68:140|40:108,1,255,2|8
104,60,22633,1,0
256,44,23064,1,8
408,60,23496,2,0,B|408:244|408:244|444:244|472:276,1,255,2|8
408,324,24360,5,0
256,304,24791,1,8
104,280,25223,2,0,B|60:320|60:320|-12:320,2,127.5,2|8|8
48,228,26087,2,0,B|104:164|104:164|192:164,1,170,2|8
323,220,26950,2,0,B|408:220|408:220|464:156,1,170,2|8
320,104,27813,5,4
192,104,28245,1,8
192,236,28677,2,0,B|140:300|60:268,1,144.49999397099,2|8
320,236,29972,2,0,B|372:300|452:268,2,144.49999397099,8|2|8
72,160,31699,5,8
132,276,32131,1,0
256,316,32562,1,8
380,276,32994,1,0
440,160,33426,1,8
336,84,33857,2,0,B|236:116|256:192|276:268|176:300,1,288.999987941981,2|0
144,172,35153,69,8
36,96,35584,1,2
32,228,36016,1,8
32,228,36879,1,8
36,96,37311,1,2
144,172,37743,1,8
140,300,38175,6,0,B|176:376|256:392|336:376|372:300,3,288.999987941981,2|0|2|0
256,16,41628,6,0,B|168:-4|96:52,1,170,4|8
132,200,42492,1,2
256,292,42923,1,8
380,200,43355,1,0
332,56,43787,2,0,B|376:32|424:48,2,85,8|0|2
180,56,44650,1,8
120,196,45082,5,0
256,264,45514,1,8
316,124,45945,2,0,B|304:72|256:60|208:72|196:124,1,170,2|8
176,276,46809,2,0,B|336:332,1,170,0|8
456,228,47672,2,0,B|368:184|392:80,1,170,2|8
340,28,48320,6,0,B|244:128|104:76,1,255,2|8
44,216,49399,1,2
172,300,49831,2,0,B|292:160|484:212,1,340,8|8
488,56,51126,2,0,B|388:28,2,85,2|0|8
400,172,51990,6,0,B|444:340,1,170,4|8
304,208,52853,2,0,B|320:376,1,170,0|8
208,208,53716,2,0,B|192:376,1,170,2|8
112,172,54580,2,0,B|68:340,1,170,0|8
28,188,55443,6,0,B|24:116|88:76|144:96,1,170,4|8
256,192,56307,1,2
374,289,56738,2,0,B|422:304|488:268|484:196,1,170,8|0
336,148,57602,2,0,B|296:116|256:148|216:180|176:148,2,170,8|2|8
300,296,58897,6,0,B|360:240|360:240|448:240,1,170,0|8
476,88,59760,1,0
328,48,60192,2,0,B|328:96|328:96|296:124,2,85,8|2|0
372,196,61056,1,8
256,296,61487,1,2
140,196,61919,1,8
184,48,62351,6,0,B|184:96|184:96|216:124,2,85,2|0|8
36,88,63214,1,0
140,196,63646,2,0,B|64:252,2,85,8|0|2
148,44,64509,1,8
256,152,64941,1,2
364,44,65373,1,8
372,196,65804,6,0,B|448:252,2,85,2|0|8
296,328,66668,2,0,B|220:384|136:340,1,170,0|8
48,216,67531,1,2
188,156,67963,1,8
56,76,68395,1,2
128,212,68826,1,8
212,340,69258,6,0,B|300:372|368:300,1,170,4|8
256,192,70122,1,2
145,82,70553,2,0,B|212:12|300:44,1,170,8|0
336,192,71417,2,0,B|296:160|256:192|216:224|176:192,2,170,8|2|8
384,336,72712,6,0,B|276:336|276:336|220:300,1,170,0|8
76,348,73575,1,0
92,196,74007,2,0,B|92:148|92:148|124:120,2,85,8|2|0
152,336,74871,1,8
256,224,75302,1,2
360,336,75734,1,8
420,196,76166,6,0,B|420:148|420:148|388:120,2,85,2|0|8
432,348,77029,1,0
284,312,77461,2,0,B|208:380,2,85,8|0|2
132,284,78324,1,8
256,192,78756,1,2
380,100,79188,1,8
228,72,79619,6,0,B|304:4,2,85,2|0|8
256,224,80483,2,0,B|180:280|96:236,1,170,0|8
256,224,81346,2,0,B|332:280|416:236,1,170,2|8
332,108,82210,1,2
180,108,82641,1,8
52,192,83073,6,0,B|52:276|52:276|124:328,1,170,4|8
276,340,83937,1,2
428,352,84368,1,8
476,208,84800,2,0,B|384:252|324:172,1,170,0|8
184,212,85663,2,0,B|128:132|36:176,1,170,2|8
152,80,86527,5,0
296,136,86959,2,0,B|324:88|384:96,2,85,8|0|2
180,236,87822,1,8
300,332,88254,2,0,B|360:351|416:299|396:235,1,170,0|8
428,84,89117,2,0,B|367:64|311:116|331:180,1,170,2|8
324,260,89765,6,0,B|312:348|220:348|148:304|184:220,1,255,2|8
72,148,90844,1,2
204,120,91276,2,0,B|188:16|324:-44|420:72|344:160,1,340,8|8
452,240,92571,1,2
348,328,93003,1,8
212,288,93434,6,0,B|144:244|44:272,1,170,4|8
216,204,94298,2,0,B|168:136|208:36,1,170,0|8
296,204,95161,2,0,B|344:136|304:36,1,170,2|8
300,288,96025,2,0,B|368:244|468:272,1,170,0|8
256,360,96888,37,4
148,252,97320,2,0,B|108:280|64:264,2,85,8|0|2
72,120,98183,2,0,B|160:168|236:120,1,170,8|0
384,148,99047,2,0,B|412:112|412:112|456:112,2,85,8|0|2
488,260,99910,2,0,B|432:260|432:260|392:288|392:288|324:288,1,170,8|0
256,152,100774,5,8
336,24,101205,2,0,B|256:76|176:24,2,170,2|8|0
468,104,102500,1,8
344,196,102932,2,0,B|408:168|472:228|436:292,1,170,2|8
383,340,103580,6,0,B|280:256|140:304,1,255,2|8
40,192,104659,1,2
148,80,105091,2,0,B|288:208|464:140,1,340,8|8
488,292,106386,1,2
344,244,106818,1,8
212,324,107249,6,0,B|140:280|140:280|44:280,1,170,4|8
216,232,108113,2,0,B|160:196|160:196|160:80,1,170,0|8
296,232,108976,2,0,B|352:196|352:196|352:92,1,170,2|8
300,324,109840,2,0,B|372:280|372:280|458:280,1,170,0|8
468,128,110703,6,0,B|468:68|392:28|333:69,1,170,4|8
256,192,111566,1,2
172,320,111998,2,0,B|122:350|46:315|46:255,1,170,8|0
176,180,112862,2,0,B|216:165|216:165|256:180|296:195|296:195|336:180,2,170,8|2|8
220,32,114157,6,0,B|168:-4|96:24|100:92,1,170,0|8
164,232,115020,1,2
304,292,115452,2,0,B|304:340|348:360,2,85,8|2|0
408,180,116315,1,8
256,192,116747,1,2
104,204,117179,1,8
208,92,117610,6,0,B|208:44|164:24,2,85,2|0|8
256,236,118474,1,2
388,312,118906,2,0,B|464:368,2,85,8|0|2
388,160,119769,1,8
256,236,120201,1,2
124,160,120632,1,8
124,312,121064,6,0,B|48:368,2,85,2|0|8
276,312,121928,2,0,B|352:352|352:352|436:352,1,170,2|8
480,204,122791,1,2
460,53,123223,1,8
309,73,123655,1,2
330,224,124086,1,8
220,328,124518,6,0,B|152:340|152:340|100:312|116:256,1,170,4|8
256,192,125381,1,2
396,128,125813,2,0,B|412:72|360:44|360:44|292:56,1,170,8|0
336,204,126677,2,0,B|296:189|296:189|256:204|216:219|216:219|176:204,2,170,8|2|8
328,356,127972,6,0,B|240:392|172:320,1,170,0|8
164,168,128835,1,2
36,88,129267,2,0,B|36:136|36:136|4:164,2,85,8|2|0
188,56,130130,1,8
256,192,130562,1,2
324,328,130994,1,8
476,296,131425,6,0,B|476:248|476:248|508:220,2,85,2|0|8
348,216,132289,1,2
400,72,132721,2,0,B|476:140,2,85,8|0|2
256,124,133584,1,8
256,276,134016,1,2
256,124,134447,1,8
112,72,134879,6,0,B|36:140,2,85,2|0|8
256,124,135743,2,0,B|328:176|328:176|412:176,1,170,0|8
256,124,136606,2,0,B|184:176|184:176|100:176,1,170,2|8
180,308,137469,1,2
332,308,137901,1,8
256,176,138333,5,2
256,192,153875,12,8,155170
484,196,155602,6,0,B|488:268|424:308|368:288,1,170,4|8
256,192,156465,1,2
138,95,156897,2,0,B|90:80|24:116|28:188,1,170,8|0
176,236,157760,2,0,B|216:268|256:236|296:204|336:236,2,170,8|2|8
212,88,159055,6,0,B|120:88|120:88|64:144,1,170,0|8
36,296,159919,1,0
184,336,160350,2,0,B|184:288|224:264,2,85,8|2|0
140,188,161214,1,8
256,88,161646,1,2
372,188,162077,1,8
328,336,162509,6,0,B|328:288|288:264,2,85,2|0|8
476,296,163372,1,0
372,188,163804,2,0,B|396:152|396:152|448:132,2,85,8|0|2
364,340,164668,1,8
256,232,165099,1,2
148,340,165531,1,8
140,188,165963,6,0,B|116:152|116:152|64:132,2,85,2|0|8
244,76,166826,2,0,B|328:120|408:56,1,170,0|8
392,196,167690,2,0,B|392:244|392:244|408:272|408:272|408:324,2,127.5,2|8|8
336,144,168553,2,0,B|264:200|176:180,1,170,2|8
44,256,169416,6,0,B|44:316|120:356|179:315,1,170,4|8
256,192,170280,1,2
340,64,170712,2,0,B|390:34|466:69|466:129,1,170,8|0
336,204,171575,2,0,B|296:219|296:219|256:204|216:189|216:189|176:204,2,170,8|2|8
292,352,172870,6,0,B|344:388|416:360|412:292,1,170,0|8
348,152,173734,1,0
208,92,174165,2,0,B|208:52|208:52|164:24,2,85,8|2|0
104,204,175029,1,8
256,192,175461,1,2
408,180,175892,1,8
304,292,176324,6,0,B|304:332|304:332|348:360,2,85,2|0|8
256,148,177187,1,0
124,72,177619,2,0,B|72:60|48:16,2,85,8|0|2
124,224,178483,1,8
256,148,178914,1,2
388,224,179346,1,8
388,72,179778,6,0,B|432:68|464:16,2,85,2|0|8
340,216,180641,2,0,B|256:236|172:216,1,170,0|8
196,64,181505,2,0,B|256:84|256:84|316:64,2,127.5,2|8|8
180,140,182368,1,2
332,140,182800,1,4
256,192,183016,12,2,186685
