osu file format v9

[General]
AudioFilename: 08 What You Know.mp3
AudioLeadIn: 0
PreviewTime: 55448
Countdown: 0
SampleSet: Soft
StackLeniency: 0.7
Mode: 0
LetterboxInBreaks: 0

[Editor]
DistanceSpacing: 0.8
BeatDivisor: 4
GridSize: 4

[Metadata]
Title:What You Know
Artist:Two Door Cinema Club
Creator:Krisom
Version:Insane
Source:
Tags:TDCC aleks719 icebeam Kurisuchianu Tourist History

[Difficulty]
HPDrainRate:7
CircleSize:4
OverallDifficulty:7
ApproachRate:8
SliderMultiplier:2.4
SliderTickRate:2

[Events]
//Background and Video events
0,0,"BG.jpg"
Video,-1089,"Gonz_ NO U .avi"
//Break Periods
2,141787,153125
//Storyboard Layer 0 (Background)
//Storyboard Layer 1 (Fail)
//Storyboard Layer 2 (Pass)
//Storyboard Layer 3 (Foreground)
//Storyboard Sound Samples
//Background Colour Transformations
3,100,163,162,255

[TimingPoints]
184,431.716793783278,4,2,1,100,1,0
27917,-117.647058823529,4,2,2,80,0,0
41514,-100,4,2,1,100,0,0
55443,-100,4,2,1,100,0,1
83073,-100,4,2,1,100,0,0
110703,-100,4,2,1,100,0,1
130454,-89.2857142857143,4,2,1,100,0,1
130994,-100,4,2,1,100,0,1
138333,-100,4,2,1,100,0,0
153670,-100,4,2,1,80,0,0
155602,-100,4,2,1,100,0,1
182800,-100,4,2,1,100,0,0
183016,-100,4,2,1,5,0,0

[Colours]
Combo1 : 30,50,234
Combo2 : 240,5,5
Combo3 : 5,240,5
Combo4 : 22,187,222
Combo5 : 241,236,14
Combo6 : 176,0,176
SliderBorder : 63,63,63

[HitObjects]
340,56,13998,5,4
256,104,14214,1,2
172,56,14430,1,8
120,136,14646,1,2
184,208,14862,2,0,B|224:236|224:276|224:276|224:316,1,120,0|2
288,314,15186,2,0,B|288:276|288:276|288:236|328:208,1,120,8|2
360,148,15509,2,0,B|328:100|256:80|184:100|152:148,1,240
208,224,16157,1,8
304,224,16373,1,2
288,128,16589,2,0,B|288:80|288:80|300:72|300:72|288:64|288:64|288:20,1,120,0|2
224,20,16913,2,0,B|224:64|224:64|212:72|212:72|224:80|224:80|224:128,1,120,8|2
188,184,17236,2,0,B|164:236|256:320|348:236|324:184,1,240,2|0
416,152,17884,5,8
508,132,18100,1,2
444,64,18316,2,0,B|416:0|344:16,1,120,0|2
292,56,18639,2,0,B|268:100|268:100|244:100|244:100|220:140,1,120,8|2
156,124,18963,1,0
68,64,19179,2,0,B|96:0|168:16,1,120,0|2
220,56,19503,2,0,B|244:100|244:100|268:100|268:100|292:140,1,120,8|2
356,124,19827,1,0
372,220,20042,2,0,B|256:252|256:252|140:220,1,240,2|8
48,200,20690,1,0
76,292,20906,5,0
164,328,21122,1,2
256,300,21338,1,8
348,328,21553,1,2
384,240,21769,2,0,B|336:240|336:240|288:240|288:192,1,120,0|2
223,197,22093,2,0,B|224:240|176:240|176:240|128:240,1,120,8|2
136,308,22417,2,0,B|376:308,1,240,0|0
464,272,23064,1,8
428,184,23280,1,2
392,96,23496,2,0,B|356:96|356:96|328:132|328:132|280:132,1,120,2|0
222,132,23820,2,0,B|184:132|184:132|156:96|156:96|120:96,1,120,8|0
136,28,24144,2,0,B|376:28,1,240,0|0
472,44,24791,5,8
456,140,25007,1,2
440,236,25223,2,0,B|388:236|388:236|372:252|372:252|324:252,1,120,0|2
260,248,25547,2,0,B|224:192|156:220,1,120,8|0
124,160,25871,1,0
80,72,26087,2,0,B|148:80|184:24,1,120,0|2
244,48,26410,2,0,B|256:84|256:84|288:96|288:96|300:144,1,120,8|2
368,136,26734,1,0
448,192,26950,1,10
64,192,27382,1,10
256,192,27813,5,4
216,348,28245,1,8
296,348,28461,1,0
376,348,28677,2,0,B|431:338|431:338|469:303|457:232|409:216,1,203.999991488457,2|8
256,192,29540,1,0
296,36,29972,1,8
216,36,30188,1,0
136,36,30404,2,0,B|80:45|80:45|42:80|54:151|102:167,1,203.999991488457,2|8
164,320,31267,5,0
216,380,31483,1,0
296,380,31699,1,8
348,320,31915,1,0
336,240,32131,2,0,B|288:248|256:300|256:300|224:248|176:240,1,203.999991488457,2|8
112,192,32778,1,0
168,132,32994,2,0,B|200:88|256:76|312:88|344:132,3,203.999991488457,0|8|2|8
344,216,34505,70,0,B|312:260|256:272|200:260|168:216,1,203.999991488457,2|0
124,144,35153,1,8
88,72,35368,1,0
168,76,35584,2,0,B|200:32|256:20|312:32|344:76,1,203.999991488457,2|0
340,264,36448,1,0
172,264,36879,1,8
300,156,37311,1,2
256,224,37527,1,0
212,156,37743,1,8
144,32,38175,6,0,B|100:236,1,203.999991488457,0|8
84,312,38822,1,2
160,288,39038,2,0,B|256:228|352:288,1,203.999991488457,0|8
428,312,39686,1,2
411,231,39901,2,0,B|368:32,1,203.999991488457,0|8
320,188,40765,2,0,B|316:256|256:272|196:256|192:188,1,203.999991488457,0|8
256,136,41412,1,0
256,56,41628,5,4
164,28,41844,2,0,B|128:88|56:60,1,120,2|8
44,156,42276,1,2
32,252,42492,2,0,B|156:292,1,120,0|2
160,296,42816,1,0
172,300,42923,1,8
264,324,43139,1,2
356,348,43355,2,0,B|320:292|356:232,1,120,0|2
424,120,43787,2,0,B|459:175|425:233,1,120,8|2
344,180,44219,1,0
256,144,44434,2,0,B|216:192,2,60,2|0|8
168,108,44866,1,2
220,28,45082,6,0,B|168:28|168:28|144:44|144:44|104:44,1,120,0|2
292,28,45514,2,0,B|344:28|344:28|368:44|368:44|408:44,1,120,8|2
424,140,45945,1,0
436,236,46161,1,2
436,236,46269,1,0
436,236,46377,1,8
348,200,46593,1,2
292,280,46809,2,0,B|320:320|320:320|344:336|344:336|372:380,1,120,0|2
220,280,47241,2,0,B|192:320|192:320|168:336|168:336|140:380,1,120,8|2
156,232,47672,2,0,B|184:180|256:152|328:180|356:232,1,240,0|8
412,156,48320,1,2
396,60,48536,6,0,B|356:100|356:100|288:100,1,120,0|2
116,60,48967,2,0,B|156:100|156:100|219:100,1,120,8|2
256,188,49399,2,0,B|292:248|256:300,1,120,0|2
248,308,49723,1,0
240,316,49831,1,8
176,244,50047,1,2
104,180,50263,2,0,B|0:240,1,120,0|2
20,144,50694,2,0,B|132:84,1,120,8|2
212,44,51126,1,0
256,128,51342,1,2
256,136,51450,1,0
256,144,51558,1,8
300,44,51774,1,2
396,56,51990,6,0,B|432:240,1,180,4|0
430,232,52421,2,0,B|364:208|320:252,1,120,8|0
340,348,52853,2,0,B|256:404|172:348,1,180,4|0
172,348,53285,2,0,B|120:348|120:348|100:360|100:360|48:360,1,120,8|0
60,264,53716,2,0,B|52:192|52:192|80:176|80:176|72:100,1,180,4|0
72,101,54148,2,0,B|136:128|180:76,1,120,8|0
256,136,54580,2,0,B|256:328,1,180,4|8
256,324,55012,1,8
256,332,55119,1,0
256,340,55227,1,0
348,368,55443,5,4
328,276,55659,1,2
444,348,55875,1,8
424,256,56091,1,2
404,160,56307,2,0,B|348:136|348:136|288:136,1,120,0|2
228,164,56630,2,0,B|180:212|112:192,1,120,8|2
88,256,56954,1,8
164,368,57170,5,0
184,276,57386,1,2
68,348,57602,1,8
88,256,57818,1,2
108,160,58034,2,0,B|164:136|164:136|164:76,1,120,0|2
200,20,58357,2,0,B|236:-4|252:32|268:68|304:44,1,120,8|2
364,16,58681,1,8
440,76,58897,6,0,B|480:132|440:188,1,120,0|2
372,288,59329,2,0,B|332:232|372:176,1,120,8|2
316,96,59760,1,0
256,172,59976,1,2
256,172,60084,1,8
196,244,60300,1,2
196,244,60408,1,8
136,320,60624,6,0,B|68:320|68:320|40:276,1,120,0|2
32,208,60948,2,0,B|100:208|100:208|128:252,1,120,8|2
196,244,61271,1,8
172,152,61487,2,0,B|200:100|200:100|256:124|256:124|312:100|312:100|340:152,1,240,2|8
316,244,62135,1,0
376,320,62351,5,0
404,228,62567,2,0,B|464:228|464:228|484:172,1,120,2|8
504,76,62998,1,2
420,28,63214,2,0,B|304:72,1,120,0|2
312,136,63538,2,0,B|264:184|200:164,1,120,8|2
172,224,63862,1,8
136,320,64078,5,0
108,228,64293,2,0,B|48:228|48:228|28:172,1,120,2|8
8,76,64725,1,2
100,44,64941,2,0,B|172:28|204:84,1,120,0|2
196,148,65265,2,0,B|308:200,1,120,8|2
368,224,65589,1,8
304,296,65804,5,0
208,372,66020,1,2
304,372,66236,1,8
208,296,66452,1,2
132,236,66668,2,0,B|36:312,1,120,0|2
8,248,66992,2,0,B|-28:192|8:136,1,120,8|2
64,96,67315,1,8
148,48,67531,5,0
208,120,67747,1,2
200,128,67855,1,8
304,120,68071,1,2
312,128,68179,1,8
364,48,68395,1,10
256,204,68826,1,10
256,212,68934,1,10
256,220,69042,1,0
296,308,69258,6,0,B|336:308|336:308|368:320|368:320|412:320,1,120,4|2
220,288,69690,2,0,B|179:288|179:288|148:276|148:276|104:276,1,120,8|2
52,192,70122,2,0,B|108:180|108:180|132:112,1,120,0|2
172,68,70445,2,0,B|216:124|284:96,1,120,8|2
320,148,70769,1,8
256,220,70985,6,0,B|200:252|140:220,1,120,0|2
256,292,71417,2,0,B|312:260|372:292,1,120,8|2
412,204,71848,1,0
440,112,72064,1,2
464,48,72172,2,0,B|412:48|412:48|380:32|380:32|344:32,1,120,8|2
280,32,72496,1,8
196,76,72712,5,0
256,152,72928,1,2
316,228,73144,1,8
256,304,73359,2,0,B|200:340|140:304,1,120,2|0
124,212,73791,2,0,B|64:224,1,60,2|8
104,116,74115,2,0,B|164:104,1,60,2|8
256,152,74439,5,0
349,104,74655,2,0,B|408:116,1,60,2|8
446,223,74978,2,0,B|388:212,1,60,2|8
360,304,75302,2,0,B|296:304|296:304|256:288|256:288|256:316|256:316|216:304|216:304|152:304,1,240,2|8
80,240,75950,1,0
108,148,76166,5,0
140,56,76382,2,0,B|200:28|256:56,1,120,2|8
372,128,76813,2,0,B|312:156|256:128,1,120,2|0
204,208,77245,1,2
196,216,77353,1,8
308,208,77569,1,2
316,216,77677,1,8
256,292,77893,5,0
304,376,78108,1,2
208,376,78324,1,8
148,300,78540,2,0,B|104:352|40:328,1,120,2|0
72,236,78972,1,2
108,180,79080,2,0,B|152:168|152:168|172:144|172:144|220:132,1,120,8|2
208,68,79404,1,8
304,68,79619,5,0
396,40,79835,1,2
372,132,80051,1,8
448,188,80267,2,0,B|408:240|340:224,1,120,2|0
256,268,80699,1,2
264,276,80807,1,8
256,172,81022,1,2
244,164,81130,1,8
196,80,81346,6,0,B|320:80,1,120,0|2
316,16,81670,2,0,B|180:16,1,120,8|2
136,48,81994,1,8
40,32,82210,1,10
472,32,82641,1,10
256,348,83073,6,0,B|256:288|256:288|256:216|180:204,1,180,4|0
185,205,83505,2,0,B|172:252|172:252|148:256|148:256|136:312,1,120,8|0
40,304,83937,2,0,B|-36:192|40:80,1,240,2|8
132,104,84584,1,0
204,40,84800,2,0,B|240:72|240:72|336:72|336:72|376:108,1,180
362,95,85232,1,8
420,172,85448,1,0
480,248,85663,2,0,B|500:316|448:372|364:376|328:312,1,240,2|8
256,256,86311,1,0
184,192,86527,6,0,B|148:136|184:80,1,120,0|2
327,79,86959,2,0,B|364:136|328:192,1,120,8|0
344,288,87390,2,0,B|272:288|272:288|240:300|240:300|168:300,1,180,2|0
166,300,87822,1,8
72,328,88038,1,0
44,236,88254,2,0,B|96:220|96:220|108:157|108:157|172:140,1,180,2|0
168,140,88685,1,8
256,184,88901,1,0
343,140,89117,1,2
364,52,89333,2,0,B|312:8|256:-12|200:8|148:52,1,240,2|8
100,132,89981,38,0,B|84:192|84:192|128:212|128:212|104:276,1,180,0|0
104,276,90412,2,0,B|160:316|216:276,1,120,8|0
408,240,90844,2,0,B|352:200|296:240,1,120,2|0
356,316,91276,2,0,B|408:356|492:328|524:256|484:188,1,240,8|0
352,156,92031,1,0
352,156,92139,2,0,B|232:124,1,120,8|0
204,216,92571,1,2
172,308,92787,1,0
172,308,92895,1,0
172,308,93003,2,0,B|52:276,1,120,8|0
12,192,93434,6,0,B|64:192|64:192|144:192|168:132,1,180,4|0
167,132,93866,2,0,B|212:132|212:132|240:144|240:144|288:144,1,120,8|0
332,60,94298,2,0,B|440:60|440:60|480:124,1,180,4|0
478,121,94729,2,0,B|428:172|444:232,1,120,8|0
472,324,95161,2,0,B|392:380|300:340,1,180,4|0
301,340,95593,2,0,B|304:296|304:296|324:284|324:284|332:228,1,120,8|0
210,340,96025,2,0,B|208:296|208:296|188:284|188:284|180:228,1,120,2|0
256,172,96456,1,8
256,160,96564,1,8
256,148,96672,1,8
256,136,96780,1,8
256,124,96888,5,4
316,48,97104,1,2
400,96,97320,2,0,B|356:152|400:208,1,120,8|2
468,316,97751,2,0,B|512:260|468:204,1,120,0|2
464,192,98075,1,0
456,180,98183,1,8
400,96,98399,1,2
316,48,98615,2,0,B|272:76|272:76|204:76,1,120,0|2
116,40,99047,1,8
68,124,99263,2,0,B|136:124|136:124|172:164,1,120,2|0
88,212,99694,1,2
88,212,99802,1,0
88,212,99910,1,8
64,304,100126,1,2
156,332,100342,6,0,B|212:372|268:332,1,120,0|2
352,268,100774,2,0,B|296:228|240:268,1,120,8|2
184,192,101205,1,0
256,128,101421,2,0,B|256:64,2,60,2|0|8
328,192,101853,1,2
416,156,102069,2,0,B|432:200|432:200|456:220|456:220|468:260,1,120,0|2
432,352,102500,2,0,B|416:308|416:308|392:288|392:288|380:248,2,120,8|2|0
340,368,103148,2,8,B|308:360|308:360|296:380|296:380|280:356|280:356|256:380|256:380|232:356|232:356|216:380|216:380|204:360|204:360|172:368,1,240,8|8
192,272,103796,38,0,B|64:272,1,120,0|2
136,200,104227,2,0,B|8:200,1,120,8|2
80,128,104659,1,0
160,72,104875,2,0,B|120:24,2,60,2|0|8
256,60,105307,1,2
352,72,105522,2,0,B|336:112|336:112|300:128|300:128|288:176,1,120,0|2
160,72,105954,2,0,B|176:112|176:112|212:128|212:128|224:176,1,120,8|2
292,232,106386,1,0
268,324,106602,1,2
260,324,106710,1,0
252,324,106818,1,8
220,232,107033,1,2
196,140,107249,6,0,B|192:96|256:56|320:96|316:140,1,180,4|0
316,140,107681,2,0,B|356:160|356:160|388:160|388:160|432:176,1,120,8|0
468,264,108113,2,0,B|364:228|308:312,1,180,4|0
309,310,108544,2,0,B|252:328|252:328|192:328,1,120,8|0
108,276,108976,2,0,B|144:220|108:192|72:164|108:108,1,180,4|0
108,107,109408,2,0,B|162:107|162:107|172:100|172:100|236:100,1,120,8|0
284,24,109840,2,0,B|360:24|360:24|432:24|432:84,1,180,4|8
420,92,110271,1,8
408,100,110379,1,0
396,108,110487,1,0
304,144,110703,5,4
208,240,110919,1,2
208,144,111135,1,8
304,240,111351,1,2
372,308,111566,2,0,B|424:336|424:336|476:308,1,120,0|2
476,240,111890,2,0,B|424:212|424:212|372:240,1,120,8|2
304,240,112214,1,8
208,240,112430,5,0
304,144,112646,1,2
304,240,112862,1,8
208,144,113077,1,2
140,76,113293,2,0,B|88:48|88:48|36:76,1,120,0|2
36,144,113617,2,0,B|88:172|88:172|140:144,1,120,8|2
208,144,113941,1,8
200,240,114157,6,0,B|240:296|200:352,1,120,0|2
312,352,114588,2,0,B|272:296|312:240,1,120,8|2
348,152,115020,1,0
256,124,115236,1,2
256,124,115344,1,8
164,100,115560,1,2
164,100,115668,1,8
104,172,115884,6,0,B|32:152|4:216,1,120,0|2
36,276,116207,2,0,B|108:296|136:232,1,120,8|2
168,176,116531,1,8
220,256,116747,2,0,B|220:312|220:312|220:356|256:372|292:356|292:312|292:312|292:256,1,240,2|8
344,176,117395,1,0
332,80,117610,5,0
180,80,117826,1,2
304,172,118042,1,8
256,20,118258,1,2
208,172,118474,1,0
116,140,118690,2,0,B|56:152,1,60,2|8
96,64,119014,2,0,B|36:76,1,60,2|8
180,80,119337,5,0
332,80,119553,1,2
208,172,119769,1,8
256,20,119985,1,2
304,172,120201,1,0
396,140,120417,2,0,B|456:152,1,60,2|8
416,64,120740,2,0,B|476:76,1,60,2|8
332,80,121064,6,0,B|208:80,1,120,0|2
272,156,121496,2,0,B|152:156,1,120,8|2
148,252,121928,1,0
208,328,122143,1,2
204,336,122251,1,8
304,328,122467,1,2
308,336,122575,1,8
364,252,122791,5,0
304,176,123007,1,2
308,168,123115,1,8
208,176,123331,1,2
204,168,123439,1,8
256,88,123655,1,10
256,280,124086,1,10
256,288,124194,1,10
256,296,124302,1,0
340,344,124518,6,0,B|384:292|340:236,1,120,4|2
172,235,124950,2,0,B|128:292|172:344,1,120,8|2
256,220,125381,2,0,B|300:168|256:112,1,120,0|2
188,108,125705,2,0,B|140:108|140:108|116:116|116:116|64:116,1,120,8|2
32,172,126029,1,8
80,256,126245,6,0,B|140:256|140:256|180:308,1,120,0|2
256,176,126677,2,0,B|256:300,1,120,8|2
432,256,127108,2,0,B|372:256|372:256|332:308,1,120,0|2
376,360,127432,2,0,B|436:360|436:360|476:308,1,120,8|2
432,256,127756,1,8
428,160,127972,5,0
336,132,128188,1,2
256,188,128403,1,8
176,252,128619,1,2
84,224,128835,1,0
88,128,129051,1,2
70,61,129159,2,0,B|114:17|185:36,1,120,8|2
195,102,129483,1,8
256,188,129699,5,0
317,282,129914,1,2
330,348,130022,2,0,B|397:366|442:323,1,120,8|2
424,256,130346,1,8
340,196,130562,2,0,B|348:128|256:60|164:128|172:196,1,268.800002563477,2|8
88,256,131210,1,0
108,148,131425,5,0
140,56,131641,2,0,B|200:28|256:56,1,120,2|8
372,128,132073,2,0,B|312:156|256:128,1,120,2|0
204,208,132505,1,2
196,216,132613,1,8
148,300,132828,1,2
140,308,132936,1,8
88,228,133152,5,0
64,136,133368,1,2
44,44,133584,1,8
132,80,133800,2,0,B|176:28|240:52,1,120,2|0
308,120,134232,1,2
308,188,134339,2,0,B|264:200|264:200|244:224|244:224|204:236,1,120,8|2
208,304,134663,1,8
304,304,134879,5,0
392,336,135095,1,2
372,240,135311,1,8
448,184,135527,2,0,B|408:132|340:148,1,120,2|0
256,196,135958,1,2
248,188,136066,1,8
204,272,136282,1,2
192,264,136390,1,8
120,328,136606,6,0,B|160:368|160:368|232:368,1,120,0|2
288,368,136930,2,0,B|352:368|352:368|392:328,1,120,8|2
460,328,137254,1,8
476,232,137469,1,10
36,232,137901,1,10
256,32,138333,5,2
256,124,153875,53,8
256,124,154091,1,8
324,192,154306,1,8
324,192,154522,1,8
256,260,154738,1,8
256,260,154954,1,8
188,192,155170,1,8
188,192,155278,1,8
188,192,155386,1,8
124,264,155602,5,4
104,356,155817,2,0,B|160:384|224:356,1,120,2|8
408,356,156249,2,0,B|352:384|288:356,1,120,2|0
256,268,156681,1,2
292,208,156789,2,0,B|328:152|292:96,1,120,8|2
220,95,157113,2,8,B|184:152|220:208,1,120,8|0
140,264,157544,5,2
76,196,157760,1,8
12,128,157976,1,2
104,104,158192,2,0,B|148:64|148:64|208:84,1,120,0|2
224,148,158516,2,0,B|246:192|246:192|266:192|266:192|288:236,1,120,8|2
306,300,158839,2,0,B|364:320|364:320|408:280,1,120,8|0
500,256,159271,5,2
436,188,159487,1,8
372,120,159703,1,2
291,175,159919,2,8,B|328:232|291:288,1,120,0|2
220,288,160243,2,0,B|184:232|220:176,1,120,8|2
256,116,160566,1,8
256,20,160782,5,0
176,72,160998,2,0,B|108:72,1,60,2|8
52,144,161322,2,0,B|116:144,1,60,2|8
144,236,161646,2,0,B|192:284|256:236|320:188|368:236,1,240,2|8
452,192,162293,1,0
408,108,162509,6,0,B|356:108|356:108|336:124|336:124|288:124,1,120,0|2
104,108,162941,2,0,B|156:108|156:108|176:124|176:124|224:124,1,120,8|2
256,212,163372,1,0
304,296,163588,2,0,B|352:336,1,60,2|8
208,296,163912,2,0,B|160:336,1,60,2|8
44,276,164236,6,0,B|108:276|108:276|152:236,1,120,0|2
256,132,164668,2,0,B|192:132|192:132|148:172,1,120,8|2
256,132,165099,2,0,B|320:132|320:132|364:172,1,120,0|2
362,238,165423,2,0,B|403:275|403:275|467:275,1,120,8|2
480,212,165747,1,8
456,120,165963,5,0
368,80,166179,1,2
280,44,166394,1,8
192,8,166610,2,0,B|152:60|84:40,1,120,2|0
112,132,167042,1,2
104,136,167150,1,8
156,216,167366,1,2
164,220,167474,1,8
256,188,167690,5,0
348,220,167905,1,2
356,216,168013,1,8
408,136,168229,1,2
400,132,168337,1,8
352,48,168553,2,0,B|316:100|316:100|316:160,1,120,8|0
160,48,168985,2,0,B|196:100|196:100|196:160,1,120,8|0
256,232,169416,5,4
220,320,169632,2,0,B|160:344|104:320,1,120,2|8
292,320,170064,2,0,B|352:344|408:320,1,120,2|0
384,228,170496,1,2
392,220,170604,1,8
432,132,170820,1,2
424,124,170927,1,8
336,84,171143,5,0
292,172,171359,2,0,B|292:216|292:216|312:240|312:240|312:288,1,120,2|8
220,172,171791,2,0,B|220:216|220:216|200:240|200:240|200:288,1,120,2|0
128,228,172223,1,2
120,220,172331,1,8
80,132,172546,1,2
88,124,172654,1,8
172,76,172870,5,0
256,28,173086,1,2
340,76,173302,1,8
292,160,173518,2,0,B|300:224|300:224|352:256,2,120,2|0|2
220,160,174057,2,0,B|212:224|212:224|160:256,1,120,8|2
96,252,174381,1,8
88,348,174597,6,0,B|144:364|144:364|208:348,1,120,0|2
204,280,174921,2,0,B|256:228|308:280,1,120,8|2
308,349,175245,2,0,B|368:364|368:364|424:348,1,120,8|2
408,252,175676,1,0
388,156,175892,1,8
368,168,176000,1,8
348,180,176108,1,0
256,156,176324,5,0
292,64,176540,2,0,B|352:40|408:64,1,120,2|8
220,64,176972,2,0,B|160:40|104:64,1,120,2|0
128,156,177403,1,2
120,164,177511,1,8
80,252,177727,1,2
88,260,177835,1,8
176,300,178051,5,0
220,212,178267,2,0,B|220:168|220:168|200:144|200:144|200:96,1,120,2|8
292,212,178698,2,0,B|292:168|292:168|312:144|312:144|312:96,1,120,2|0
384,156,179130,1,2
392,164,179238,1,8
432,252,179454,1,2
424,260,179562,1,8
340,308,179778,5,0
256,356,179994,1,2
172,308,180209,1,8
220,224,180425,2,0,B|212:160|156:128,2,120,2|0|2
292,224,180965,2,0,B|300:160|356:128,1,120,8|2
428,132,181289,1,0
424,36,181505,6,0,B|368:20|368:20|304:36,1,120,0|2
308,104,181828,2,0,B|256:156|204:104,1,120,8|2
203,34,182152,2,0,B|144:20|144:20|88:36,2,120,8|2|0
256,192,182800,5,4
256,192,183016,12,2,186685
