osu file format v9

[General]
AudioFilename: 08 What You Know.mp3
AudioLeadIn: 0
PreviewTime: 55448
Countdown: 0
SampleSet: Soft
StackLeniency: 0.7
Mode: 0
LetterboxInBreaks: 0

[Editor]
DistanceSpacing: 0.85
BeatDivisor: 4
GridSize: 4

[Metadata]
Title:What You Know
Artist:Two Door Cinema Club
Creator:Krisom
Version:Hard
Source:
Tags:TDCC aleks719 icebeam Kurisuchianu Tourist History

[Difficulty]
HPDrainRate:6
CircleSize:4
OverallDifficulty:6
ApproachRate:6
SliderMultiplier:1.9
SliderTickRate:2

[Events]
//Background and Video events
0,0,"BG.jpg"
Video,-1089,"Gonz_ NO U .avi"
//Break Periods
2,141787,152825
//Storyboard Layer 0 (Background)
//Storyboard Layer 1 (Fail)
//Storyboard Layer 2 (Pass)
//Storyboard Layer 3 (Foreground)
//Storyboard Sound Samples
//Background Colour Transformations
3,100,163,162,255

[TimingPoints]
184,431.716793783278,4,2,1,100,1,0
27923,-117.647058823529,4,2,2,80,0,0
41523,-100,4,2,1,100,0,0
55443,-100,4,2,1,100,0,1
83073,-100,4,2,1,100,0,0
95924,-117.647058823529,4,2,1,100,0,0
96355,-100,4,2,1,100,0,0
110703,-100,4,2,1,100,0,1
138333,-100,4,2,1,100,0,0
155602,-100,4,2,1,100,0,1
182800,-100,4,2,1,100,0,0
183016,-100,4,2,1,5,0,0

[Colours]
Combo1 : 30,50,234
Combo2 : 240,5,5
Combo3 : 5,240,5
Combo4 : 22,187,222
Combo5 : 241,236,14
Combo6 : 176,0,176
SliderBorder : 63,63,63

[HitObjects]
64,32,13998,1,4
64,112,14214,1,2
64,192,14430,1,8
64,272,14646,1,2
64,352,14862,2,0,B|124:352|124:352|160:336|160:336|212:336,2,142.5,2|8|8
184,244,15941,1,2
256,208,16157,1,8
328,244,16373,1,2
408,244,16589,2,0,B|408:192|408:192|428:160|428:160|428:100,2,142.5,2|8|2
308,120,17668,5,2
256,56,17884,1,8
204,120,18100,1,2
220,200,18316,2,0,B|245:246|222:301|168:316,2,142.5,0|8|8
141,172,19179,2,0,B|90:186|68:241|93:287,2,142.5,2|8|8
79,118,20042,2,0,B|-12:181|12:286,1,190,2|8
12,364,20690,1,0
180,340,21122,5,2
256,316,21338,1,8
332,292,21553,1,2
408,268,21769,2,0,B|408:220|408:220|428:192|428:192|428:132,2,142.5,2|8|8
332,128,22849,1,2
256,108,23064,1,8
180,84,23280,1,2
104,60,23496,2,0,B|104:108|104:108|84:136|84:136|84:196,2,142.5,2|8|0
200,192,24575,5,2
256,252,24791,1,8
312,312,25007,1,2
392,312,25223,2,0,B|436:312|436:312|480:276|480:276|480:236,2,142.5,2|8|8
352,244,26087,2,0,B|352:202|352:202|396:166|396:166|440:166,2,142.5,2|8|8
336,324,26950,1,2
176,324,27382,1,8
256,184,27813,5,4
176,72,28245,2,0,B|136:92|136:92|92:92,1,80.7499966308476,8|0
48,140,28677,2,0,B|72:176|72:176|152:176|152:176|176:212,1,161.499993261695,2|8
256,316,29540,1,0
392,296,29972,2,0,B|432:272|432:272|432:232,1,80.7499966308476,8|0
480,188,30404,2,0,B|460:148|460:148|384:148|384:148|360:112,1,161.499993261695,2|8
224,100,31267,6,0,B|196:148|196:148|196:208|196:208|168:248,1,161.499993261695,0|8
218,300,31915,1,0
288,284,32131,2,0,B|316:236|316:236|316:176|316:176|344:136,1,161.499993261695,2|8
412,256,32994,1,0
324,364,33426,1,8
188,364,33857,1,2
100,256,34289,1,8
44,296,34505,70,0,B|8:296|8:296|8:208|8:208|44:208,1,161.499993261695,2|0
64,140,35153,2,0,B|92:140|92:140|112:128|112:128|144:128,1,80.7499966308476,8|0
188,76,35584,1,2
324,76,36016,1,8
256,340,36879,1,8
352,240,37311,2,0,B|384:208|384:208|456:208|456:208|492:172,1,161.499993261695,2|8
404,68,38175,6,0,B|304:116|304:116|256:100|256:100|208:116|208:116|108:68,3,322.99998652339,2|0|2|0
256,288,41628,5,4
384,188,42060,1,8
441,247,42276,1,0
466,171,42492,2,0,B|459:126|405:84|346:98|320:140,1,190,2|8
256,288,43355,1,0
192,240,43571,1,0
128,188,43787,1,8
71,247,44003,1,0
46,171,44219,2,0,B|52:126|106:84|165:98|191:140,1,190,2|8
340,72,45082,6,0,B|376:72|376:72|392:88|392:88|432:88,1,95
468,160,45514,2,0,B|432:160|432:160|416:176|416:176|379:176,1,95,8|0
328,240,45945,2,0,B|316:192|256:168|196:192|184:240,1,190,2|8
256,272,46593,1,0
328,308,46809,2,0,B|316:356|256:380|196:356|184:308,1,190,2|8
124,252,47456,1,0
168,184,47672,2,0,B|220:184|220:184|240:172|240:172|256:184|256:184|272:172|272:172|292:184|292:184|344:184,1,190,2|8
372,108,48320,6,0,B|412:140|472:136|510:88|506:40,1,190,2|0
424,44,48967,1,8
372,108,49183,1,0
328,176,49399,2,0,B|280:228|280:228|232:228|232:228|184:176,1,190,2|8
256,140,50047,1,0
328,104,50263,2,0,B|280:52|280:52|232:52|232:52|184:104,1,190,0|8
256,248,51126,1,0
256,248,51558,1,8
384,348,51990,6,0,B|384:252|384:252|464:196,1,190,4|8
404,140,52637,1,0
344,84,52853,2,0,B|256:20|168:84,1,190,4|8
108,140,53501,1,0
50,198,53716,2,0,B|128:252|128:252|128:348,1,190,4|8
212,348,54364,1,0
300,348,54580,1,0
256,276,54796,1,0
256,256,54904,1,8
256,236,55012,1,8
256,156,55227,1,0
192,104,55443,6,0,B|124:168|124:168|20:168,1,190,4|8
48,248,56091,1,2
96,312,56307,1,2
256,312,56738,1,8
416,312,57170,1,0
408,152,57602,2,0,B|316:152|316:152|260:152|256:88,1,190,8|2
256,252,58465,2,0,B|252:189|196:189|196:189|104:189,1,190,8|0
32,336,59329,5,8
108,316,59545,1,2
188,296,59760,1,0
480,336,60192,1,8
404,316,60408,1,0
324,296,60624,1,2
336,136,61056,2,0,B|256:188|256:188|176:136,2,190,8|2|8
324,296,62351,5,2
404,316,62567,1,0
480,336,62782,1,8
256,352,63214,1,0
32,336,63646,1,8
108,316,63862,1,0
188,296,64078,1,2
176,136,64509,2,0,B|204:176|256:200|308:176|336:136,2,190,8|2|8
296,28,65804,5,2
216,28,66020,1,0
256,100,66236,1,8
256,180,66452,2,0,B|240:252|240:252|272:284|272:284|256:352,1,190
188,308,67100,1,8
328,224,67531,2,0,B|380:224|380:224|412:248|412:248|464:248,2,142.5,2|8|8
256,264,68395,1,2
256,264,68826,1,8
320,104,69258,6,0,B|388:168|388:168|492:168,1,190,4|8
464,248,69906,1,2
416,312,70122,1,2
256,312,70553,1,8
96,312,70985,1,0
104,152,71417,2,0,B|196:152|196:152|252:152|256:88,1,190,8|2
256,252,72280,2,0,B|259:189|315:189|315:189|407:189,1,190,8|0
480,336,73144,5,8
404,316,73359,1,2
324,296,73575,1,0
32,336,74007,1,8
108,316,74223,1,0
188,296,74439,1,2
176,136,74871,2,0,B|232:160|232:160|280:112|280:112|336:136,2,190,8|2|8
188,296,76166,5,2
108,316,76382,1,0
32,336,76597,1,8
256,352,77029,1,0
480,336,77461,1,8
404,316,77677,1,0
324,296,77893,1,2
336,136,78324,2,0,B|304:76|256:136|208:196|176:136,2,190,8|2|8
216,28,79619,5,2
296,28,79835,1,0
256,100,80051,1,8
256,180,80267,2,0,B|272:252|272:252|240:284|240:284|256:352,1,190
324,308,80915,1,8
184,224,81346,2,0,B|132:224|132:224|100:248|100:248|48:248,2,142.5,2|8|8
176,144,82210,1,2
336,144,82641,1,8
492,192,83073,5,4
412,332,83505,1,8
332,344,83721,1,0
320,264,83937,2,0,B|312:212|256:174|200:212|192:264,1,190,2|8
20,192,84800,1,0
100,52,85232,1,8
180,40,85448,1,0
192,120,85663,2,0,B|200:172|256:210|312:172|320:120,1,190,2|8
432,236,86527,5,0
356,268,86743,2,0,B|380:316|432:320,2,95,2|8|0
288,224,87390,2,0,B|228:224|228:224|168:248|168:248|100:248,1,190,2|8
28,280,88038,1,0
52,356,88254,2,0,B|136:300|236:336,2,190,0|8|2
28,280,89333,1,8
0,120,89765,6,0,B|52:120|64:64|64:64|120:92|152:52,1,190,8|0
236,36,90412,2,0,B|264:72|264:72|320:72,1,95,8|0
392,48,90844,2,0,B|412:100|368:156|316:156|316:156|276:156,1,190,2|8
232,228,91492,2,0,B|196:228|196:228|144:228|100:284|120:336,1,190,0|0
196,312,92139,1,8
68,216,92571,1,2
48,372,93003,1,8
196,312,93434,6,0,B|212:252|256:244|300:236|312:164,1,190,4|8
332,92,94082,1,0
348,12,94298,2,0,B|256:52|164:12,1,190,4|8
180,92,94945,1,0
200,169,95161,2,0,B|212:236|256:244|300:252|316:312,1,190,4|8
256,368,95809,1,0
256,368,96025,2,0,B|236:332|236:332|196:332|196:332|172:296,1,121.124994946271,0|8
168,284,96456,1,8
100,332,96672,1,8
28,296,96888,38,0,B|80:212,1,95,4|2
0,192,97320,2,0,B|52:108,1,95,8|0
96,44,97751,2,0,B|168:124|268:80,1,190,2|8
384,192,98615,1,0
448,240,98831,2,0,B|408:268|408:268|360:268,2,95,2|8|0
512,292,99478,2,0,B|436:348|436:348|336:348,1,190,2|8
184,316,100342,5,0
104,308,100558,1,2
112,228,100774,1,8
192,236,100989,1,0
184,316,101205,2,0,B|228:316|256:370|256:370|284:316|328:316,1,190,2|8
336,236,101853,1,0
344,156,102069,2,0,B|256:92|168:156,2,190,0|8|2
336,236,103148,1,8
176,236,103580,6,0,B|112:304|112:304|16:304,1,190,8|2
28,224,104227,1,8
44,144,104443,1,0
12,72,104659,2,0,B|64:52|112:80|140:128|108:184,1,190,2|8
44,144,105307,2,0,B|128:72|128:72|216:72,1,190,0|8
256,140,105954,1,8
336,280,106386,1,2
176,280,106818,1,8
40,192,107249,6,0,B|84:192|84:192|180:192|180:100,1,190,4|8
104,76,107897,1,0
164,20,108113,2,0,B|256:60|348:20,1,190,4|8
408,76,108760,1,0
332,106,108976,2,0,B|336:192|428:192|428:192|472:192,1,190,4|8
452,272,109624,1,0
416,344,109840,1,0
336,344,110055,2,0,B|272:344,2,47.5,0|8|8
368,268,110487,1,0
324,200,110703,6,0,B|256:266|256:266|188:200,1,190,4|8
216,124,111351,1,2
296,124,111566,1,2
176,16,111998,1,8
336,16,112430,1,0
484,76,112862,2,0,B|516:148|440:216|372:168,2,190,8|2|8
348,240,114157,6,0,B|308:208|248:212|210:260|214:308,1,190,0|8
256,376,114804,1,0
300,308,115020,2,0,B|304:261|266:213|206:209|166:241,1,190,2|8
100,192,115668,1,0
40,136,115884,1,0
165,241,116315,1,8
256,104,116747,1,2
346,241,117179,1,8
472,136,117610,5,2
412,192,117826,1,0
346,241,118042,1,8
256,104,118474,1,0
165,241,118906,1,8
100,192,119121,1,0
40,136,119337,1,2
180,56,119769,2,0,B|204:100|256:128|308:100|332:56,2,190,8|2|8
256,196,121064,5,2
216,264,121280,1,0
296,264,121496,1,8
328,336,121712,2,0,B|316:384|256:408|196:384|184:336,1,190,0|0
116,292,122359,1,8
152,132,122791,1,2
256,196,123115,1,8
360,132,123439,1,8
348,52,123655,2,0,B|256:92|164:52,1,190,2|8
152,132,124302,1,0
188,200,124518,6,0,B|256:266|256:266|324:200,1,190,4|8
296,124,125166,1,2
216,124,125381,1,2
336,16,125813,1,8
176,16,126245,1,0
28,76,126677,2,0,B|-4:148|72:216|140:168,2,190,8|2|8
164,240,127972,6,0,B|204:208|264:212|302:260|298:308,1,190,0|8
256,376,128619,1,0
212,308,128835,2,0,B|208:261|246:213|306:209|346:241,1,190,2|8
412,192,129483,1,0
472,136,129699,1,0
347,241,130130,1,8
256,104,130562,1,2
166,241,130994,1,8
40,136,131425,5,2
100,192,131641,1,0
166,241,131857,1,8
256,104,132289,1,0
347,241,132721,1,8
412,192,132936,1,0
472,136,133152,1,2
332,56,133584,2,0,B|308:100|256:128|204:100|180:56,2,190,8|2|8
256,192,134879,5,2
296,260,135095,1,0
216,260,135311,1,8
184,332,135527,2,0,B|196:380|256:404|316:380|328:332,1,190,0|0
396,292,136174,1,8
360,132,136606,1,2
256,192,136930,1,8
152,132,137254,1,8
164,52,137469,2,0,B|256:92|348:52,1,190,2|8
256,192,138333,5,2
256,56,153875,70,8,B|256:156,1,95,8|0
328,116,154306,2,8,B|328:152|328:152|328:184|300:208,1,95,8|0
184,116,154738,2,8,B|184:152|184:152|184:184|212:208,1,95
212,284,155170,2,8,B|256:316|300:284,1,95
368,332,155602,5,4
296,372,155817,1,2
216,372,156033,1,8
144,332,156249,1,2
120,256,156465,2,0,B|68:256|68:256|48:216|48:216|-4:216,2,142.5,2|8|8
144,180,157328,1,0
216,140,157544,1,2
296,140,157760,1,8
368,180,157976,1,2
392,256,158192,2,0,B|444:256|444:256|464:296|464:296|516:296,2,142.5,2|8|8
312,264,159055,6,0,B|300:360,1,95,0|2
211,358,159487,2,0,B|200:264,1,95,8|2
144,208,159919,1,2
256,164,160243,1,8
372,128,160566,1,8
368,208,160782,1,2
256,164,161106,1,8
140,128,161430,1,8
176,56,161646,2,0,B|200:16|256:-4|312:16|336:56,1,190,2|8
416,44,162293,1,0
464,108,162509,6,0,B|380:164,1,95,0|2
460,196,162941,2,0,B|376:252,1,95,8|2
304,224,163372,1,2
256,336,163696,1,8
208,224,164020,1,8
131,248,164236,2,0,B|52:196,1,95,0|2
47,107,164668,2,0,B|127:160,1,95,8|2
164,88,165099,1,2
256,168,165423,1,8
348,88,165747,1,8
412,135,165963,6,0,B|420:184|420:184|465:192,1,95,0|2
440,268,166394,2,0,B|391:260|391:260|369:301,1,95,8|2
296,340,166826,2,0,B|296:240|296:240|332:212,2,142.5,2|8|8
216,340,167690,2,0,B|216:240|216:240|180:212,2,142.5,2|8|8
136,344,168553,2,0,B|84:320|84:320|84:184,1,190,2|8
84,108,169201,1,0
144,52,169416,5,4
216,12,169632,1,2
296,12,169848,1,8
368,52,170064,1,2
392,128,170280,2,0,B|444:112|452:148|460:184|516:172,2,142.5,2|8|8
368,204,171143,1,0
296,244,171359,1,2
216,244,171575,1,8
144,204,171791,1,2
120,128,172007,2,0,B|68:144|60:108|52:72|-4:84,2,142.5,2|8|8
200,120,172870,6,0,B|200:72|200:72|220:28,1,95,0|2
292,29,173302,2,0,B|312:72|312:72|312:120,1,95,8|2
368,176,173734,1,2
256,220,174057,1,8
140,256,174381,1,8
144,176,174597,1,2
256,220,174921,1,8
372,256,175245,1,8
336,328,175461,2,0,B|300:320|268:344|268:344|256:324|256:324|244:344|244:344|212:320|176:328,1,190,2|8
96,340,176108,1,0
48,276,176324,6,0,B|100:276|128:228,1,95,0|2
52,196,176756,2,0,B|78:150|130:150,1,95,8|2
208,160,177187,1,2
256,272,177511,1,8
304,160,177835,1,8
381,150,178051,2,0,B|433:150|460:196,1,95,0|2
463,276,178483,2,0,B|412:276|385:230,1,95,8|2
348,296,178914,1,2
256,372,179238,1,8
164,296,179562,1,8
108,236,179778,6,0,B|51:228|41:179,1,95,0|2
116,152,180209,2,0,B|79:112|86:64,1,95,8|2
164,88,180641,1,2
256,168,180965,1,8
348,88,181289,1,8
348,168,181505,1,2
256,88,181828,1,8
164,168,182152,1,8
256,168,182368,1,2
256,328,182800,5,4
256,192,183016,12,2,186685
