osu file format v9

[General]
AudioFilename: 08 What You Know.mp3
AudioLeadIn: 0
PreviewTime: 55448
Countdown: 0
SampleSet: Soft
StackLeniency: 0.7
Mode: 0
LetterboxInBreaks: 0

[Editor]
DistanceSpacing: 0.8
BeatDivisor: 4
GridSize: 4

[Metadata]
Title:What You Know
Artist:Two Door Cinema Club
Creator:Krisom
Version:Easy
Source:
Tags:TDCC aleks719 icebeam Kurisuchianu Tourist History

[Difficulty]
HPDrainRate:2
CircleSize:3
OverallDifficulty:2
ApproachRate:3
SliderMultiplier:1.1
SliderTickRate:1

[Events]
//Background and Video events
0,0,"BG.jpg"
Video,-1089,"Gonz_ NO U .avi"
//Break Periods
2,141787,152435
//Storyboard Layer 0 (Background)
//Storyboard Layer 1 (Fail)
//Storyboard Layer 2 (Pass)
//Storyboard Layer 3 (Foreground)
//Storyboard Sound Samples
//Background Colour Transformations
3,100,163,162,255

[TimingPoints]
184,431.716793783278,4,2,1,100,1,0
27923,-117.647058823529,4,2,2,80,0,0
41523,-100,4,2,1,100,0,0
55443,-100,4,2,1,100,0,1
83073,-100,4,2,1,100,0,0
110703,-100,4,2,1,100,0,1
138333,-100,4,2,1,100,0,0
155602,-100,4,2,1,100,0,1
182800,-100,4,2,1,100,0,0
183016,-100,4,2,1,5,0,0

[Colours]
Combo1 : 30,50,234
Combo2 : 240,5,5
Combo3 : 5,240,5
Combo4 : 22,187,222
Combo5 : 241,236,14
Combo6 : 176,0,176
SliderBorder : 63,63,63

[HitObjects]
156,292,13998,1,4
156,192,14430,1,8
156,92,14862,1,2
356,92,15725,1,0
356,192,16157,1,8
356,292,16589,1,2
164,332,17452,5,0
124,240,17884,1,8
84,148,18316,2,0,B|120:100|184:112,1,110,2|8
256,180,19179,1,0
328,248,19611,2,0,B|389:259|425:211,1,110,8|2
384,120,20474,1,8
356,24,20906,5,0
256,24,21338,1,8
156,24,21769,1,2
160,220,22633,1,0
256,236,23064,1,8
352,252,23496,1,2
192,368,24360,6,0,B|152:336|152:336|152:272,1,110,0|8
204,192,25223,1,2
308,192,25655,1,8
360,106,26087,2,0,B|360:48|360:48|320:16,1,110,0|8
256,92,26950,1,2
256,192,27382,1,8
256,292,27813,6,0,B|208:328|148:308,1,110,4|8
172,140,29109,1,8
340,140,29972,1,8
348,224,30404,1,2
356,308,30835,1,8
192,344,31699,6,0,B|96:344,2,93.4999960988762,8|0|8
320,236,33426,2,0,B|432:236,2,93.4999960988762,8|2|8
256,180,34721,69,0
180,140,35153,2,8,B|204:96|256:76|308:96|332:140,2,186.999992197752
212,216,37311,1,0
300,216,37743,1,8
332,292,38175,6,8,B|308:336|256:356|204:336|180:292,3,186.999992197752,2|2|0|0
76,124,41628,5,4
156,68,42060,2,0,B|108:16|52:32,2,110,8|2|8
356,68,43787,2,0,B|404:16|460:32,2,110,8|2|8
436,124,45082,5,0
416,220,45514,1,8
348,148,45945,2,0,B|320:100|256:76|192:100|164:148,1,220,2|0
96,220,47241,1,8
176,276,47672,6,0,B|224:284|224:284|284:268|284:268|336:276,2,165,2|2|8
208,184,49399,2,0,B|164:184|164:184|140:164|140:164|100:164,1,110,2|8
308,184,50694,2,0,B|352:184|352:184|376:164|376:164|416:164,2,110,8|2|8
340,276,51990,6,0,B|296:324|296:324|256:304|256:304|216:324|216:324|172:276,3,220,2|8|2|8
256,224,55012,1,0
256,124,55443,5,4
432,216,56307,1,2
392,304,56738,1,8
304,352,57170,1,0
208,352,57602,1,8
120,304,58034,1,2
80,216,58465,1,8
152,144,58897,6,0,B|200:184|256:144|312:104|360:144,2,220,2|8|0
164,244,61056,1,8
256,272,61487,1,2
348,244,61919,1,8
440,192,62351,6,0,B|454:138|425:76|363:47|309:61,1,220,0|0
256,144,63646,1,8
176,204,64078,1,0
256,264,64509,1,8
336,204,64941,1,2
256,144,65373,1,8
201,61,65804,6,0,B|148:47|86:76|57:138|72:192,2,220,2|0|2
176,164,67963,1,8
256,204,68395,1,2
336,164,68826,1,8
256,124,69258,5,4
80,216,70122,1,2
120,304,70553,1,8
208,352,70985,1,0
304,352,71417,1,8
392,304,71848,1,2
432,216,72280,1,8
360,144,72712,6,0,B|312:160|312:160|200:124|200:124|152:144,2,220,2|8|0
352,244,74871,1,8
256,268,75302,1,2
160,244,75734,1,8
72,192,76166,6,0,B|55:141|55:141|134:61|134:61|185:78,1,220,2|0
256,144,77461,1,8
336,204,77893,1,0
256,264,78324,1,8
176,204,78756,1,2
256,144,79188,1,8
326,79,79619,6,0,B|377:61|377:61|456:141|456:141|440:192,2,220,2|0|2
256,152,81778,1,8
256,252,82210,1,2
256,352,82641,1,8
336,296,83073,5,4
356,200,83505,2,0,B|416:220|456:176,2,110,8|2|8
156,200,85232,2,0,B|96:220|56:176,2,110,8|2|8
256,188,86527,5,0
352,160,86959,1,8
348,60,87390,2,0,B|320:12|256:-12|192:12|164:60,1,220,2|0
160,160,88685,1,8
176,256,89117,6,0,B|256:292|336:256,2,165,2|2|8
136,164,90844,1,2
148,64,91276,2,0,B|256:28|364:64,1,220,8|8
376,164,92571,1,2
376,264,93003,1,8
364,364,93434,6,0,B|256:344|256:344|148:364,3,220,2|8|2|8
136,264,96456,1,0
160,168,96888,37,4
156,68,97320,2,0,B|48:112,2,110,8|2|8
356,68,99047,2,0,B|464:112,2,110,8|2|8
352,168,100342,5,0
384,260,100774,1,8
476,228,101205,2,0,B|496:320|416:384|336:344,1,220,2|0
256,312,102500,1,8
192,240,102932,6,0,B|124:168|32:216,2,165,2|2|8
256,164,104659,1,2
320,88,105091,2,0,B|328:160|428:200|488:132,1,220,8|8
416,64,106386,1,2
320,88,106818,1,8
224,104,107249,6,0,B|202:26|99:6|52:84,3,220,2|8|2|8
132,140,110271,1,0
40,176,110703,6,0,B|61:253|164:273|211:195,1,220,4|2
256,108,111998,1,8
304,196,112430,1,0
356,280,112862,1,8
256,280,113293,1,2
156,280,113725,1,8
56,280,114157,6,0,B|56:176|56:176|56:112|116:76,2,220,0|8|0
155,280,116315,1,8
256,280,116747,1,2
356,280,117179,1,8
456,280,117610,6,0,B|456:176|456:176|456:112|396:76,2,220,2|8|0
357,280,119769,1,8
256,280,120201,1,2
156,280,120632,1,8
196,188,121064,6,0,B|156:144|156:144|112:168|112:168|68:144|68:144|28:188,2,220,0|8|2
256,108,123223,1,8
336,48,123655,1,2
384,140,124086,1,8
472,176,124518,6,0,B|450:253|347:273|300:195,1,220,4|2
256,108,125813,1,8
208,196,126245,1,0
156,280,126677,1,8
256,280,127108,1,2
356,280,127540,1,8
456,280,127972,6,0,B|456:172|456:172|456:112|508:80,2,220,0|8|0
357,280,130130,1,8
256,280,130562,1,2
156,280,130994,1,8
56,280,131425,6,0,B|56:172|56:172|56:112|4:80,2,220,0|8|0
155,280,133584,1,8
256,280,134016,1,2
356,280,134447,1,8
316,188,134879,6,0,B|356:144|356:144|400:168|400:168|444:144|444:144|484:188,2,220,0|8|2
256,108,137038,1,8
200,192,137469,1,2
256,276,137901,1,8
256,376,138333,5,2
104,268,153875,6,0,B|184:340|256:268|328:196|408:268,1,330,8|8
340,340,155602,5,4
432,168,156465,1,2
392,80,156897,1,8
304,32,157328,1,0
208,32,157760,1,8
120,80,158192,1,2
80,168,158624,1,8
152,240,159055,6,0,B|200:200|256:240|312:280|360:240,2,220,2|8|0
160,140,161214,1,8
256,112,161646,1,2
352,140,162077,1,8
440,192,162509,6,0,B|454:246|425:308|363:337|309:323,1,220,0|0
256,240,163804,1,8
176,180,164236,1,0
256,120,164668,1,8
336,180,165099,1,2
256,240,165531,1,8
201,323,165963,6,0,B|148:337|86:308|57:246|72:192,2,220,2|0|2
256,240,168121,1,8
312,324,168553,1,2
388,256,168985,1,8
488,220,169416,6,0,B|468:142|362:122|312:180,1,220,4|2
256,264,170712,1,8
200,180,171143,1,0
156,92,171575,1,8
256,92,172007,1,2
356,92,172439,1,8
456,104,172870,6,0,B|456:212|456:212|456:272|508:304,2,220,0|8|0
356,92,175029,1,8
255,92,175461,1,2
155,92,175892,1,8
56,104,176324,6,0,B|56:212|56:212|56:272|4:304,2,220,0|8|0
155,104,178483,1,8
256,104,178914,1,2
356,104,179346,1,8
340,200,179778,6,0,B|312:244|312:244|256:220|200:244|200:244|172:200,2,220,0|8|2
348,100,181936,1,8
256,144,182368,1,2
164,100,182800,1,4
256,192,183016,12,2,186469
