osu file format v9

[General]
AudioFilename: 08 What You Know.mp3
AudioLeadIn: 0
PreviewTime: 55448
Countdown: 0
SampleSet: Soft
StackLeniency: 0.7
Mode: 0
LetterboxInBreaks: 0

[Editor]
Bookmarks: 13995,83075,96891,138339,153882,169425,186695
DistanceSpacing: 1
BeatDivisor: 4
GridSize: 4

[Metadata]
Title:What You Know
Artist:Two Door Cinema Club
Creator:Krisom
Version:AleksBeam
Source:
Tags:TDCC aleks719 icebeam Kurisuchianu Tourist History

[Difficulty]
HPDrainRate:7
CircleSize:4
OverallDifficulty:7
ApproachRate:8
SliderMultiplier:1.8
SliderTickRate:2

[Events]
//Background and Video events
0,0,"BG.jpg"
Video,-1089,"Gonz_ NO U .avi"
//Break Periods
2,83273,96137
2,141787,153125
//Storyboard Layer 0 (Background)
//Storyboard Layer 1 (Fail)
//Storyboard Layer 2 (Pass)
//Storyboard Layer 3 (Foreground)
Sprite,Foreground,Centre,"Icebeam.png",190,515 F,0,96463,,1 M,0,96463,96895,190,515,190,410 M,0,138343,138775,190,410,190,515 F,0,138343,138775,1,0 F,0,168997,,1 M,0,168997,169429,190,515,190,410 M,0,182813,183245,190,410,190,515 F,0,182813,183245,1,0
Sprite,Foreground,Centre,"Aleks.png",510,-30 M,0,13784,13999,510,-30,510,65 M,0,83079,83511,510,65,510,-30 F,0,83079,83511,1,0 F,0,153454,,1 M,0,153454,153886,510,-30,510,65 M,0,169429,169860,510,65,510,-30 F,0,169429,169860,1,0
Sprite,Foreground,Centre,"Aleks.png",510,65 L,41631,1 F,0,0,216,1,0 S,0,0,216,1.05,1
Sprite,Foreground,Centre,"AleksB.png",510,65 L,55447,32 F,0,0,864,1,0 L,155613,16 F,0,0,864,1,0
Sprite,Foreground,Centre,"IcebeamB.png",190,410 L,110711,32 F,0,0,864,1,0 L,169429,16 F,0,0,864,1,0
//Storyboard Sound Samples
//Background Colour Transformations
3,100,163,162,255

[TimingPoints]
184,431.716793783278,4,2,1,70,1,0
28031,-100,4,2,0,60,0,0
38069,-100,4,2,0,30,0,0
38285,-100,4,2,0,60,0,0
38933,-100,4,2,0,40,0,0
39149,-100,4,2,0,60,0,0
39796,-100,4,2,0,55,0,0
40012,-100,4,2,0,60,0,0
40660,-100,4,2,0,70,0,0
40876,-100,4,2,0,60,0,0
41523,-100,4,1,0,90,0,0
41739,-100,4,2,1,85,0,0
51885,-100,4,1,0,60,0,0
54800,-100,4,2,1,85,0,0
55443,-100,4,2,1,100,0,1
55555,-100,4,1,0,50,0,1
68616,-100,4,2,1,85,0,1
69155,-100,4,1,0,50,0,1
82539,-100,4,2,1,85,0,1
82755,-100,4,1,0,50,0,1
83073,-100,4,2,1,100,0,0
110703,-100,4,2,1,100,0,1
138333,-100,4,2,1,100,0,0
153670,-100,4,2,1,20,0,0
154210,-100,4,2,1,40,0,0
154641,-100,4,2,1,60,0,0
155073,-100,4,2,1,80,0,0
155602,-100,4,2,1,100,0,1
157879,-100,4,1,0,50,0,1
159175,-100,4,2,1,100,0,1
182800,-100,4,2,1,100,0,0
183016,-100,4,2,1,5,0,0

[Colours]
Combo1 : 30,50,234
Combo2 : 240,5,5
Combo3 : 5,240,5
Combo4 : 22,187,222
Combo5 : 241,236,14
Combo6 : 176,0,176
SliderBorder : 63,63,63

[HitObjects]
136,136,13998,1,4
68,192,14214,1,0
88,280,14430,1,8
180,280,14646,1,0
204,192,14862,2,0,B|200:144|248:96|292:96|324:108,2,135,2|2|2
372,256,15941,1,0
288,224,16157,1,8
204,192,16373,1,0
116,168,16589,2,0,B|100:220|128:268|184:280,2,135,2|2|2
256,56,17668,5,0
276,144,17884,1,8
236,224,18100,1,0
276,304,18316,2,0,B|336:304|336:304|376:304|412:268,2,135,2|2|2
184,304,19179,2,0,B|124:304|124:304|84:304|48:268,2,135,2|2|2
184,213,20042,2,0,B|184:144|256:104|328:144|328:192,1,180,2|10
296,248,20690,1,2
172,52,21122,5,0
164,76,21230,1,0
156,100,21338,1,8
132,188,21553,1,0
132,188,21769,2,0,B|112:240|112:240|92:272|36:280,2,135,2|2|2
264,72,22849,2,0,B|300:36|300:36|344:36,2,90,0|8|0
340,120,23496,2,0,B|308:152|308:152|264:152|264:152|228:188,2,135,2|2|2
412,284,24575,6,0,B|364:284|308:316,1,90,0|8
256,364,25007,1,0
180,304,25223,2,0,B|140:272|96:272|28:296,2,135,2|2|2
256,256,26087,2,0,B|248:204|224:168|152:144,2,135,2|2|2
180,304,26950,1,2
324,196,27382,1,10
324,196,27813,5,4
184,80,28245,1,8
112,132,28461,1,0
196,168,28677,2,0,B|272:148|292:76|244:8,2,180,2|8|0
112,196,29756,1,0
28,228,29972,1,8
12,316,30188,1,0
88,364,30404,2,0,B|180:376|220:284|180:232,1,180,2|8
132,84,31267,1,4
308,44,31699,6,0,B|356:44|396:80,1,90,8|0
408,0,32131,2,0,B|476:28|488:112|432:144|388:160,1,180,2|8
256,208,32994,1,2
100,120,33426,1,8
256,28,33857,1,2
412,120,34289,1,8
496,84,34505,2,0,B|512:160|464:220|376:200,1,180,2|0
316,180,35153,5,8
248,120,35368,1,0
336,96,35584,2,0,B|416:120|416:192|392:240|352:256,3,180,2|8|0|8
212,312,37311,6,0,B|132:312|132:312|120:296|120:296|36:296,1,180,2|8
212,240,38175,1,4
40,188,38606,2,0,B|120:188|120:188|132:172|132:172|216:172,1,180,8|4
40,116,39470,1,8
216,76,39901,1,4
360,184,40333,1,8
196,256,40765,1,4
216,76,41197,1,8
288,132,41412,1,0
360,184,41628,1,4
300,356,42060,6,0,B|256:340|256:340|212:356,1,90,8|0
176,272,42492,2,0,B|256:232|256:232|336:272,1,180,2|10
336,180,43139,2,0,B|256:140|256:140|176:180,2,180,2|2|2
336,272,44219,2,0,B|272:300|272:300|256:320|240:300|240:300|176:272,1,180,2|10
256,112,45082,1,2
336,272,45514,5,8
256,232,45730,1,0
176,272,45945,1,2
300,144,46377,1,8
212,144,46593,1,2
340,272,47025,2,0,B|280:316|232:316|172:272,1,180,2|2
208,188,47672,2,0,B|148:204,2,45,0|0|2
304,188,48104,2,0,B|364:204,2,45,8|0|2
304,188,48536,1,2
256,112,48752,6,0,B|256:60,2,45,0|0|10
172,192,49183,1,2
172,192,49399,1,2
340,192,49831,1,10
340,192,50047,1,2
324,292,50479,2,0,B|308:308|308:308|256:308|256:308|252:288|260:288|256:308|256:308|204:308|204:308|188:292,2,180,2|2|2
312,204,51558,1,10
200,204,51774,1,2
256,128,51990,6,2,B|344:80|432:128|432:248|352:280,1,270,0|0
381,260,52853,2,2,B|304:280|256:312|256:312|208:280|132:260,1,270,0|0
132,260,53716,2,2,B|100:240|72:132|168:80|256:128,1,270,0|0
196,200,54580,1,6
256,320,54904,2,8,B|256:268,3,45,2|8|2|8
320,200,55443,5,4
264,128,55659,1,0
176,112,55875,1,8
88,128,56091,1,0
96,216,56307,2,0,B|144:216|192:248|208:304|180:356,2,180,2|10|2
108,304,57386,1,0
184,252,57602,1,8
272,232,57818,1,0
348,184,58034,2,2,B|384:252|344:316|264:328,2,180,2|10|2
308,104,59113,5,0
392,72,59329,1,8
432,152,59545,1,0
348,184,59760,2,0,B|288:184|288:184|248:184|212:220,2,135,2|2|2
304,264,60624,2,2,B|364:264|364:264|403:264|440:228,2,135,2|2|2
212,264,61487,2,0,B|146:241|132:160|193:105|239:121,1,180,2|10
260,192,62135,1,2
272,212,62243,1,0
284,232,62351,1,4
364,192,62567,5,0
376,212,62675,1,0
388,232,62782,1,8
468,192,62998,1,0
468,192,63106,1,0
468,192,63214,2,0,B|497:236|497:236|520:272|484:336,2,135,2|2|2
408,124,64078,1,0
316,124,64293,2,0,B|280:88|280:88|236:88,2,90,0|8|0
256,192,64941,2,2,B|292:228|292:228|344:228,1,90,2|0
392,296,65373,2,0,B|425:262|425:262|425:211,1,90,8|0
456,136,65804,5,6
472,48,66020,2,0,B|416:36|376:88,1,90,0|8
332,140,66452,1,0
284,216,66668,2,0,B|260:264|192:272|152:240,2,135,2|2|2
208,168,67531,2,2,B|212:112|180:76|120:60,2,135,2|2|2
120,156,68395,1,2
196,268,68826,1,8
216,280,68934,1,2
236,292,69042,1,8
364,196,69258,6,0,B|348:152|376:104,1,90,6|0
460,44,69690,2,0,B|476:88|448:136,1,90,8|0
304,236,70122,2,0,B|280:196|280:136|296:92|332:40,2,180,2|10|2
368,324,71201,1,0
468,368,71417,1,8
456,260,71633,1,0
356,216,71848,2,2,B|336:160|348:92|432:56,2,180,2|10|2
452,164,72928,5,0
484,60,73144,1,8
376,80,73359,1,0
268,92,73575,2,2,B|208:92|208:92|168:92|132:56,2,135,2|2|2
284,200,74439,2,2,B|344:200|344:200|383:200|420:236,2,135,2|2|2
176,200,75302,2,0,B|104:200|80:240|104:280|176:280,1,180,2|10
283,279,75950,1,0
304,172,76166,1,4
412,184,76382,5,0
400,204,76489,1,0
388,224,76597,1,8
432,324,76813,1,0
444,304,76921,1,0
456,284,77029,2,0,B|480:244|480:244|504:204|480:140,2,135,2|2|2
348,292,77893,2,0,B|322:246|277:226,1,90
144,164,78324,2,0,B|170:209|214:229,1,90,8|0
400,240,78756,2,2,B|374:194|329:174,1,90,2|0
84,208,79188,2,2,B|110:253|154:273,1,90,10|0
256,312,79619,5,6
264,204,79835,2,0,B|200:208|168:252,2,90,0|8|0
328,116,80483,2,2,B|352:68|420:60|460:91,2,135,2|2|2
360,220,81346,2,2,B|384:270|430:285|490:269,2,135,2|2|2
328,116,82210,1,2
184,224,82641,1,8
144,48,83073,5,4
92,72,96888,6,0,B|96:112|100:168,1,90,4|0
108,176,97212,1,0
108,176,97320,1,8
92,264,97536,1,0
180,240,97751,2,0,B|248:168|352:224,1,180,2|8
424,260,98399,1,0
468,180,98615,5,0
388,140,98831,1,0
388,140,98939,1,0
388,140,99047,2,0,B|368:96|392:48,1,90,8|0
344,220,99478,1,2
344,220,99586,2,0,B|364:264|340:312,1,90
348,316,99910,2,0,B|256:316,1,90,8|0
172,340,100342,5,0
100,288,100558,2,0,B|44:304,2,45,0|0|8
168,228,100989,1,0
256,252,101205,2,0,B|316:200|196:136|268:72,1,180,2|8
332,36,101853,1,0
344,124,102069,6,0,B|400:184|472:144,1,135,0|0
472,156,102500,2,0,B|468:264,1,90,8|0
428,328,102932,1,2
336,300,103148,2,0,B|296:264|256:304|256:304|216:264|172:304,1,180,0|0
108,240,103796,5,4
144,156,104011,1,0
144,156,104119,1,0
144,156,104227,2,0,B|128:112|156:68,1,90,8|0
384,92,104659,2,0,B|324:172|220:124,1,180,2|8
240,44,105307,1,0
332,24,105522,5,0
384,92,105738,1,0
392,104,105846,1,0
400,116,105954,2,0,B|396:216,1,90,8|0
488,252,106386,2,0,B|396:180|308:268,1,180,2|8
148,320,107249,5,4
76,256,107465,1,0
76,256,107573,1,0
76,256,107681,1,8
172,232,107897,1,0
216,96,108113,5,2
216,96,108221,2,0,B|268:92|320:96,1,90
316,104,108544,2,0,B|292:156|332:200,1,90,8|0
428,336,108976,6,0,B|452:284|412:240,1,90,4|0
412,248,109300,1,0
404,244,109408,1,8
320,272,109624,1,0
256,192,109840,5,8
256,192,109947,1,8
152,212,110163,2,8,B|108:200,3,45
184,104,110703,6,0,B|216:72|272:88,1,90,4|0
284,96,111027,2,0,B|336:88,1,45,0|8
404,136,111351,1,0
332,360,111566,6,0,B|304:316|336:268,1,90,2|0
488,228,111998,6,0,B|448:256|400:236,1,90,8|0
160,184,112430,6,0,B|248:132|332:196,1,180,0|8
412,240,113077,2,0,B|404:336,1,90,0|2
308,344,113509,1,0
308,344,113617,1,0
308,344,113725,1,8
236,276,113941,1,0
204,348,114157,5,4
316,260,114373,1,0
316,260,114481,1,0
316,260,114588,1,8
176,220,114804,1,0
88,284,115020,6,0,B|124:216|60:156,1,135,2|0
68,152,115452,2,0,B|108:124|164:148,1,90,8|0
312,28,115884,6,0,B|276:96|340:156,1,135,2|0
332,160,116315,2,0,B|292:188|236:164,1,90,8|0
176,220,116747,5,8
216,92,116963,1,0
344,132,117179,1,8
303,260,117395,1,0
220,296,117610,5,4
128,296,117826,2,0,B|96:344,2,45,0|0|8
88,216,118258,1,0
176,220,118474,2,0,B|204:152|152:88,1,135,2|0
160,84,118906,2,0,B|196:52|252:72,1,90,8|0
396,148,119337,6,0,B|360:180|304:160,1,90
304,160,119661,1,0
296,156,119769,1,8
344,68,119985,1,0
444,64,120201,2,0,B|520:148|440:240,1,180,2|8
236,316,121064,5,4
324,324,121280,1,0
324,324,121388,1,0
324,324,121496,2,0,B|332:276|300:228,1,90,8|0
216,236,121928,6,0,B|60:248,1,135,2|0
76,256,122359,2,0,B|68:304|100:352,1,90,8|0
296,148,122791,6,0,B|452:136,1,135,2|0
436,128,123223,2,0,B|444:80|412:32,1,90,8|0
328,60,123655,5,2
332,68,124086,1,8
336,76,124518,5,4
296,148,124734,2,0,B|240:156,2,45,0|0|8
356,216,125166,1,0
328,300,125381,6,0,B|288:320|236:304,1,90,2|0
68,344,125813,6,0,B|108:324|160:340,1,90,8|0
148,80,126245,6,0,B|212:164|160:256,1,180,0|8
92,212,126892,2,0,B|116:168|80:120,1,90,0|2
68,52,127324,2,0,B|48:4,2,45,0|0|8
148,80,127756,1,0
224,52,127972,6,0,B|268:72|312:48,1,90,4|0
324,56,128295,2,0,B|380:60,1,45,0|8
460,48,128619,1,0
428,128,128835,6,0,B|484:188|432:268,1,135,2|0
432,260,129267,2,0,B|340:264,1,90,8|0
84,256,129699,6,0,B|28:196|80:116,1,135,2|0
80,124,130130,2,0,B|172:120,1,90,8|0
256,72,130562,6,0,B|316:124|196:188|268:252,2,180,8|8|4
340,40,131641,1,0
340,40,131749,1,0
340,40,131857,2,0,B|380:64|432:48,1,90,8|0
464,132,132289,6,0,B|456:276,1,135,2|0
440,272,132721,2,0,B|388:256|336:292,1,90,8|0
160,204,133152,6,0,B|204:264|172:336,1,135,0|0
188,340,133584,2,0,B|240:356|292:320,1,90,8|0
268,240,134016,6,0,B|216:156|284:68,1,180,2|8
368,44,134663,1,0
352,124,134879,6,0,B|396:144|444:124,1,90,4|0
452,136,135203,1,0
452,136,135311,1,8
448,224,135527,1,0
444,312,135743,5,2
176,336,136066,1,0
176,336,136174,1,8
112,272,136390,1,0
200,256,136606,5,2
316,76,136930,1,0
316,76,137038,1,8
224,128,137254,1,0
316,176,137469,5,2
320,180,137901,1,8
324,184,138333,5,2
296,192,153875,5,8
368,160,154091,1,8
144,160,154306,5,8
216,192,154522,1,8
256,328,154738,5,8
256,256,154954,1,8
296,116,155170,5,8
216,116,155386,1,8
256,212,155602,5,4
276,220,155709,1,0
296,228,155817,1,2
380,256,156033,2,0,B|432:264|452:308,1,90,8|0
372,344,156465,2,0,B|336:296|332:232|352:168,1,180,2|8
392,92,157113,2,0,B|360:128|308:120,1,90,0|2
220,108,157544,1,0
200,96,157652,1,0
180,84,157760,1,8
100,44,157976,6,0,B|72:88|84:132,1,90,0|2
144,244,158408,2,0,B|172:204|156:144,1,90,0|2
108,28,158839,2,2,B|148:56|208:40,1,90,0|2
284,36,159271,1,2
308,36,159379,1,0
332,40,159487,1,8
296,124,159703,1,0
208,140,159919,6,0,B|152:152|152:152|108:164|96:216,2,135,2|2|2
176,224,160782,1,0
180,228,160890,1,8
220,308,161106,1,0
224,304,161214,1,8
276,228,161430,1,0
364,212,161646,1,0
352,124,161861,1,0
264,136,162077,1,8
252,48,162293,1,0
256,192,162401,12,0,163372
312,192,163804,5,8
256,120,164020,1,0
200,192,164236,1,2
196,196,164344,1,8
176,284,164560,1,0
180,280,164668,1,8
104,228,164883,2,0,B|80:184|96:136,1,90,0|2
84,52,165315,2,0,B|108:96|92:144,1,90,0|8
24,200,165747,1,0
24,292,165963,2,0,B|68:268|116:284,1,90
184,336,166394,2,0,B|228:360|276:344,1,90,8|0
360,320,166826,1,0
432,264,167042,5,0
436,260,167150,1,2
348,236,167366,1,0
344,232,167474,1,2
292,160,167690,2,0,B|256:136|256:136|204:136,1,90
96,112,168121,2,0,B|132:136|132:136|184:136,1,90,8|2
242,72,168553,2,0,B|280:48,2,45,2|0|0
180,136,168985,1,8
156,224,169201,1,0
168,312,169416,5,4
84,280,169632,2,0,B|40:296,2,45,0|0|8
156,224,170064,1,0
240,260,170280,6,0,B|284:288|336:252,1,90,2|0
476,208,170712,6,0,B|432:180|380:216,1,90,8|0
300,12,171143,6,0,B|256:104|324:188,1,180,0|8
392,236,171791,2,0,B|388:340,1,90,0|2
300,300,172223,1,0
300,300,172331,1,0
300,300,172439,1,8
228,248,172654,1,0
216,336,172870,6,0,B|164:316|120:352,1,90,4|0
116,352,173194,2,0,B|72:336,1,45,0|8
116,256,173518,1,0
168,180,173734,6,0,B|200:112|140:48,1,135,2|0
152,40,174165,2,0,B|192:8|244:32,1,90,8|0
400,192,174597,6,0,B|424:48,1,135,2|0
408,48,175029,2,0,B|368:80|316:56,1,90,8|0
256,108,175461,6,0,B|220:208|288:284,2,180,8|8|4
352,120,176540,1,0
352,120,176648,1,0
352,120,176756,1,8
408,48,176972,1,0
320,44,177187,5,2
428,160,177511,2,0,B|420:224,1,45,0|8
352,264,177835,1,0
436,300,178051,5,2
300,192,178375,2,0,B|248:196,1,45,0|8
164,212,178698,1,0
190,132,178914,6,0,B|168:88|196:44,1,90,2|0
352,264,179346,2,0,B|374:308|346:352,1,90,8|0
272,300,179778,5,4
180,300,179994,2,0,B|136:344,2,45,0|0|8
164,212,180425,1,0
256,212,180641,6,0,B|300:152|392:184,1,135,2|0
384,188,181073,2,0,B|392:92,1,90,8|0
220,96,181505,6,0,B|176:156|84:124,1,135,2|0
92,120,181936,2,0,B|84:216,1,90,8|0
96,300,182368,5,2
256,212,182800,1,4
256,192,183016,12,2,186685
