osu file format v9

[General]
AudioFilename: Come Back Home.mp3
AudioLeadIn: 0
PreviewTime: 76292
Countdown: 0
SampleSet: Normal
StackLeniency: 0.6
Mode: 0
LetterboxInBreaks: 0

[Editor]
Bookmarks: 30933,46294,107732
DistanceSpacing: 0.8
BeatDivisor: 4
GridSize: 4

[Metadata]
Title:Come Back Home
Artist:Two Door Cinema Club
Creator:narakucrimson
Version:Insane
Source:
Tags:kitsune records tdcc tourist history indie electronic indietronic indie-rock Backfire HeatKai Krisom Odaril

[Difficulty]
HPDrainRate:8
CircleSize:4
OverallDifficulty:7
ApproachRate:8
SliderMultiplier:2.4
SliderTickRate:2

[Events]
//Background and Video events
0,0,"background.jpg"
Video,15000,"TWO DOOR CINEMA CLUB - COME BACK HOME.avi"
//Break Periods
2,107940,114670
2,154020,161710
//Storyboard Layer 0 (Background)
//Storyboard Layer 1 (Fail)
//Storyboard Layer 2 (Pass)
//Storyboard Layer 3 (Foreground)
//Storyboard Sound Samples
//Background Colour Transformations
3,100,163,162,255

[TimingPoints]
220,480,4,1,0,100,1,0
31053,-100,4,2,1,100,0,0
32793,-100,4,1,0,100,0,0
32913,-100,4,2,1,100,0,0
34713,-100,4,1,0,100,0,0
34833,-100,4,2,1,100,0,0
36633,-100,4,1,0,100,0,0
36753,-100,4,2,1,100,0,0
38553,-100,4,1,0,100,0,0
38673,-100,4,2,1,100,0,0
40473,-100,4,1,0,100,0,0
40593,-100,4,2,1,100,0,0
42393,-100,4,1,0,100,0,0
42513,-100,4,2,1,100,0,0
44313,-100,4,1,0,100,0,0
44433,-100,4,2,1,100,0,0
46174,-100,4,1,0,100,0,0
46414,-111.111111111111,4,2,2,100,0,0
61773,-100,4,2,2,100,0,0
75214,-100,4,2,1,40,0,0
75454,-100,4,2,1,50,0,0
75694,-100,4,2,1,60,0,0
75934,-100,4,2,1,70,0,0
76174,-100,4,2,1,80,0,0
76414,-100,4,2,1,90,0,0
76894,-100,4,2,1,100,0,0
77020,-100,4,1,0,100,0,1
77254,-95.2380952380952,4,2,1,100,0,1
92380,-95.2380952380952,4,2,1,100,0,0
92492,-100,4,2,1,100,0,0
94232,-100,4,1,0,100,0,0
94352,-100,4,2,1,100,0,0
96152,-100,4,1,0,100,0,0
96272,-100,4,2,1,100,0,0
98072,-100,4,1,0,100,0,0
98192,-100,4,2,1,100,0,0
99992,-100,4,1,0,100,0,0
100112,-100,4,2,1,100,0,0
101912,-100,4,1,0,100,0,0
102032,-100,4,2,1,100,0,0
103832,-100,4,1,0,100,0,0
103952,-100,4,2,1,100,0,0
105752,-100,4,1,0,100,0,0
105872,-100,4,2,1,100,0,0
107672,-100,4,1,0,100,0,0
107792,-111.111111111111,4,2,2,100,0,0
123212,-100,4,2,2,100,0,0
136652,-100,4,1,0,40,0,0
136892,-100,4,1,0,50,0,0
137132,-100,4,1,0,60,0,0
137372,-100,4,1,0,70,0,0
137612,-100,4,1,0,80,0,0
137852,-100,4,1,0,90,0,0
138460,-100,4,1,0,100,0,1
138572,-95.2380952380952,4,2,1,100,0,1
153820,-95.2380952380952,4,2,1,100,0,0
162392,-95.2380952380952,4,2,1,80,0,0
162752,-95.2380952380952,4,2,1,60,0,0
162872,-95.2380952380952,4,2,1,80,0,0
164672,-95.2380952380952,4,2,1,60,0,0
164792,-95.2380952380952,4,2,1,80,0,0
166592,-95.2380952380952,4,2,1,60,0,0
166712,-95.2380952380952,4,2,1,80,0,0
168212,-111.111111111111,4,2,1,80,0,0
169172,-133.333333333333,4,2,1,70,0,0
180572,-133.333333333333,4,2,1,30,0,0
180812,-133.333333333333,4,2,1,40,0,0
181052,-133.333333333333,4,2,1,50,0,0
181292,-133.333333333333,4,2,1,60,0,0
181532,-133.333333333333,4,2,1,70,0,0
181772,-133.333333333333,4,2,1,80,0,0
182012,-133.333333333333,4,2,1,90,0,0
182252,-133.333333333333,4,2,1,100,0,0
182492,-133.333333333333,4,2,1,70,0,0
184540,-95.2380952380952,4,1,0,100,0,1
184652,-95.2380952380952,4,2,1,100,0,1
199900,-95.2380952380952,4,1,0,100,0,0

[Colours]
Combo1 : 253,57,0
Combo2 : 255,134,0
Combo3 : 253,221,0
SliderBorder : 63,63,63

[HitObjects]
432,336,30940,2,4,B|408:352|376:364|344:352|320:336,1,120,4|2
192,336,31420,2,4,B|168:352|136:364|104:352|80:336,1,120,8|2
160,248,31900,2,0,B|208:212,1,60,0|2
256,292,32260,1,2
304,212,32500,2,0,B|352:248,1,60,0|2
300,144,32860,6,0,B|304:108|316:72|316:72|296:32,1,120,4|2
212,144,33340,2,0,B|208:108|196:72|196:72|216:32,1,120,8|2
116,148,33820,2,0,B|124:180|128:212,1,60,0|2
100,320,34180,1,2
12,240,34420,2,0,B|4:208|0:176,1,60,0|2
80,268,34780,6,0,B|116:284|156:276|156:276|200:268,1,120,4|2
312,268,35260,2,0,B|280:152,1,120,8|2
396,148,35740,2,0,B|388:180|384:212,1,60,0|2
412,320,36100,1,2
500,240,36340,2,0,B|508:208|512:176,1,60,0|2
432,268,36700,6,0,B|396:284|356:276|356:276|312:268,1,120,4|2
200,268,37180,2,0,B|232:152,1,120,8|2
324,92,37660,2,0,B|348:112|348:144,1,60,0|2
256,220,38020,1,2
163,144,38260,2,0,B|163:112|188:92,1,60,0|2
300,16,38620,6,0,B|276:24|256:56|256:56|236:24|212:16,1,120,4|0
76,24,39100,2,0,B|52:140,1,120,8|2
56,272,39580,2,0,B|96:228,1,60,0|2
216,212,39940,1,2
196,332,40180,2,0,B|256:324,1,60,0|2
368,240,40540,6,0,B|336:184|352:124,1,120,4|2
436,23,41020,2,0,B|460:141,1,120,8|2
456,272,41500,2,0,B|416:228,1,60,0|2
296,212,41860,1,2
316,332,42100,2,0,B|256:324,1,60,0|2
136,272,42460,6,0,B|128:204|180:168,1,120,4|2
331,167,42940,2,0,B|384:204|376:272,1,120,8|2
256,304,43420,1,0
256,256,43540,2,0,B|280:224|256:200|232:176|256:144,1,120,2|2
256,12,44020,2,0,B|256:72,1,60,0|2
332,180,44380,6,4,B|348:156|360:124|348:92|332:68,1,120,4|2
180,67,44860,2,4,B|164:92|152:124|164:156|180:180,1,120,8|2
340,276,45340,2,0,B|292:240,1,60,0|2
172,276,45700,2,0,B|220:240,1,60,8|8
256,132,46060,1,2
256,312,46300,1,4
256,320,46780,5,8
76,204,47260,2,0,B|52:312,1,107.999994850159,2|0
48,320,47620,1,8
196,220,47980,1,0
280,304,48220,2,0,B|324:340|380:340,2,107.999994850159,2|8|8
276,184,48940,1,0
364,264,49180,2,0,B|408:268|436:232|436:232|464:196|504:200,2,161.999992275238,2|8|0
256,216,50140,1,2
168,296,50380,5,8
256,376,50620,1,8
344,296,50860,1,0
312,180,51100,2,0,B|292:148|292:148|232:140|188:84,2,161.999992275238,2|8|0
200,180,52060,2,0,B|220:148|220:148|280:140|324:84,2,161.999992275238,2|2|0
164,76,53020,1,2
256,228,53380,1,8
348,76,53740,1,8
352,88,53860,1,0
356,100,53980,1,0
428,192,54220,6,0,B|486:177|502:121,2,107.999994850159,8|8|0
312,164,54940,2,0,B|228:184|216:280,1,161.999992275238,2|8
212,288,55420,2,0,B|180:336|120:332,1,107.999994850159,0|8
16,260,55900,1,2
144,260,56140,1,8
40,332,56380,1,8
80,212,56620,1,0
120,332,56860,2,0,B|168:336|200:312|200:312|232:336|276:332,1,161.999992275238,2|8
284,328,57340,1,0
368,244,57580,1,0
316,136,57820,6,0,B|264:116|208:124,1,107.999994850159,2|8
196,248,58300,2,0,B|248:268|304:260,1,107.999994850159,8|0
392,164,58780,2,0,B|336:152|284:168,1,107.999994850159,2|8
120,220,59260,2,0,B|176:232|228:216,1,107.999994850159,8|0
356,120,59740,1,2
256,56,59980,1,8
156,120,60220,1,8
308,192,60460,1,0
204,192,60700,1,2
324,324,61060,5,8
320,332,61180,1,0
316,340,61300,1,0
312,348,61420,2,0,B|204:348,1,107.999994850159,2|4
52,332,61900,5,8
40,200,62140,1,8
160,256,62380,1,0
256,168,62620,2,0,B|296:212|364:208,1,120,2|0
380,208,62980,1,8
396,212,63100,2,0,B|448:240|448:240|456:300,1,120
344,356,63580,6,0,B|328:296|256:252|184:296|168:356,1,240,4|8
164,156,64540,1,2
256,376,64900,1,8
348,156,65260,1,0
336,300,65500,6,0,B|292:276|292:228|292:228|292:196,1,120,4|8
176,300,65980,2,0,B|220:276|220:228|220:228|220:196,1,120,8|0
256,52,66460,1,2
388,212,66820,1,8
124,212,67180,1,0
324,132,67420,5,2
256,232,67660,1,8
188,132,67900,1,8
256,232,68140,1,0
324,132,68380,1,2
256,336,68740,1,8
408,236,69100,1,8
388,248,69220,1,0
368,260,69340,1,4
292,152,69580,6,0,B|228:136|200:80,1,120,8|8
311,80,70060,2,0,B|284:136|220:152,1,120,0|2
104,236,70540,1,0
124,248,70660,1,8
144,260,70780,1,0
264,316,71020,2,0,B|284:252|348:240,1,120,0|4
456,164,71500,5,8
412,288,71740,1,8
372,164,71980,1,0
476,244,72220,1,2
300,332,72580,1,8
276,336,72700,2,0,B|240:280|276:224,1,120
408,140,73180,6,0,B|368:168|332:160|332:160|292:152,1,120,4|8
104,140,73660,2,0,B|144:168|180:160|180:160|218:152,1,120,8|0
340,60,74140,2,0,B|292:52|256:84|256:84|220:52|172:60,2,180,2|8|0
424,108,75100,1,2
440,208,75340,5,8
356,276,75580,1,8
256,204,75820,1,8
156,276,76060,1,8
340,144,76300,1,8
256,276,76540,1,8
172,144,76780,1,8
256,348,77020,1,4
424,136,77500,6,0,B|392:160|392:216|412:240|436:244|460:248|480:272|480:328|448:352,1,251.999999248981,8|8
308,352,78220,2,0,B|276:292|304:232,1,125.999999624491,0|8
256,128,78700,1,0
207,230,78940,2,0,B|236:292|204:352,1,125.999999624491,8|0
64,348,79420,2,0,B|120:320|120:320|140:260,1,125.999999624491,8|0
156,120,79900,2,0,B|100:148|100:148|80:208,1,125.999999624491,8|0
256,212,80380,2,0,B|312:183,2,62.9999998122454,8|0|0
256,332,80860,1,4
144,156,81340,6,0,B|256:212,1,125.999999624491,8|0
320,88,81820,2,0,B|207:31,1,125.999999624491,8|0
80,84,82300,2,0,B|48:136|48:136|48:204,1,125.999999624491,8|2
112,336,82780,2,0,B|128:288|184:288|184:288|216:288,1,125.999999624491,8|2
400,336,83260,2,0,B|384:288|328:288|328:288|296:288,1,125.999999624491,8|2
112,168,83740,2,0,B|128:216|184:216|184:216|216:216,1,125.999999624491,8|2
400,168,84220,2,0,B|384:216|328:216|328:216|296:216,1,125.999999624491,8|2
176,116,84700,6,0,B|180:72|200:36|256:4|312:36|332:72|336:116,1,251.999999248981,4|8
336,256,85420,2,0,B|272:236|256:168,1,125.999999624491,0|8
152,76,85900,2,0,B|88:96|72:164,1,125.999999624491,0|8
176,256,86380,2,0,B|240:236|256:168,1,125.999999624491,0|8
360,76,86860,2,0,B|424:96|440:164,2,125.999999624491,0|8|0
196,132,87580,2,0,B|256:164|316:132,1,125.999999624491,8|0
316,132,88060,1,8
163,307,88540,6,0,B|200:267|228:191|200:115|164:76,1,251.999999248981,4|8
29,130,89260,2,0,B|13:153|-2:189|13:225|28:248,1,125.999999624491,0|8
484,248,89980,2,0,B|498:225|514:189|498:153|482:129,1,125.999999624491,8|0
348,76,90460,2,0,B|312:115|284:191|312:267|348:307,1,251.999999248981,4|8
256,360,91180,1,0
256,360,91420,1,8
160,260,91660,5,0
184,232,91780,1,8
216,212,91900,1,8
256,204,92020,1,0
292,212,92140,1,2
328,232,92260,1,8
352,260,92380,1,4
256,96,92860,5,8
88,268,93340,2,0,B|30:284,1,60,0|2
0,192,93700,1,2
30,99,93940,2,0,B|88:116,1,60,0|2
200,208,94300,6,4,B|224:224|256:236|288:224|312:208,1,120,4|2
312,76,94780,2,4,B|288:60|256:48|224:60|200:76,1,120,8|2
148,196,95260,2,0,B|196:152|256:136|316:152|364:196,2,240,8|8|4
200,316,96460,6,4,B|224:332|256:344|288:332|312:316,1,120,2|8
328,192,96940,1,2
424,268,97180,2,0,B|481:284,1,60,0|2
512,192,97540,1,2
481,99,97780,2,0,B|424:116,1,60,0|2
328,192,98140,5,4
256,80,98380,1,2
184,192,98620,1,8
256,80,98860,1,2
328,192,99100,2,0,B|352:252|404:284|404:284|348:304|316:360,1,240,8|8
256,240,99820,1,2
196,360,100060,6,0,B|164:304|108:284|108:284|160:252|184:192,1,240,4|8
56,164,100780,1,2
128,56,101020,2,0,B|148:112,1,60,0|2
216,188,101380,1,2
256,96,101620,2,0,B|256:36,1,60,0|2
332,136,101980,6,0,B|368:188|368:248,1,120,4|2
312,368,102460,2,0,B|256:404|200:368,1,120,8|2
143,248,102940,2,0,B|144:188|180:136,1,120,8|2
140,12,103420,2,0,B|200:8|256:36|256:36|312:8|372:12,1,240,8|4
292,116,104140,6,0,B|232:136|200:188,1,120,2|8
312,188,104620,2,0,B|280:136|220:116,1,120,2|0
92,80,105100,1,2
56,208,105340,1,8
184,244,105580,1,2
220,116,105820,1,4
256,360,106300,5,8
292,116,106780,1,0
328,244,107020,1,2
328,244,107140,1,8
328,244,107260,1,0
420,80,107500,1,2
456,208,107740,1,4
488,64,115420,6,0,B|480:172,1,107.999994850159,0|8
468,288,115900,1,8
384,204,116140,1,0
392,84,116380,2,0,B|364:128|304:148|304:148|256:128,2,161.999992275238,2|8|0
304,28,117340,2,0,B|284:48|256:56|228:48|208:28,3,107.999994850159,2|8|8|0
120,84,118300,2,0,B|148:128|208:148|208:148|256:128,2,161.999992275238,2|8|0
24,160,119260,6,0,B|51:210|111:214,1,107.999994850159,2|8
220,268,119740,2,0,B|247:318|307:322,1,107.999994850159,8|0
428,316,120220,2,0,B|388:236|296:244,2,161.999992275238,2|8|0
444,204,121180,2,0,B|424:148|372:116,1,107.999994850159,2|8
256,140,121660,1,8
196,36,121900,1,0
316,36,122140,2,0,B|360:36|392:60|392:60|424:36|468:36,2,161.999992275238,2|8|0
296,40,122980,1,0
280,52,123100,1,4
200,152,123340,6,0,B|256:116|312:152,1,120,8|8
312,280,123820,2,0,B|256:316|200:280,1,120,0|2
256,380,124420,1,8
384,300,124780,1,0
256,216,125020,1,4
100,288,125260,6,0,B|156:184,1,120,8|8
108,60,125740,2,0,B|52:164,1,120,0|2
228,252,126340,2,0,B|232:192,1,60,8|0
296,76,126700,2,0,B|292:136,2,60,8|0|4
404,60,127180,6,0,B|460:164,1,120,8|8
448,296,127660,1,0
356,200,127900,1,2
256,372,128260,1,8
156,200,128620,1,0
156,332,128860,5,2
256,244,129100,1,8
356,332,129340,1,8
256,244,129580,1,0
156,332,129820,1,2
256,160,130180,5,8
256,160,130300,1,0
256,28,130540,1,8
256,40,130660,1,0
256,52,130780,1,4
344,148,131020,6,0,B|404:160|404:160|424:216,1,120,8|8
400,348,131500,1,0
340,232,131740,2,0,B|216:360,1,180,2|8
256,168,132460,1,0
172,232,132700,6,0,B|132:280|68:288,1,120,4|8
4,172,133180,2,0,B|44:124|108:116,1,120,8|0
200,24,133660,2,0,B|200:80|256:104|312:80|312:24,2,180,2|8|0
76,72,134620,6,0,B|108:156|172:216|256:244|340:216|404:156|436:72,2,480,4|2|2
4,184,136780,6,0,B|32:300,1,120
180,344,137260,2,0,B|168:224,1,120
344,224,137740,2,0,B|332:343,1,120
479,300,138220,2,0,B|508:184,1,120,0|4
292,92,138940,6,0,B|315:125|298:178|272:196|247:191|223:188|197:204|180:258|203:290,1,251.999999248981,8|8
308,292,139660,2,0,B|331:259|313:205|287:189|263:192|239:196|212:179|195:126|219:92,1,251.999999248981,2|0
348,32,140380,2,0,B|376:92|340:152,1,125.999999624491,8|0
428,260,140860,2,0,B|484:223|488:155,1,125.999999624491,8|0
368,88,141340,2,0,B|311:124|307:192,1,125.999999624491,8|0
428,124,141820,2,0,B|460:68,2,62.9999998122454,8|0|0
356,244,142300,6,0,B|324:308|256:332|188:308|156:244,1,251.999999248981,4|8
212,116,143020,2,0,B|316:188,1,125.999999624491,0|8
196,187,143500,2,0,B|300:116,2,125.999999624491,0|8|2
76,256,144220,2,0,B|200:272,1,125.999999624491,8|2
436,256,144700,2,0,B|312:272,1,125.999999624491,8|2
76,336,145180,2,0,B|200:352,1,125.999999624491,8|2
436,336,145660,2,0,B|312:352,1,125.999999624491,8|2
256,224,146140,1,4
356,96,146620,6,0,B|324:32|256:8|188:32|156:96,1,251.999999248981,8|8
224,220,147340,2,0,B|196:264|128:272|112:236|96:200|28:208|0:252,1,251.999999248981,2|0
96,352,148060,2,0,B|160:376|220:356,1,125.999999624491,8|0
416,352,148540,2,0,B|352:375|292:356,1,125.999999624491,8|0
288,220,149020,2,0,B|316:264|384:272|400:236|416:200|484:208|512:252,1,251.999999248981,8|8
440,64,149980,6,0,B|348:164|212:144,1,251.999999248981,4|8
100,64,150700,2,0,B|60:184,1,125.999999624491,0|8
60,183,151420,1,8
72,320,151660,2,0,B|160:220|300:240,1,251.999999248981,4|2
412,320,152380,2,0,B|452:200,1,125.999999624491,8|2
380,80,152860,1,8
308,160,153100,5,0
284,176,153220,1,8
256,184,153340,1,8
228,176,153460,1,8
204,164,153580,1,8
132,80,153820,1,4
176,340,162460,6,0,B|208:340|232:316,1,62.9999998122454,2|2
280,316,162700,2,0,B|304:340|336:340,1,62.9999998122454,0|4
256,192,163180,5,2
256,192,163420,1,0
256,192,163900,1,8
176,44,164380,6,0,B|208:44|232:68,1,62.9999998122454,2|2
280,68,164620,2,0,B|304:43|336:43,1,62.9999998122454,0|4
256,192,165100,1,2
132,152,165340,1,0
380,152,165820,1,8
336,340,166300,6,0,B|304:340|280:316,1,62.9999998122454,2|2
232,316,166540,2,0,B|207:340|175:340,1,62.9999998122454,0|4
256,192,167020,1,2
384,232,167260,1,0
128,232,167740,1,8
384,232,168220,1,2
160,300,168460,5,0
256,384,168700,1,8
352,300,168940,1,2
256,212,169180,5,0
256,48,169660,1,0
184,172,170140,1,0
328,172,170620,1,0
440,84,171100,2,0,B|476:172|440:260,1,179.999994635582
328,348,172060,2,0,B|292:260|328:172,1,179.999994635582
440,260,173020,5,2
328,348,173500,1,0
204,276,173980,2,0,B|148:216|184:132|256:108|328:132|364:216|308:276,2,359.999989271164
328,348,176380,1,0
256,220,176860,5,2
184,348,177340,1,0
132,212,177820,2,0,B|192:200|200:156|200:156|208:112|256:96|256:96|304:112|312:156|312:156|320:200|380:212,2,359.999989271164
48,216,179980,1,0
40,208,180100,1,0
36,196,180220,1,2
36,184,180340,1,2
40,172,180460,1,2
72,96,180700,5,10
72,96,180940,1,8
148,48,181180,1,8
148,48,181420,1,8
192,148,181660,1,8
192,148,181900,1,8
256,28,182140,1,8
256,28,182380,1,8
320,148,182620,1,4
256,104,184540,5,4
364,216,184780,1,0
352,212,184900,1,0
340,208,185020,1,8
148,216,185260,1,0
160,212,185380,1,0
172,208,185500,1,8
324,128,185740,5,0
256,248,185980,1,8
188,128,186220,1,2
64,192,186460,2,0,B|76:68,1,125.999999624491,8|2
208,32,186940,2,0,B|256:72|256:72|304:32,1,125.999999624491,8|2
443,66,187420,2,0,B|448:192,1,125.999999624491,8|2
256,172,187900,2,0,B|256:296,1,125.999999624491,8|0
136,352,188380,6,0,B|256:284|376:352,2,251.999999248981,4|8|8
24,272,189580,1,0
80,144,189820,1,8
184,236,190060,1,2
256,104,190300,5,8
328,236,190540,1,2
256,368,190780,1,8
184,236,191020,1,2
256,104,191260,1,8
328,236,191500,1,0
424,136,191740,1,8
468,188,191860,1,0
476,256,191980,1,0
376,352,192220,6,0,B|304:360|256:324|256:324|208:360|136:352,1,251.999999248981,4|8
64,232,192940,2,0,B|132:244|188:216,1,125.999999624491,0|8
256,96,193420,1,0
256,164,193540,1,0
256,232,193660,1,8
256,232,193900,1,2
448,232,194140,6,0,B|380:244|324:216,1,125.999999624491,8|2
220,308,194620,2,0,B|344:332,1,125.999999624491,8|2
464,260,195100,2,0,B|448:136,1,125.999999624491,8|2
336,56,195580,1,8
256,168,195820,1,0
176,56,196060,6,0,B|116:92|116:92|48:132|48:200|76:248,1,251.999999248981,4|8
200,268,196780,2,0,B|196:232|172:200|172:200|192:152,1,125.999999624491,0|8
336,56,197500,1,8
336,56,197740,6,0,B|396:92|396:92|464:132|464:200|436:248,1,251.999999248981,4|2
312,268,198460,2,0,B|316:232|340:200|340:200|320:152,2,125.999999624491,8|2|2
288,292,199060,5,8
256,300,199180,1,8
224,292,199300,1,8
200,268,199420,1,8
188,236,199540,1,0
200,204,199660,1,0
224,180,199780,1,0
256,168,199900,1,4
256,168,200380,5,4
