osu file format v13

[General]
AudioFilename: Tv.mp3
AudioLeadIn: 0
PreviewTime: 52547
Countdown: 0
SampleSet: Normal
StackLeniency: 0.7
Mode: 1
LetterboxInBreaks: 0
WidescreenStoryboard: 0

[Editor]
DistanceSpacing: 2
BeatDivisor: 2
GridSize: 4
TimelineZoom: 2.1

[Metadata]
Title:Twintails Dreamer!
TitleUnicode:ツインテール・ドリーマー!
Artist:Twintails
ArtistUnicode:Twintails
Creator:Soldsaga KunG
Version:Kantan
Source:俺、ツインテールになります。
Tags:Ore Twintails ni Narimasu Twintail Sumire Uesaka Yuuka Aisaka Chinatsu Akasaki Ending stu00608 [I]MMoRTal[S]
BeatmapID:525663
BeatmapSetID:225260

[Difficulty]
HPDrainRate:4
CircleSize:4
OverallDifficulty:3
ApproachRate:9
SliderMultiplier:1.2
SliderTickRate:1

[Events]
//Background and Video events
0,0,"BG.jpg",0,0
//Break Periods
//Storyboard Layer 0 (Background)
//Storyboard Layer 1 (Fail)
//Storyboard Layer 2 (Pass)
//Storyboard Layer 3 (Foreground)
//Storyboard Sound Samples
//Background Colour Transformations
3,100,163,162,255

[TimingPoints]
1838,303.275374039628,4,1,0,60,1,0
22157,303.306035790112,4,1,0,60,1,0
31862,303.275374039628,4,1,0,60,1,0
41566,303.24471848782,4,1,0,60,1,0
48843,303.10684516292,4,1,0,60,1,0
49146,303.076223670253,4,1,0,60,1,0
49449,303.045608364059,4,1,0,60,1,0
49752,303.014999242463,4,1,0,60,1,0
50055,302.98439630359,4,1,0,60,1,0
50357,302.953799545569,4,1,0,60,1,0
50659,302.923208966527,4,1,0,60,1,0
50961,302.892624564592,4,1,0,60,1,0
51263,302.862046337893,4,1,0,60,1,0
51565,302.831474284561,4,1,0,60,1,0
51867,302.800908402725,4,1,0,60,1,0
52018,302.785627775535,4,1,0,60,1,0
52169,302.770348690518,4,1,0,60,1,0
52320,302.755071147442,4,1,0,60,1,0
53531,303.275374039628,4,1,0,80,1,0
53531,-100,4,1,0,80,0,1
68088,303.24471848782,4,1,0,80,1,1
72939,298.74526986656,4,1,0,60,1,1
74880,303.275374039628,4,1,0,80,1,1
75334,304.568527918782,4,1,0,80,1,1
76704,-100,4,1,0,80,0,0
78988,303.275374039628,4,1,0,60,1,0
86614,301.750150875075,4,1,0,50,1,0

[HitObjects]
256,192,1838,5,8,0:0:0:0:
256,192,2292,1,0,0:0:0:0:
256,192,2596,1,4,0:0:0:0:
256,192,3809,1,4,0:0:0:0:
256,192,5022,1,4,0:0:0:0:
256,192,5780,1,4,0:0:0:0:
256,192,6235,1,4,0:0:0:0:
256,192,6690,1,8,0:0:0:0:
256,192,7448,1,12,0:0:0:0:
256,192,7903,1,8,0:0:0:0:
256,192,8510,1,0,0:0:0:0:
256,192,9116,1,8,0:0:0:0:
256,192,9723,1,0,0:0:0:0:
256,192,10329,1,8,0:0:0:0:
256,192,10936,1,8,0:0:0:0:
256,192,11542,1,0,0:0:0:0:
256,192,11846,1,0,0:0:0:0:
256,192,12301,1,12,0:0:0:0:
256,192,12755,1,8,0:0:0:0:
256,192,13362,1,8,0:0:0:0:
256,192,13665,1,0,0:0:0:0:
256,192,13969,1,8,0:0:0:0:
256,192,14575,1,8,0:0:0:0:
256,192,14878,1,0,0:0:0:0:
256,192,15182,1,8,0:0:0:0:
256,192,15788,1,8,0:0:0:0:
256,192,16395,1,8,0:0:0:0:
256,192,16698,1,8,0:0:0:0:
256,192,17001,1,0,0:0:0:0:
256,192,17608,1,0,0:0:0:0:
256,192,17911,1,8,0:0:0:0:
256,192,18214,1,0,0:0:0:0:
256,192,18821,1,8,0:0:0:0:
256,192,19427,1,0,0:0:0:0:
256,192,20034,1,8,0:0:0:0:
256,192,20641,1,8,0:0:0:0:
256,192,20944,1,8,0:0:0:0:
256,192,21247,1,0,0:0:0:0:
256,192,21550,1,0,0:0:0:0:
256,192,22157,1,4,0:0:0:0:
256,192,22763,1,8,0:0:0:0:
256,192,23370,1,0,0:0:0:0:
256,192,23976,1,8,0:0:0:0:
256,192,24280,1,0,0:0:0:0:
256,192,24583,1,0,0:0:0:0:
256,192,25190,1,8,0:0:0:0:
256,192,25796,1,0,0:0:0:0:
256,192,26403,1,8,0:0:0:0:
256,192,26706,1,8,0:0:0:0:
256,192,27009,1,0,0:0:0:0:
256,192,27616,1,8,0:0:0:0:
256,192,28223,1,0,0:0:0:0:
256,192,28829,1,8,0:0:0:0:
256,192,29133,1,0,0:0:0:0:
256,192,29436,1,0,0:0:0:0:
256,192,30042,1,0,0:0:0:0:
256,192,30497,1,0,0:0:0:0:
256,192,30952,1,8,0:0:0:0:
256,192,31256,1,8,0:0:0:0:
256,192,31559,1,0,0:0:0:0:
256,192,31862,1,4,0:0:0:0:
256,192,32165,1,8,0:0:0:0:
256,192,32771,1,8,0:0:0:0:
256,192,33075,1,0,0:0:0:0:
256,192,33378,1,0,0:0:0:0:
256,192,33984,1,8,0:0:0:0:
256,192,34288,1,0,0:0:0:0:
256,192,34591,1,8,0:0:0:0:
256,192,35198,1,0,0:0:0:0:
256,192,35804,1,8,0:0:0:0:
256,192,36411,1,8,0:0:0:0:
256,192,36714,1,0,0:0:0:0:
256,192,37017,1,8,0:0:0:0:
256,192,37624,1,8,0:0:0:0:
256,192,38230,1,0,0:0:0:0:
256,192,38534,1,8,0:0:0:0:
256,192,38837,1,8,0:0:0:0:
256,192,39140,1,0,0:0:0:0:
256,192,39747,1,8,0:0:0:0:
256,192,40050,1,0,0:0:0:0:
256,192,40353,1,0,0:0:0:0:
256,192,40960,1,8,0:0:0:0:
256,192,41566,1,4,0:0:0:0:
256,192,42172,1,8,0:0:0:0:
256,192,42778,1,0,0:0:0:0:
256,192,43688,1,8,0:0:0:0:
256,192,43991,1,8,0:0:0:0:
256,192,44598,1,0,0:0:0:0:
256,192,45204,1,8,0:0:0:0:
256,192,46417,1,8,0:0:0:0:
256,192,47024,1,0,0:0:0:0:
256,192,47630,1,8,0:0:0:0:
256,192,48237,1,8,0:0:0:0:
256,192,48843,1,4,0:0:0:0:
256,192,49449,1,8,0:0:0:0:
256,192,50055,1,8,0:0:0:0:
256,192,50659,1,8,0:0:0:0:
256,192,50961,1,8,0:0:0:0:
256,192,51263,1,8,0:0:0:0:
256,192,51867,1,8,0:0:0:0:
256,192,52320,1,12,0:0:0:0:
256,192,53531,1,4,0:0:0:0:
256,192,53985,1,8,0:0:0:0:
256,192,54592,1,8,0:0:0:0:
256,192,55199,1,0,0:0:0:0:
256,192,55805,1,8,0:0:0:0:
256,192,56412,1,8,0:0:0:0:
256,192,56715,1,0,0:0:0:0:
256,192,57018,1,8,0:0:0:0:
256,192,57625,1,8,0:0:0:0:
256,192,58231,1,0,0:0:0:0:
256,192,58838,1,8,0:0:0:0:
256,192,59141,1,0,0:0:0:0:
256,192,59444,1,8,0:0:0:0:
256,192,60051,1,8,0:0:0:0:
256,192,60657,1,8,0:0:0:0:
256,192,60961,1,4,0:0:0:0:
256,192,61416,1,8,0:0:0:0:
256,192,61719,1,0,0:0:0:0:
256,192,62022,1,4,0:0:0:0:
256,192,62477,1,8,0:0:0:0:
256,192,63235,1,4,0:0:0:0:
256,192,63690,1,8,0:0:0:0:
256,192,64297,1,0,0:0:0:0:
256,192,64903,1,8,0:0:0:0:
256,192,65510,1,0,0:0:0:0:
256,192,66116,1,8,0:0:0:0:
256,192,66420,1,8,0:0:0:0:
256,192,66723,1,0,0:0:0:0:
256,192,67330,1,8,0:0:0:0:
256,192,67936,1,0,0:0:0:0:
256,192,68239,1,8,0:0:0:0:
256,192,68542,1,0,0:0:0:0:
256,192,69149,1,8,0:0:0:0:
256,192,69755,1,0,0:0:0:0:
256,192,70059,1,8,0:0:0:0:
256,192,70362,1,0,0:0:0:0:
256,192,70968,1,8,0:0:0:0:
256,192,71575,1,8,0:0:0:0:
256,192,71878,1,8,0:0:0:0:
256,192,72181,1,0,0:0:0:0:
256,192,72485,1,0,0:0:0:0:
256,192,72939,1,4,0:0:0:0:
256,192,73387,1,8,0:0:0:0:
256,192,73984,1,8,0:0:0:0:
256,192,74582,1,8,0:0:0:0:
256,192,74880,1,0,0:0:0:0:
256,192,75334,1,4,0:0:0:0:
256,192,75790,1,8,0:0:0:0:
256,192,76399,1,8,0:0:0:0:
256,192,76704,12,0,78684,0:0:0:0:
256,192,78988,5,4,0:0:0:0:
256,192,79442,1,8,0:0:0:0:
256,192,80049,1,8,0:0:0:0:
256,192,80656,1,8,0:0:0:0:
256,192,80959,1,0,0:0:0:0:
256,192,81262,1,8,0:0:0:0:
256,192,81869,1,8,0:0:0:0:
256,192,82475,1,0,0:0:0:0:
256,192,83082,1,8,0:0:0:0:
256,192,83688,1,8,0:0:0:0:
256,192,83992,1,8,0:0:0:0:
256,192,84446,1,8,0:0:0:0:
256,192,84901,1,8,0:0:0:0:
256,192,85356,12,0,86915,0:0:0:0:
