osu file format v13

[General]
AudioFilename: Tv.mp3
AudioLeadIn: 0
PreviewTime: 52698
Countdown: 0
SampleSet: Soft
StackLeniency: 0.7
Mode: 0
LetterboxInBreaks: 0
WidescreenStoryboard: 1

[Editor]
DistanceSpacing: 1.2
BeatDivisor: 2
GridSize: 4
TimelineZoom: 1

[Metadata]
Title:Twintails Dreamer!
TitleUnicode:ツインテール・ドリーマー!
Artist:Twintails
ArtistUnicode:Twintails
Creator:- N a n a k a -
Version:Easy
Source:俺、ツインテールになります。
Tags:Ore Twintails ni Narimasu Twintail Sumire Uesaka Yuuka Aisaka Chinatsu Akasaki Ending Nanaka Koreapenguin mercury2004
BeatmapID:526208
BeatmapSetID:223005

[Difficulty]
HPDrainRate:2
CircleSize:3
OverallDifficulty:3
ApproachRate:3
SliderMultiplier:0.9
SliderTickRate:1

[Events]
//Background and Video events
0,0,"bg.jpg",0,0
Video,-10,"tv.avi"
//Break Periods
//Storyboard Layer 0 (Background)
//Storyboard Layer 1 (Fail)
//Storyboard Layer 2 (Pass)
//Storyboard Layer 3 (Foreground)
//Storyboard Sound Samples
//Background Colour Transformations
3,100,0,0,0

[TimingPoints]
1838,303.275374039628,4,2,1,60,1,0
1838,-133.333333333333,4,2,1,60,0,0
7903,-100,4,2,1,70,0,0
12301,-100,4,2,1,80,0,1
12376,-100,4,2,1,80,0,0
22157,303.306035790112,4,2,1,60,1,0
22157,-100,4,2,1,60,0,0
31862,303.275374039628,4,2,1,60,1,0
31862,-100,4,2,1,70,0,0
41566,303.24471848782,4,2,1,60,1,0
41566,-100,4,2,1,60,0,0
48843,303.10684516292,4,2,1,60,1,0
49146,303.076223670253,4,2,1,60,1,0
49449,303.045608364059,4,2,1,60,1,0
49752,303.014999242463,4,2,1,60,1,0
50055,302.98439630359,4,2,1,60,1,0
50357,302.953799545569,4,2,1,60,1,0
50659,302.923208966527,4,2,1,60,1,0
50961,302.892624564592,4,2,1,60,1,0
51263,302.862046337893,4,2,1,60,1,0
51565,302.831474284561,4,2,1,60,1,0
51867,302.800908402725,4,2,1,60,1,0
52018,302.785627775535,4,2,1,60,1,0
52169,302.770348690518,4,2,1,60,1,0
52320,302.755071147442,4,2,1,60,1,0
53531,303.275374039628,4,2,1,80,1,0
53531,-100,4,2,1,80,0,1
63159,-100,4,2,1,80,0,0
63235,-100,4,2,1,80,0,1
68088,303.24471848782,4,2,1,80,1,1
72864,-100,4,2,1,80,0,0
72939,298.74526986656,4,2,1,60,1,0
72939,-100,4,2,1,80,0,1
74880,303.275374039628,4,2,1,80,1,1
75183,-100,4,2,1,80,0,0
75334,304.568527918782,4,2,1,80,1,1
76704,-100,4,2,1,80,0,0
78988,303.275374039628,4,2,1,60,1,0
78988,-100,4,2,1,80,0,1
79063,-100,4,2,1,80,0,0
85053,-100,4,2,1,5,0,0
86614,301.750150875075,4,2,1,50,1,0

[Colours]
Combo1 : 255,255,128
Combo2 : 253,134,94
Combo3 : 176,172,253

[HitObjects]
44,60,1838,6,0,P|44:116|136:156,1,168.750006437302,8|6,0:0|0:0,0:0:0:0:
444,52,3809,2,0,P|496:184|424:276,1,270.000010299683,6|6,0:0|0:0,0:0:0:0:
224,292,5780,6,0,L|120:292,2,101.250003862381,6|6|8,0:0|0:0|0:0,0:0:0:0:
292,244,6993,2,0,P|308:196|300:144,1,101.250003862381,8|6,0:0|0:0,0:0:0:0:
168,56,7903,6,0,L|260:48,1,90,8|8,0:0|0:0,0:0:0:0:
196,136,8510,2,0,L|104:144,1,90,8|8,0:0|0:0,0:0:0:0:
36,228,9116,1,8,0:0:0:0:
92,320,9419,2,0,P|140:328|220:296,1,135,8|6,0:0|0:0,0:0:0:0:
332,180,10329,6,0,P|376:176|420:200,1,90,8|8,0:0|0:0,0:0:0:0:
408,304,10936,2,0,P|364:308|320:284,1,90,8|8,0:0|0:0,0:0:0:0:
248,212,11542,1,8,0:0:0:0:
196,116,11846,2,0,P|136:96|76:132,1,135,8|6,0:0|0:0,0:0:0:0:
92,292,12755,6,0,P|192:288|248:212,1,180,8|8,0:0|0:0,0:0:0:0:
256,180,13514,2,0,P|280:140|372:136,1,135,2|8,0:0|0:0,0:0:0:0:
448,196,14272,2,0,L|456:296,1,90,2|8,0:0|0:0,0:0:0:0:
456,340,14727,6,0,P|388:352|324:332,1,135,2|8,0:0|0:0,0:0:0:0:
264,244,15485,2,0,L|264:152,1,90,2|8,0:0|0:0,0:0:0:0:
264,100,15940,2,0,P|212:64|136:76,1,135,2|8,0:0|0:0,0:0:0:0:
76,156,16698,2,0,P|68:208|72:252,1,90,2|8,0:0|0:0,0:0:0:0:
80,300,17153,6,0,P|136:284|200:320,1,135,6|8,0:0|0:0,0:0:0:0:
300,360,17911,2,0,L|396:348,1,90,2|8,0:0|0:0,0:0:0:0:
440,336,18366,2,0,P|456:296|428:204,1,135,2|8,0:0|0:0,0:0:0:0:
336,164,19124,2,0,P|280:152|260:128,1,90,2|8,0:0|0:0,0:0:0:0:
236,80,19579,6,0,P|200:68|112:100,1,135,2|8,0:0|0:0,0:0:0:0:
76,200,20337,2,0,P|84:248|112:280,1,90,2|8,0:0|0:0,0:0:0:0:
164,288,20792,2,0,L|304:288,1,135,2|8,0:0|0:0,0:0:0:0:
404,272,21550,2,0,P|424:212|384:108,1,180,2|6,0:0|0:0,0:0:0:0:
176,48,22763,6,0,P|96:64|8:28,1,180,2|2,0:0|0:0,0:0:0:0:
52,240,23976,2,0,P|132:224|220:260,1,180,2|2,0:0|0:0,0:0:0:0:
420,344,25190,6,0,P|448:292|452:172,1,180,2|2,0:0|0:0,0:0:0:0:
300,20,26403,2,0,P|272:72|268:192,1,180,2|2,0:0|0:0,0:0:0:0:
420,344,27616,6,0,L|240:340,1,180,2|2,0:0|0:0,0:0:0:0:
92,184,28829,2,0,P|108:116|208:72,1,180,2|2,0:0|0:0,0:0:0:0:
404,144,30042,2,0,L|400:192,1,45,2|8,0:0|0:0,0:0:0:0:
372,292,30497,6,0,P|320:288|252:148,1,225,6|2,0:0|0:0,0:0:0:0:
196,56,31559,2,0,L|104:52,1,90,8|6,0:0|0:0,0:0:0:0:
32,132,32165,6,0,P|36:224|108:276,1,180,8|8,0:0|0:0,0:0:0:0:
204,308,33075,1,0,0:0:0:0:
312,308,33378,2,0,P|396:284|432:192,1,180,8|8,0:0|0:0,0:0:0:0:
432,96,34288,5,2,0:0:0:0:
324,108,34591,2,0,P|272:116|156:68,1,180,8|8,0:0|0:0,0:0:0:0:
60,24,35501,1,0,0:0:0:0:
64,132,35804,2,0,L|112:312,1,180,8|8,0:0|0:0,0:0:0:0:
204,252,36714,5,2,0:0:0:0:
300,304,37017,2,0,L|346:130,1,180,8|8,0:0|0:0,0:0:0:0:
416,44,37927,1,0,0:0:0:0:
484,128,38230,2,0,P|504:216|488:304,1,180,8|8,0:0|0:0,0:0:0:0:
384,336,39140,6,0,L|156:344,1,225,2|2,0:0|0:0,0:0:0:0:
52,344,40202,2,0,P|88:252|64:132,1,225,6|0,0:0|0:0,0:0:0:0:
12,36,41263,1,8,0:0:0:0:
120,28,41566,6,0,L|312:36,1,180,6|8,0:0|0:0,0:0:0:0:
448,192,42778,2,0,L|256:184,1,180,2|8,0:0|0:0,0:0:0:0:
100,320,43991,2,0,L|292:328,1,180,2|8,0:0|0:0,0:0:0:0:
444,320,45053,6,0,P|436:256|264:216,1,270,8|2,0:0|0:0,0:0:0:0:
160,244,46266,2,0,P|120:184|124:124,1,135,2|0,0:0|0:0,0:0:0:0:
188,36,47024,2,0,P|272:8|364:28,1,180,8|2,0:0|0:0,0:0:0:0:
432,108,47934,2,0,L|480:188,3,90,2|8|8|6,0:0|0:0|0:0|0:0,0:0:0:0:
256,192,49146,12,8,52320,0:0:0:0:
72,76,53531,6,0,P|104:128|248:96,1,225,6|2,0:0|0:0,0:0:0:0:
328,32,54592,2,0,L|392:212,1,180,8|8,0:0|0:0,0:0:0:0:
420,304,55502,2,0,P|380:332|336:336,1,90,2|8,0:0|0:0,0:0:0:0:
288,320,55957,6,0,P|244:308|156:324,1,135,6|8,0:0|0:0,0:0:0:0:
52,344,56715,2,0,P|36:264|56:208,1,135,2|2,0:0|0:0,0:0:0:0:
132,72,57625,6,0,P|212:36|300:64,1,180,8|8,0:0|0:0,0:0:0:0:
336,100,58383,2,0,L|364:248,1,135,6|8,0:0|0:0,0:0:0:0:
336,336,59141,2,0,P|292:360|160:312,1,180,2|2,0:0|0:0,0:0:0:0:
112,240,60051,6,0,L|76:60,1,180,8|8,0:0|0:0,0:0:0:0:
184,76,60961,2,0,P|248:84|320:52,1,135,12|12,0:0|0:1,0:0:0:0:
416,24,61719,2,0,L|444:120,1,90,12|6,0:1|0:0,0:0:0:0:
444,276,62477,2,0,P|396:308|240:264,1,225,8|6,0:0|0:0,0:0:0:0:
348,144,63690,6,0,P|272:100|184:120,1,180,8|8,0:0|0:0,0:0:0:0:
148,156,64448,2,0,P|120:244|128:296,1,135,2|8,0:0|0:0,0:0:0:0:
220,340,65207,2,0,P|248:252|240:200,1,135,2|6,0:0|0:0,0:0:0:0:
152,76,66116,6,0,L|64:52,2,90,8|2|8,0:0|0:0|0:0,0:0:0:0:
204,88,66875,2,0,P|272:96|336:72,1,135,2|8,0:0|0:0,0:0:0:0:
428,20,67633,2,0,L|436:156,1,135,2|6,0:0|0:0,0:0:0:0:
404,312,68542,6,0,P|360:332|228:320,1,180,8|8,0:0|0:0,0:0:0:0:
140,264,69452,2,0,P|136:208|56:108,1,180,2|2,0:0|0:0,0:0:0:0:
120,20,70362,2,0,P|170:44|297:25,1,180,8|8,0:0|0:0,0:0:0:0:
400,28,71272,5,2,0:0:0:0:
352,124,71575,2,0,P|305:155|258:274,1,180,8|8,0:0|0:0,0:0:0:0:
304,364,72485,2,0,P|348:332|364:248,1,135,8|6,0:0|0:0,0:0:0:0:
288,116,73387,6,0,L|204:72,2,90,8|8|8,0:0|0:0|0:0,0:0:0:0:
196,172,74283,2,0,L|108:148,2,90,8|8|8,0:0|0:0|0:0,0:0:0:0:
84,284,75334,6,0,P|128:328|200:332,1,135,6|8,0:0|0:0,0:0:0:0:
280,264,76095,2,0,P|344:240|456:284,1,180,8|6,0:0|0:0,0:0:0:0:
256,192,76856,12,6,78988,0:0:0:0:
304,72,79442,6,0,P|236:60|140:112,1,180,8|8,0:0|0:0,0:0:0:0:
120,160,80201,2,0,L|120:296,1,135,2|8,0:0|0:0,0:0:0:0:
228,276,80959,2,0,P|292:268|360:288,1,135,2|2,0:0|0:0,0:0:0:0:
456,156,81869,6,0,P|440:72|356:40,1,180,8|8,0:0|0:0,0:0:0:0:
308,60,82627,2,0,P|252:72|176:56,1,135,2|8,0:0|0:0,0:0:0:0:
72,36,83385,2,0,L|68:128,1,90,2|8,0:0|0:0,0:0:0:0:
64,236,83992,6,0,P|128:236|188:276,2,135,8|8|8,0:0|0:0|0:0,0:0:0:0:
256,192,85053,12,8,86614,0:3:0:0:
