osu file format v6

[General]
AudioFilename: 05.mp3
AudioLeadIn: 0
PreviewTime: 57850
Countdown: 0
SampleSet: Soft
StackLeniency: 0.7
Mode: 0
LetterboxInBreaks: 1
SkinPreference:Default

[Editor]
Bookmarks: 134850,196350,199050,199750,202450
DistanceSpacing: 1.10000002384186
BeatDivisor: 4
GridSize: 8

[Metadata]
Title:Tearless Moscow
Artist:Twins
Creator:alvisto
Version:Tearless Moscow
Source:
Tags:Cantonese Cantopop Chinese

[Difficulty]
HPDrainRate:8
CircleSize:4
OverallDifficulty:7
SliderMultiplier:1.3
SliderTickRate:1

[Events]
//Background and Video events
0,0,"Untitled.jpg"
//Break Periods
2,119845,124346
//Storyboard Layer 0 (Background)
//Storyboard Layer 1 (Fail)
//Storyboard Layer 2 (Pass)
//Storyboard Layer 3 (Foreground)
//Storyboard Sound Samples
//Background Colour Transformations
3,100,163,162,255

[TimingPoints]
4446,400,4,2,2,61,1,0
15846,-100,4,2,2,49,0,0
16246,-100,4,2,0,27,0,0
16646,-100,4,2,0,17,0,0
17046,-100,4,2,2,61,0,0
22046,-200,4,2,2,61,0,0
22846,-200,4,2,0,21,0,0
23246,-100,4,2,2,61,0,0
33246,-200,4,2,2,61,0,0
33646,-100,4,2,2,0,0,0
33846,-100,4,2,2,61,0,0
34846,-200,4,2,2,61,0,0
35246,-200,4,2,2,39,0,0
35646,-100,4,2,2,61,0,0
38846,-200,4,2,2,61,0,0
39246,-100,4,2,2,14,0,0
39446,-100,4,2,2,61,0,0
40346,-100,4,2,2,50,0,0
41146,-100,4,2,2,39,0,0
41946,-100,4,2,2,61,0,0
52446,-200,4,2,2,61,0,0
52846,-100,4,2,2,61,0,0
55446,-200,4,2,0,40,0,0
57646,-100,4,2,0,41,0,0
57846,-100,4,2,0,61,0,0
59446,-100,4,2,2,61,0,0
61346,-100,4,2,2,39,0,0
61946,-100,4,2,2,61,0,0
67746,-100,4,2,2,41,0,0
68346,-100,4,2,2,61,0,0
90846,-200,4,2,0,61,0,0
91246,-100,4,2,0,61,0,0
92446,-200,4,2,0,61,0,0
92846,-100,4,1,0,32,0,0
93846,-100,4,2,1,61,0,0
106846,-100,4,2,0,41,0,0
107046,-100,4,2,1,61,0,0
109846,-200,4,2,0,51,0,0
110846,-100,4,2,1,61,0,0
112546,-100,4,2,1,40,0,0
113146,-100,4,2,1,61,0,0
115646,-200,4,2,0,61,0,0
116046,-100,4,2,1,61,0,0
118746,-200,4,2,1,47,0,0
119646,-100,4,1,1,61,0,0
119846,-100,4,2,1,61,0,0
129246,-200,4,2,0,61,0,0
129646,-100,4,2,1,61,0,0
137246,-200,4,1,1,33,0,0
137946,-100,4,1,1,34,0,0
139046,-100,4,2,1,61,0,0
141346,-100,4,2,1,41,0,0
141946,-100,4,2,1,61,0,0
150946,-100,4,1,0,46,0,0
151546,-100,4,2,1,61,0,0
156546,-100,4,2,1,41,0,0
157146,-100,4,2,1,61,0,0
164246,-100,4,2,1,69,0,0
190646,-100,4,2,1,49,0,0
191046,-100,4,2,1,37,0,0
191446,-100,4,2,1,24,0,0
192846,1600,4,2,2,61,1,0
194846,1066.66666666667,4,2,0,35,1,0
196046,-100,4,2,0,0,0,0

[Colours]
Combo1 : 228,228,228
Combo2 : 183,219,255
Combo3 : 215,215,215
Combo4 : 100,177,255

[HitObjects]
80,48,4446,1,2
56,192,4846,1,0
128,208,5046,1,0
200,184,5246,1,8
248,128,5446,1,0
264,56,5646,1,0
408,32,6046,5,2
440,96,6246,1,0
448,128,6346,1,0
448,160,6446,2,0,B|456:248|384:288,2,130,0|8|0
352,56,7646,5,2
168,64,8046,1,0
184,136,8246,1,0
232,192,8446,1,8
304,216,8646,1,0
376,208,8846,1,0
456,328,9246,5,2
456,328,9646,2,0,B|384:352|304:320,2,130,0|8|0
408,192,10846,5,2
376,32,11246,1,0
312,64,11446,1,0
264,120,11646,1,8
248,192,11846,1,0
264,264,12046,2,0,B|224:320|144:320,2,130,0|2|0
248,192,13046,5,0
248,160,13146,1,0
256,128,13246,2,0,B|243:79|270:32|327:28,2,130,8|0|2
184,256,14446,5,0
168,112,14846,1,8
328,256,15246,1,0
344,112,15646,1,2
216,320,16046,5,2
120,56,16446,1,4
296,320,16846,1,4
392,56,17246,6,0,B|440:56|480:88|472:144,2,130,2|0|4
256,104,18446,1,0
120,56,18846,2,0,B|72:56|32:88|40:144,1,130,2|0
96,256,19646,5,4
176,40,20046,1,0
256,344,20446,1,2
336,40,20846,1,0
416,256,21246,1,4
256,192,21646,1,0
256,192,22046,2,0,B|272:128|240:128|256:48,1,130,2|4
464,256,23646,5,2
328,288,24046,2,0,B|296:264|288:216,2,65,0|0|4
184,288,24846,2,0,B|216:264|224:216,2,65,0|0|2
48,256,25646,1,0
56,112,26046,5,4
152,344,26446,1,0
192,56,26846,2,0,B|264:33|343:66,1,130,2|0
360,344,27646,1,4
456,112,28046,1,0
320,64,28446,2,0,B|296:144|216:176,1,130,2|0
208,96,29046,2,0,B|176:120|152:160|168:200|192:232|224:240|264:232,1,195
384,192,30046,5,2
368,48,30446,1,0
256,288,30846,1,4
256,32,31246,1,0
128,192,31646,1,2
136,48,32046,1,0
72,80,32246,1,0
40,144,32446,1,4
32,216,32646,1,0
48,288,32846,5,0
48,288,33246,2,0,B|64:336|112:344,1,65,2|0
216,272,34046,1,4
280,144,34446,1,0
368,32,34846,2,0,B|432:40|464:104,1,97.5,2|0
136,264,36446,5,2
376,120,36846,1,0
104,192,37246,1,4
408,192,37646,1,0
136,120,38046,1,2
376,264,38446,1,0
256,104,38846,2,0,B|248:144|264:152|256:192,1,65,4|0
256,312,39646,5,2
184,328,39846,1,0
128,280,40046,1,0
56,256,40246,1,0
24,192,40446,1,2
56,128,40646,1,0
128,104,40846,1,0
184,56,41046,1,0
256,72,41246,1,2
328,56,41446,1,0
384,104,41646,1,0
456,128,41846,1,0
480,200,42046,6,0,B|480:256|440:304,2,97.5,4|0|0
456,128,42846,1,2
56,128,43246,1,0
408,192,43646,1,4
104,192,44046,1,0
344,232,44446,1,2
168,232,44846,1,2
256,256,45246,6,0,B|248:304|264:312|256:360,2,97.5,4|0|0
256,256,46046,1,2
376,176,46446,2,0,B|384:128|424:112,2,65,0|0|4
136,176,47246,2,0,B|128:128|88:112,2,65,0|0|2
256,256,48046,1,2
384,192,48446,6,0,B|408:136|376:80,2,97.5,4|0|0
344,248,49246,1,2
208,272,49646,1,0
144,296,49846,2,0,B|144:336|160:328|160:368,2,65,0|4|0
72,288,50446,5,0
136,160,50846,1,2
440,288,51246,1,0
376,160,51646,1,4
256,240,52046,1,0
256,96,52446,2,0,B|256:24,1,65,2|0
184,48,53046,1,0
128,96,53246,1,4
112,168,53446,1,0
56,216,53646,5,0
88,280,53846,1,0
88,280,54046,2,0,B|155:294|219:258,1,130,2|0
344,208,54846,1,4
344,208,55246,1,0
352,48,55646,2,0,B|312:80|296:120|288:176,1,130,2|0
160,48,56846,2,0,B|200:80|216:120|224:176,1,130,2|0
296,280,58046,5,0
360,248,58246,1,0
400,184,58446,1,0
392,112,58646,1,0
336,64,58846,2,0,B|264:48|192:64,2,130,4|2|8
448,152,60046,5,0
448,152,60446,2,0,B|472:200|472:240|448:280,1,130,2|2
450,276,61246,1,8
384,304,61446,1,2
312,320,61646,1,2
240,320,61846,1,2
168,304,62046,5,0
80,192,62446,1,0
64,120,62646,1,0
104,56,62846,2,0,B|176:42|255:61,2,130,8|0|2
208,152,64046,1,0
352,120,64446,6,0,B|416:104|427:28,2,97.5,8|0|0
352,120,65246,1,2
256,224,65646,1,0
160,120,66046,6,0,B|96:104|84:28,2,97.5,8|0|0
160,120,66846,1,2
256,224,67246,1,0
352,120,67646,1,8
424,136,67846,1,2
472,192,68046,5,2
472,192,68246,1,2
400,208,68446,2,0,B|352:224|352:248|296:264,1,97.5
316,256,69046,1,0
248,288,69246,2,0,B|184:320|104:328,2,130,8|0|0
352,192,70446,1,0
296,64,70846,5,8
224,48,71046,1,0
152,64,71246,1,0
96,112,71446,1,0
56,176,71646,2,0,B|32:240|56:320,2,130,2|2|8
152,64,72846,5,0
288,96,73246,1,0
408,168,73646,1,2
408,168,73846,1,0
408,168,74046,2,0,B|463:216|449:291,1,130,8|2
304,296,74846,6,0,B|255:310|200:292,2,97.5
368,264,75646,1,8
416,128,76046,2,0,B|424:72|376:40|320:48,1,130
200,56,76846,1,0
72,112,77246,5,8
64,256,77646,1,0
192,192,78046,2,0,B|256:177|335:194,1,130,2|0
448,256,78846,1,8
440,112,79246,1,0
320,40,79646,2,0,B|255:25|176:42,2,130,2|2|8
464,64,80846,5,0
360,304,81246,1,2
288,120,81646,1,0
216,232,82046,1,8
144,160,82446,1,0
72,192,82846,1,2
72,192,83246,2,0,B|48:232|48:288|72:320,2,130,2|8|0
192,112,84446,5,2
312,40,84846,1,0
360,96,85046,1,0
360,168,85246,1,8
328,232,85446,1,0
264,264,85646,1,0
128,216,86046,5,2
104,144,86246,1,0
72,160,86346,1,0
32,152,86446,2,0,B|24:64|96:24,2,130,0|8|0
176,168,87646,5,2
56,248,88046,1,0
104,304,88246,1,0
176,320,88446,1,8
248,312,88646,1,0
312,272,88846,6,0,B|352:208|432:192,2,130,0|2|0
312,272,90046,1,8
168,264,90446,1,0
48,192,90846,6,0,B|72:152|112:128,1,65,2|0
144,96,91446,1,0
208,64,91646,1,8
280,56,91846,1,0
352,64,92046,1,0
464,192,92446,6,0,B|440:232|400:256,1,65,2|0
368,288,93046,1,0
304,320,93246,1,0
232,328,93446,1,4
160,320,93646,1,4
56,216,94046,5,2
72,72,94446,2,0,B|120:72|160:96|176:144,1,130,0|8
216,272,95246,1,0
288,296,95446,1,0
360,296,95646,1,2
424,256,95846,1,0
456,192,96046,2,0,B|480:120|456:56,2,130,2|8|0
352,288,97246,5,2
296,40,97646,1,0
160,288,98046,1,8
216,40,98446,1,0
224,112,98646,1,0
232,184,98846,1,2
240,256,99046,1,0
248,328,99246,2,0,B|312:344|384:328,1,130,2|8
440,288,99846,1,0
480,224,100046,1,0
400,104,100446,5,2
256,80,100846,1,0
112,104,101246,1,8
40,232,101646,1,0
40,232,101846,1,0
40,232,102046,1,2
40,232,102246,1,0
40,232,102446,2,0,B|40:280|72:320|120:328,2,130,2|8|0
72,96,103646,6,0,B|128:56|216:56,1,130,2|0
194,56,104446,1,8
344,80,104846,1,0
344,152,105046,1,0
416,152,105246,1,2
376,216,105446,1,8
440,256,105646,2,0,B|440:304|416:328|384:352|336:352,1,130,2|8
288,328,106246,1,0
216,352,106446,2,0,B|168:352|144:328|120:296|120:248,1,130,0|4
40,40,107246,5,0
184,256,107646,1,8
224,128,108046,1,0
296,256,108446,1,2
336,128,108846,1,2
472,344,109246,1,8
400,352,109446,1,0
328,352,109646,5,0
256,232,110046,2,0,B|264:160|248:160|256:80,1,130,2|4
224,40,111046,1,0
152,32,111246,1,0
80,56,111446,1,0
32,112,111646,2,0,B|0:176|32:248,2,130,2|2|8
80,56,112646,1,2
152,32,112846,1,2
224,40,113046,1,2
296,32,113246,6,0,B|368:32|440:72,1,130,2|0
472,192,114046,1,8
384,304,114446,1,0
312,320,114646,1,0
248,288,114846,1,2
128,80,115246,1,2
200,64,115446,1,0
272,88,115646,2,0,B|312:120|352:128,1,65,8|0
472,144,116446,6,0,B|440:112|440:64,1,65,0|2
472,240,116846,2,0,B|440:272|440:320,1,65,0|2
360,192,117246,2,0,B|288:192,1,65,8|0
216,192,117646,2,0,B|144:192,1,65,0|2
40,144,118046,2,0,B|72:112|72:64,1,65,0|2
40,240,118446,2,0,B|72:272|72:320,1,65,0|2
256,160,118846,6,4,B|256:200|256:248,2,65
128,192,125246,6,0,B|104:136|136:80,2,97.5,8|0|0
192,232,126046,1,2
320,152,126446,1,0
384,192,126646,2,0,B|400:232|376:280,2,65,0|8|0
384,120,127246,5,0
208,224,127646,1,2
128,120,128046,1,0
304,224,128446,1,8
256,32,128846,1,0
256,296,129246,2,0,B|248:328|264:336|256:368,1,65,2|0
257,360,130046,1,8
392,328,130446,5,0
352,264,130646,1,0
336,192,130846,1,2
120,56,131246,1,0
160,120,131446,1,0
176,192,131646,1,8
256,312,132046,1,8
256,312,132246,1,8
256,208,132446,12,4,134846
256,328,135646,6,0,B|256:288,11,43.3333333333333
256,240,137246,2,0,B|256:128,1,97.5,0|10
216,80,138046,6,0,B|200:32|144:24,2,65,10|2|2
288,80,138646,1,2
288,80,138846,2,0,B|344:112|344:192,2,130,6|2|8
400,80,140046,5,0
424,152,140246,2,0,B|480:152,2,65,0|2|0
400,224,140846,2,0,B|416:272|400:328|368:360,1,130,2|8
304,352,141446,1,2
232,344,141646,1,2
160,352,141846,1,2
88,344,142046,6,0,B|48:288|56:208,1,130
64,152,142646,1,0
128,120,142846,1,8
256,192,143246,1,0
384,128,143646,1,2
456,152,143846,1,0
488,216,144046,1,0
376,304,144446,6,0,B|312:320|256:272,2,97.5,8|0|0
392,232,145246,1,2
256,192,145646,1,0
136,80,146046,6,0,B|200:64|256:112,2,97.5,8|0|0
120,152,146846,1,2
120,152,147246,2,0,B|96:216|120:288,1,130,2|8
256,328,148046,5,0
328,312,148246,1,0
392,272,148446,2,0,B|440:232|456:176|456:136,1,130,2|0
456,88,149046,1,0
384,80,149246,2,0,B|256:32|112:80,1,260,8|0
64,112,150246,1,8
24,176,150446,2,0,B|0:240|24:312,1,130,0|8
88,336,151046,5,0
128,272,151246,1,0
160,336,151446,1,0
200,272,151646,2,0,B|240:240|256:184|296:160,2,130,4|2|8
64,240,152846,5,0
112,104,153246,1,2
248,48,153646,1,2
248,48,153846,1,0
248,48,154046,2,0,B|296:32|344:32|400:72,1,130,8|2
456,168,154846,6,0,B|470:217|452:272,2,97.5
424,104,155646,1,8
296,32,156046,2,0,B|256:80|280:104|240:168,1,130,0|2
184,184,156646,1,2
120,224,156846,1,2
72,280,157046,1,2
48,352,157246,5,8
464,352,157646,1,0
144,296,158046,1,2
368,296,158446,1,0
176,192,158846,1,8
336,192,159246,1,0
352,120,159446,1,0
320,56,159646,1,2
256,32,159846,1,0
192,56,160046,2,0,B|152:80|144:128|152:176,1,130,2|8
48,64,160846,5,0
152,304,161246,1,2
224,120,161646,1,0
296,232,162046,1,8
368,160,162446,1,0
440,192,162846,1,2
440,192,163046,1,8
440,192,163246,2,0,B|464:232|464:288|440:320,2,130,2|8|0
296,152,164446,6,0,B|344:136|376:88,2,97.5,2|0|2
216,232,165246,2,0,B|168:248|136:296,2,97.5,2|0|2
256,176,166046,5,4
344,64,166446,1,0
472,128,166846,2,0,B|496:192|472:280,1,130,8|0
336,288,167646,1,0
336,288,167846,1,8
336,288,168046,2,0,B|263:309|184:282,2,130,0|8|0
440,192,169246,5,2
352,72,169646,1,0
72,192,170046,1,8
160,72,170446,1,0
224,48,170646,5,0
256,112,170846,1,0
256,184,171046,1,8
256,184,171246,2,0,B|256:320,1,130,0|8
392,328,172046,5,0
456,288,172246,1,0
464,216,172446,1,2
120,56,172846,1,0
56,96,173046,1,0
48,168,173246,2,0,B|40:240|72:296,2,130,8|0|0
112,144,174246,5,8
176,112,174446,2,0,B|232:72|320:80,2,130,0|8|0
88,224,175646,6,0,B|80:280|104:336,2,97.5,2|0|0
112,152,176446,1,8
256,128,176846,1,0
400,152,177246,2,0,B|440:176|448:224,2,65,2|8|0
256,128,178046,5,0
256,136,178146,1,0
256,144,178246,1,0
256,152,178346,1,0
256,160,178446,2,0,B|248:224|264:240|256:320,3,130,0|2|2|8
400,256,180046,5,0
448,200,180246,1,0
448,128,180446,1,2
400,72,180646,1,8
328,48,180846,1,2
256,56,181046,1,0
184,48,181246,2,0,B|96:56|64:144,1,130,8|0
80,256,182046,6,0,B|88:312|136:360,2,97.5,2|0|0
104,184,182846,1,8
192,72,183246,2,0,B|256:48|352:80,1,130
352,136,183846,1,8
320,200,184046,2,0,B|256:224|160:192,1,130,0|8
64,128,184846,5,0
176,40,185246,2,0,B|216:64|224:120|208:176,1,130,2|0
336,344,186046,2,0,B|296:320|288:264|304:208,1,130,8|0
328,160,186646,1,0
360,96,186846,1,0
296,64,187046,1,8
232,96,187246,2,0,B|160:120|80:88,1,130,0|8
64,232,188046,5,0
152,32,188446,1,2
232,336,188846,1,0
296,104,189246,1,8
368,272,189646,1,0
440,192,190046,1,2
440,192,190446,2,0,B|464:152|464:96|440:64,3,130,0|2|2|2
256,56,193246,5,4
256,128,194046,1,4
256,200,194846,2,0,B|248:240|264:256|256:288,1,81.25,0|4
256,208,196445,12,0,199112
256,208,199645,12,0,202579
