osu file format v7

[General]
AudioFilename: I really wanna love him.mp3
AudioLeadIn: 0
PreviewTime: 216960
Countdown: 0
SampleSet: Soft
StackLeniency: 0.7
Mode: 0
LetterboxInBreaks: 1

[Editor]
DistanceSpacing: 0.800000011920929
BeatDivisor: 4
GridSize: 8

[Metadata]
Title:I Really Wanna Love Him
Artist:Twins
Creator:alvisto
Version:Normal
Source:
Tags:

[Difficulty]
HPDrainRate:4
CircleSize:4
OverallDifficulty:4
SliderMultiplier:1
SliderTickRate:1

[Events]
//Background and Video events
0,0,"anime_autumn-772617.jpg"
//Break Periods
2,84372,91705
//Storyboard Layer 0 (Background)
//Storyboard Layer 1 (Fail)
//Storyboard Layer 2 (Pass)
//Storyboard Layer 3 (Foreground)
//Storyboard Sound Samples
//Background Colour Transformations
3,100,163,162,255

[TimingPoints]
7452,491.803278688525,4,2,0,49,1,0
51591,-100,4,2,0,50,0,0
51960,-100,4,2,1,61,0,0
67206,-100,4,2,0,51,0,0
67697,-100,4,2,1,69,0,0
83189,-100,4,2,1,34,0,0
83312,-100,4,2,1,63,0,0
83558,-100,4,2,1,53,0,0
83804,-100,4,2,1,44,0,0
84173,-100,4,2,1,27,0,0
92533,-100,4,2,1,14,0,0
94009,-100,4,2,1,24,0,0
94992,-100,4,1,0,31,0,0
95484,-100,4,2,1,51,0,0
128189,-100,4,1,0,51,0,0
129788,-200,4,1,0,50,0,0
130402,-100,4,2,0,61,0,0
130648,-100,4,2,2,60,0,0
145402,-100,4,1,0,51,0,0
146017,-100,4,2,0,60,0,0
146386,-100,4,2,2,59,0,0
160156,-100,4,2,2,35,0,0
160648,-100,4,2,2,49,0,0
161878,-200,4,2,0,52,0,0
162861,-200,4,2,0,33,0,0

[Colours]
Combo1 : 176,0,0
Combo2 : 0,102,102
Combo3 : 202,101,0
Combo4 : 0,187,47

[HitObjects]
88,96,16304,2,0,B|40:192|88:296,1,200,0|2
160,312,17779,2,0,B|160:360,2,50
240,296,18763,5,0
320,312,19255,2,0,B|432:336,1,100,2|0
472,272,20238,2,0,B|448:152,1,100
408,104,21222,1,2
328,80,21714,2,0,B|328:16,2,50
248,96,22697,5,0
168,120,23189,2,0,B|128:80|64:96,2,100,2|0|0
136,192,24665,1,0
168,264,25156,2,0,B|128:288,4,50,2|0|0|0|0
232,312,26632,5,0
312,288,27124,2,0,B|368:272|400:216,1,100,2|0
376,152,28107,2,0,B|336:104|272:112,2,100,0|0|2
360,272,29829,5,0
360,272,30074,2,0,B|256:304|144:264,1,200,0|2
136,192,31550,5,0
72,240,32042,2,0,B|24:152|56:32,1,200,0|2
128,32,33517,2,0,B|184:24|232:32,1,100
304,48,34501,5,0
384,40,34992,1,2
456,72,35484,2,0,B|488:32,2,50
480,144,36468,1,0
456,224,36960,5,2
456,224,37206,1,0
456,224,37452,1,0
456,224,37697,1,0
456,224,37943,6,0,B|336:250|239:219,1,200,0|2
176,216,39419,1,0
176,216,39665,1,0
176,216,39911,2,0,B|120:200|88:144,1,100
72,80,40894,2,0,B|24:40,4,50,2|0|0|0|0
144,48,42370,5,0
224,64,42861,1,2
296,104,43353,1,0
296,104,43599,1,0
296,104,43845,2,0,B|304:160|256:200|264:256,1,150
168,320,45320,5,0
104,272,45812,2,0,B|80:184|112:112,2,150
168,320,47779,1,0
168,320,48271,1,0
240,288,48763,1,2
280,224,49255,1,0
280,152,49747,5,0
256,72,50238,2,0,B|256:16,1,50
336,40,50976,2,0,B|384:32|440:40,1,100
435,39,51714,5,4
464,112,52206,1,0
472,192,52697,1,8
440,264,53189,1,0
376,312,53681,2,0,B|320:328|256:304,2,100,2|0|8
360,232,55156,5,0
320,160,55648,1,0
248,120,56140,1,0
168,112,56632,1,8
88,136,57124,1,0
40,200,57615,2,0,B|24:256|40:312,2,100,2|0|8
120,208,59091,5,0
184,256,59583,1,0
264,272,60074,1,0
344,264,60566,1,8
416,224,61058,1,0
448,152,61550,2,0,B|464:104|448:48,2,100,2|0|8
368,160,63025,5,0
296,192,63517,2,0,B|303:239,2,50
216,192,64501,2,0,B|208:239,2,50,8|0|0
144,160,65484,1,0
72,120,65976,2,0,B|40:168|48:224,2,100,0|8|0
136,72,67451,5,4
208,32,67943,2,0,B|264:56|296:104,1,100,0|8
368,88,68927,1,0
392,168,69419,1,2
384,248,69911,1,0
344,320,70402,5,8
264,344,70894,1,0
184,320,71386,2,0,B|104:248|80:136,1,200,0|8
80,72,72861,1,0
152,112,73353,1,2
232,104,73845,1,0
304,72,74337,5,8
384,80,74829,1,0
440,136,75320,2,0,B|456:192|496:232,1,100
408,248,76304,2,0,B|408:304|424:352,1,100
344,344,77288,1,2
344,344,77779,1,0
264,336,78271,6,0,B|240:232|264:128,1,200,8|0
320,80,79747,1,0
240,64,80238,2,0,B|136:40|32:64,1,200,8|0
32,144,81714,1,0
112,136,82206,2,0,B|136:240|112:344,1,200,8|4
152,336,83435,6,0,B|208:344,3,50
256,208,93025,12,0,94992
104,64,95976,5,8
56,128,96468,2,0,B|80:248,1,100
104,296,97451,5,0
184,320,97943,1,8
256,288,98435,2,0,B|256:228,2,50
328,320,99419,1,0
408,296,99911,2,0,B|456:280|456:280|464:280,4,50,8|0|0|0|0
376,224,101386,5,0
336,152,101878,2,0,B|304:104|312:40,2,100,8|0|0
296,224,103353,1,0
216,248,103845,2,0,B|216:312,2,50,8|0|0
136,224,104829,1,0
72,176,105320,5,0
104,104,105812,2,0,B|144:64|216:64,2,100,8|0|0
72,176,107288,1,0
80,256,107779,2,0,B|16:256,2,50,8|0|0
136,312,108763,5,0
208,296,109255,2,0,B|255:278|312:300,1,100,0|8
384,328,110238,5,0
440,264,110730,2,0,B|472:160|432:56,2,200,0|8|0
376,312,113189,5,0
296,288,113681,1,8
240,232,114173,2,0,B|184:256,2,50
216,152,115156,1,0
248,80,115648,1,8
312,32,116140,2,0,B|376:32,2,50
248,80,117124,5,0
168,64,117615,1,8
96,96,118107,1,0
96,96,118353,1,0
96,96,118599,1,0
48,160,119091,2,0,B|56:224|72:280,1,100,0|8
88,336,120074,2,0,B|136:344|192:336,1,100
256,296,121058,5,0
336,272,121550,1,8
392,216,122042,2,0,B|456:248,2,50
392,136,123025,2,0,B|456:120,2,50,0|0|8
344,72,124009,5,0
296,136,124501,2,0,B|296:192|312:248,2,100,0|0|8
256,64,125976,1,0
216,136,126468,2,0,B|216:192|200:248,2,100,0|0|8
168,72,127943,1,0
256,40,128435,5,0
256,40,128927,1,0
256,120,129419,1,0
256,160,129665,1,0
256,200,129911,2,0,B|256:240,2,25,0|0|4
328,240,130894,5,0
320,320,131386,1,8
400,296,131878,1,0
456,232,132370,1,2
480,160,132861,2,0,B|496:104|472:48,1,100,0|8
477,61,133845,1,0
400,88,134337,5,0
328,48,134829,1,0
256,88,135320,1,8
184,48,135812,1,0
112,88,136304,1,2
48,136,136796,2,0,B|32:192|48:256,1,100,0|8
64,312,137779,5,0
144,328,138271,1,0
144,328,138763,1,0
224,304,139255,1,8
264,232,139747,1,0
328,184,140238,1,2
408,184,140730,2,0,B|464:208|488:272,1,100,0|8
432,312,141714,5,0
352,336,142206,2,0,B|304:352|248:336,2,100,0|0|8
368,256,143681,1,0
368,256,143927,1,8
368,256,144173,2,0,B|328:224|312:152,2,100,0|0|4
304,312,145648,1,0
264,320,145894,1,0
224,312,146140,1,4
184,240,146632,5,0
128,296,147124,1,8
48,304,147615,1,0
32,224,148107,1,2
40,144,148599,2,0,B|24:88|48:32,1,100,0|8
42,45,149583,1,0
120,56,150074,5,0
200,72,150566,1,0
280,88,151058,1,8
360,104,151550,1,0
440,120,152042,1,2
440,120,152533,2,0,B|456:176|440:240,1,100,0|8
408,288,153517,5,0
336,320,154009,2,0,B|224:344,1,100
232,264,154992,2,0,B|112:232,1,100,8|0
208,168,155976,1,2
208,168,156468,2,0,B|144:80,2,100,0|8|0
256,232,157943,6,0,B|304:248|360:232,2,100,0|0|8
176,240,159419,1,0
176,240,159665,1,8
176,240,159911,1,0
120,184,160402,1,8
200,168,160894,2,0,B|232:120|208:48,1,100,8|0
312,168,161878,2,0,B|280:120|304:48,1,100,4|0
