osu file format v7

[General]
AudioFilename: 205-twins-great_romantic-tosk.mp3
AudioLeadIn: 0
PreviewTime: 116467
Countdown: 0
SampleSet: Soft
StackLeniency: 0.7
Mode: 0
LetterboxInBreaks: 1
SkinPreference:Default

[Editor]
DistanceSpacing: 1
BeatDivisor: 4
GridSize: 8

[Metadata]
Title:Grand Romanticism
Artist:Twins
Creator:alvisto
Version:Grand Romanticism
Source:
Tags:Chinese Cantonese Cantopop

[Difficulty]
HPDrainRate:8
CircleSize:4
OverallDifficulty:7
SliderMultiplier:1.2
SliderTickRate:0.5

[Events]
//Background and Video events
0,0,"0B.jpg"
//Break Periods
2,79971,87268
//Storyboard Layer 0 (Background)
//Storyboard Layer 1 (Fail)
//Storyboard Layer 2 (Pass)
//Storyboard Layer 3 (Foreground)
//Storyboard Sound Samples
//Background Colour Transformations
3,100,163,162,255

[TimingPoints]
10280,579.094681980504,4,2,0,63,1,0
15781,-100,4,2,0,69,0,0
16939,-100,4,2,0,67,0,0
18097,-100,4,2,0,81,0,0
19255,-100,4,2,0,71,0,0
19979,-100,4,2,0,65,0,0
20558,-100,4,2,0,59,0,0
21138,-100,4,2,0,53,0,0
21717,-100,4,2,0,45,0,0
22151,-100,4,2,0,35,0,0
23020,-100,4,2,0,31,0,0
23597,-100,4,2,1,41,0,0
24032,-100,4,2,2,51,0,0
24321,-100,4,2,1,41,0,0
27361,-200,4,2,1,41,0,0
28230,-100,4,2,1,41,0,0
33296,-100,4,2,2,51,0,0
33586,-100,4,2,1,41,0,0
38073,-200,4,2,2,41,0,0
38652,-100,4,2,1,17,0,0
38721,-100,4,2,1,39,0,0
42127,-200,4,2,1,41,0,0
42706,-100,4,2,0,45,0,0
44153,-200,4,2,1,46,0,0
44443,-200,4,2,1,36,0,0
44732,-100,4,2,1,24,0,0
44877,-100,4,2,1,45,0,0
46469,-200,4,2,1,34,0,0
46759,-200,4,2,1,45,0,0
47048,-100,4,2,0,30,0,0
47117,-100,4,2,1,49,0,0
48496,-200,4,2,1,51,0,0
49075,-100,4,2,1,45,0,0
50667,-100,4,1,0,36,0,0
50957,-100,4,1,0,43,0,0
51246,-100,4,1,0,49,0,0
51536,-100,4,1,0,29,0,0
51826,-100,4,2,1,41,0,0
52115,-100,4,2,1,61,0,0
54286,-200,4,2,1,63,0,0
54865,-100,4,2,1,61,0,0
60222,-100,4,1,0,38,0,0
60511,-100,4,1,0,54,0,0
60728,-100,4,1,0,32,0,0
60873,-100,4,1,0,40,0,0
61090,-100,4,2,1,41,0,0
61380,-100,4,2,1,60,0,0
69197,-100,4,1,0,60,0,0
69414,-100,4,1,0,28,0,0
69776,-100,4,1,0,37,0,0
69993,-100,4,1,0,30,0,0
70138,-100,4,1,0,26,0,0
70355,-100,4,2,1,41,0,0
70500,-200,4,2,1,50,0,0
71368,-100,4,2,1,61,0,0
78461,-100,4,2,1,41,0,0
78678,-100,4,2,1,60,0,0
89029,-100,4,2,1,43,0,0
89608,-100,4,2,2,43,0,0
104952,-200,4,2,1,40,0,0
106110,-100,4,2,2,41,0,0
107413,-100,4,2,0,50,0,0
108861,-100,4,2,0,44,0,0
109150,-100,4,2,0,37,0,0
109440,-100,4,2,0,32,0,0
109729,-100,4,2,0,50,0,0
111177,-100,4,2,0,46,0,0
111467,-100,4,2,0,37,0,0
111756,-100,4,2,0,33,0,0
112046,-100,4,2,0,50,0,0
113348,-200,4,2,1,63,0,0
113937,-100,4,2,1,63,0,0
115809,-100,4,1,0,46,0,0
116026,-100,4,1,0,36,0,0
116171,-100,4,1,0,28,0,0
116388,-100,4,1,0,52,0,0
116605,-100,4,1,0,46,0,0
116750,-100,4,2,0,36,0,0
117112,-100,4,2,1,66,0,0
119149,-200,4,2,1,64,0,0
119728,-100,4,2,1,63,0,0
125074,-100,4,1,0,44,0,0
125291,-100,4,1,0,27,0,0
125436,-100,4,1,0,37,0,0
125870,-100,4,1,0,45,0,0
126015,-100,4,2,1,49,0,0
126232,-100,4,2,1,63,0,0
130141,-200,4,2,1,63,0,0
130430,-100,4,2,1,63,0,0
134049,-100,4,1,0,47,0,0
134266,-100,4,1,0,33,0,0
134845,-100,4,1,0,26,0,0
135207,-100,4,2,1,44,0,0
135352,-200,4,2,1,44,0,0
136220,-100,4,2,1,63,0,0
143024,-100,4,2,1,52,0,0
143603,-100,4,2,1,61,0,0
144544,-100,4,2,1,32,0,0
145051,-100,4,1,0,32,0,0
145340,-100,4,1,0,38,0,0
145630,-100,4,1,0,43,0,0
145919,-100,4,1,0,49,0,0
146209,-100,4,1,0,56,0,0
146498,-100,4,1,0,66,0,0
146933,-200,4,2,0,59,0,0
147801,-100,4,2,1,63,0,0
150407,-200,4,2,1,63,0,0
150986,-100,4,2,1,63,0,0
151999,-100,4,2,1,50,0,0
152578,-100,4,2,1,69,0,0
153157,-100,4,2,1,63,0,0
154894,-100,4,2,1,51,0,0
156487,-100,4,2,1,66,0,0
164449,-100,4,1,0,53,0,0
164666,-100,4,1,0,38,0,0
165028,-100,4,1,0,45,0,0
165245,-100,4,1,0,36,0,0
165390,-100,4,2,1,47,0,0
165477,-200,4,2,1,47,0,0
166056,-100,4,2,1,47,0,0
166909,-200,4,2,1,46,0,0
167489,-100,4,2,1,63,0,0
169949,-100,4,2,2,56,0,0
170384,-100,4,2,1,63,0,0
173279,-100,4,1,0,41,0,0
173930,-100,4,1,0,44,0,0
174075,-100,4,1,0,49,0,0
174437,-200,4,2,1,79,0,0
174727,-100,4,2,0,53,0,0
175016,-100,4,2,1,63,0,0
179286,-100,4,2,1,46,0,0
179648,-100,4,2,1,63,0,0
183919,-100,4,2,1,47,0,0
184281,-100,4,2,1,63,0,0
185873,-100,4,2,1,38,0,0
188768,-100,4,2,1,48,0,0

[Colours]
Combo1 : 251,77,77
Combo2 : 255,128,255
Combo3 : 177,100,255

[HitObjects]
104,104,10280,1,2
72,344,10859,1,0
256,192,11438,1,0
256,192,11727,1,0
256,192,12017,1,0
408,104,12596,5,2
440,344,13175,1,0
256,192,13754,1,0
256,192,14043,1,0
256,192,14333,1,0
432,48,14912,5,2
456,120,15202,1,0
432,192,15491,1,0
80,336,16070,5,2
56,264,16360,1,0
80,192,16649,1,0
408,32,17229,5,2
456,144,17519,1,0
424,256,17808,1,0
104,352,18387,5,2
56,240,18677,1,0
88,128,18966,1,0
480,32,19545,5,2
320,112,19835,1,0
32,32,20124,1,2
192,112,20414,1,0
376,144,20703,1,2
320,240,20993,1,0
136,144,21282,1,2
192,240,21572,1,0
256,352,21861,5,2
256,352,22440,1,2
256,352,22730,1,0
256,352,23309,1,2
112,32,23888,5,0
112,32,24178,2,0,B|104:128|112:240,1,180,2|0
192,224,25336,1,2
272,248,25626,1,0
344,288,25915,1,0
408,344,26205,1,0
472,288,26494,1,0
440,208,26784,5,0
440,208,27073,1,0
440,208,27363,2,0,B|432:160|416:112,1,90
320,208,28811,5,2
320,208,29390,1,2
176,128,29969,1,0
96,152,30258,1,0
32,200,30548,1,0
72,272,30837,1,0
120,344,31127,2,0,B|176:352|248:344,1,120,2|0
320,336,31996,2,0,B|376:320|432:280,1,120
427,283,32864,1,0
456,208,33154,5,0
456,208,33443,2,0,B|472:120|456:24,1,180,2|0
376,40,34601,1,2
296,48,34891,1,0
216,40,35181,1,0
136,48,35470,1,0
56,40,35760,1,2
120,200,36339,5,0
200,168,36628,1,0
224,248,36918,1,2
304,216,37207,1,0
328,296,37497,1,0
408,272,37786,1,0
408,272,38076,2,0,B|432:240|440:216,1,60,2|0
456,136,38945,5,0
408,72,39234,1,2
336,32,39524,1,0
256,16,39813,1,0
176,32,40103,2,0,B|104:40|48:80,2,120
256,176,41840,1,0
256,176,42130,2,0,B|256:248,1,60
296,312,42998,5,0
216,72,43288,1,0
320,248,43577,1,0
192,136,43867,1,0
256,176,44157,2,0,B|256:216,2,30,2|2|2
200,240,45025,5,0
312,144,45315,1,0
136,248,45604,1,0
376,136,45894,1,0
72,224,46183,1,0
256,208,46473,2,0,B|256:168,2,30,2|2|2
312,272,47342,5,0
312,272,47631,1,0
384,232,47921,1,0
384,232,48210,1,0
440,168,48500,2,0,B|440:128|424:96,1,60
208,56,49658,5,0
304,56,49947,1,0
152,112,50237,1,0
360,112,50527,1,0
120,184,50816,1,0
392,184,51106,1,0
256,344,51395,1,0
256,336,51685,1,0
256,328,51974,6,0,B|256:192,1,120,4|0
256,208,52843,1,0
280,128,53133,2,0,B|328:96|400:88,1,120,8|0
464,128,54001,5,0
480,208,54291,2,0,B|488:240|480:272,1,60,2|0
408,312,55159,1,0
328,272,55449,1,8
272,208,55738,1,0
240,128,56028,1,0
176,80,56318,5,0
136,56,56462,1,0
96,40,56607,2,0,B|56:88|32:152,1,120,2|0
35,143,57476,1,0
56,224,57765,2,0,B|72:280|112:336,1,120,8|0
192,352,58634,5,0
320,312,58923,1,2
392,192,59213,1,0
120,192,59503,1,0
192,72,59792,1,0
320,32,60082,1,8
400,64,60371,5,0
456,128,60661,1,0
472,168,60806,1,0
472,208,60950,1,0
456,288,61240,6,0,B|400:312|336:328,1,120,4|0
342,326,62108,1,0
256,336,62398,2,0,B|192:344|128:336,1,120,8|0
104,256,63267,5,0
88,176,63556,1,2
96,96,63846,1,0
112,56,63991,1,0
144,24,64135,1,0
208,232,64425,1,0
256,64,64714,1,8
312,208,65004,1,0
368,96,65293,1,0
416,184,65583,1,0
448,160,65728,1,0
472,128,65873,5,2
472,128,66162,1,0
440,48,66452,1,0
440,48,66741,1,0
360,56,67031,2,0,B|304:64|232:56,1,120,8|0
240,57,67899,1,0
160,48,68189,5,2
32,136,68623,1,0
136,248,69058,1,0
200,304,69347,5,0
240,304,69492,1,0
280,304,69637,1,0
288,224,69926,1,0
328,208,70071,1,0
368,192,70216,1,0
360,112,70505,6,0,B|400:88|424:40,1,90,4|0
420,46,71664,1,8
320,32,71953,1,0
280,32,72098,1,0
240,32,72243,1,0
160,56,72532,5,0
352,328,72822,1,2
200,112,73111,1,0
312,272,73401,1,0
216,176,73690,1,0
296,208,73980,1,8
288,168,74125,1,0
296,128,74269,1,0
320,48,74559,5,0
400,32,74849,1,0
472,72,75138,1,2
480,112,75283,1,0
484,153,75428,1,0
480,192,75572,1,0
472,232,75717,1,0
424,296,76007,1,0
352,336,76296,1,8
312,352,76441,1,0
272,360,76586,1,0
232,360,76731,1,0
192,352,76875,1,0
128,296,77165,5,0
128,296,77454,2,0,B|112:208|128:112,1,180,2|8
184,56,78613,1,4
224,32,78757,1,0
264,24,78902,1,0
280,104,79192,1,8
264,144,79337,1,0
264,184,79481,1,8
256,264,79771,1,4
304,32,88168,5,8
272,56,88313,1,0
248,80,88457,2,0,B|240:144|256:216,1,120,8|4
40,344,89905,5,0
72,264,90195,1,8
88,184,90484,1,0
72,104,90774,1,0
136,48,91063,1,0
216,24,91353,1,0
296,32,91642,5,0
376,64,91932,1,0
440,120,92221,1,0
464,160,92366,1,0
472,200,92511,2,0,B|480:264|472:336,2,120,8|0|2
400,48,94248,5,0
312,40,94538,2,0,B|248:64,1,60,0|8
192,112,95117,1,0
152,184,95406,1,0
136,264,95696,1,0
144,344,95986,2,0,B|208:352|280:344,1,120,0|0
263,345,96854,5,0
304,328,96999,1,0
344,312,97144,1,8
280,208,97433,1,0
256,176,97578,1,0
248,136,97723,1,0
448,32,98012,5,0
464,72,98157,1,0
472,112,98302,2,0,B|480:176|472:248,1,120,2|0
474,231,99171,1,0
464,272,99315,1,0
448,312,99460,1,8
336,248,99750,1,0
256,344,100039,1,0
176,248,100329,1,0
64,312,100618,2,0,B|40:256|32:184,1,120,0|0
40,112,101487,5,0
72,88,101632,1,0
104,64,101776,1,8
408,64,102066,1,0
160,112,102356,1,0
352,112,102645,1,0
256,152,102935,1,0
256,192,103079,1,0
256,232,103224,1,0
256,272,103369,1,0
256,312,103514,1,0
336,272,103803,6,0,B|368:208,1,60,0|8
176,272,104382,2,0,B|144:208,1,60
256,192,104961,2,0,B|256:120,2,60,0|0|0
320,224,106409,5,8
192,224,106699,1,0
392,248,106988,1,0
120,248,107278,1,0
352,96,107567,5,0
128,192,107857,1,0
384,192,108147,1,0
192,224,108436,1,0
320,160,108726,1,0
256,32,109015,5,2
256,40,109305,1,2
256,48,109594,1,2
192,224,109884,5,0
320,160,110173,1,0
128,192,110463,1,0
384,192,110752,1,0
160,288,111042,1,0
352,96,111332,5,2
360,88,111621,1,2
368,80,111911,1,2
448,48,112200,5,0
448,48,112490,1,0
472,128,112779,1,0
472,128,113069,1,0
480,208,113358,2,0,B|480:248|464:288,1,60
296,232,114517,5,0
216,152,114806,1,0
248,280,115096,1,0
264,104,115385,1,0
184,296,115675,1,0
328,88,115964,5,0
368,72,116109,1,0
400,40,116254,1,0
184,88,116543,1,0
144,72,116688,1,0
112,40,116833,1,4
64,200,117412,5,0
88,280,117702,1,0
128,352,117991,2,0,B|192:360|272:352,1,120,8|0
304,288,118860,5,0
328,208,119149,2,0,B|336:176|336:136,1,60,2|0
272,96,120018,1,0
240,288,120307,1,8
216,120,120597,1,0
296,264,120887,1,0
168,168,121176,5,0
168,168,121466,2,0,B|128:224|56:240,1,120,2|0
71,235,122334,1,0
64,320,122624,2,0,B|112:344|184:352,1,120,8|0
312,320,123493,5,0
440,240,123782,1,2
360,80,124072,1,0
152,304,124361,1,0
72,144,124651,1,0
200,64,124940,1,8
296,128,125230,5,0
280,168,125375,1,0
280,208,125519,1,0
96,288,125809,1,0
104,248,125954,1,0
96,208,126098,2,0,B|72:144|80:80,1,120,4|0
78,90,126967,1,0
78,90,127257,1,8
144,40,127546,1,0
184,24,127691,1,0
224,32,127836,6,0,B|304:48,1,60
392,128,128415,1,2
440,256,128704,1,0
432,296,128849,1,0
400,328,128994,1,0
112,328,129283,1,0
344,272,129573,1,8
168,272,129863,1,0
256,224,130152,2,0,B|256:176,1,30
328,104,130731,5,2
424,128,131021,1,0
472,208,131310,1,0
400,272,131600,1,0
320,328,131889,2,0,B|256:336|176:328,1,120,8|0
128,272,132758,1,0
112,232,132903,1,0
104,192,133048,5,2
208,48,133482,1,0
336,160,133916,1,0
360,256,134206,5,0
352,304,134351,1,0
344,344,134495,1,0
160,240,134785,1,0
144,192,134930,1,0
144,144,135074,1,0
256,32,135364,6,0,B|256:128,1,90,4|0
256,122,136522,1,8
200,200,136812,1,0
168,224,136956,1,0
144,256,137101,1,0
56,288,137391,5,0
48,192,137680,2,0,B|48:152|64:120,1,60,2|0
104,48,138259,1,0
200,64,138549,2,0,B|272:64,1,60,0|8
352,48,139128,5,0
384,80,139273,1,0
416,112,139418,1,0
456,184,139707,1,0
464,224,139852,1,0
456,264,139997,2,0,B|432:328|368:360,1,120,2|0
134,351,140865,1,0
336,288,141155,1,8
176,288,141444,5,0
144,264,141589,1,0
120,232,141734,1,0
104,136,142024,5,0
152,56,142313,1,2
248,32,142603,1,0
280,56,142747,1,0
304,88,142892,1,0
352,176,143182,1,8
352,176,143471,1,4
320,264,143761,5,0
312,304,143906,1,0
288,344,144050,1,0
96,296,144340,1,0
88,256,144485,1,0
104,216,144629,1,4
152,128,144919,5,0
360,256,145209,1,0
216,112,145498,1,0
296,272,145788,1,0
280,128,146077,1,0
232,256,146367,1,0
312,184,146656,1,0
200,200,146946,6,0,B|192:176|192:144,2,45,4|0|0
136,272,148104,1,8
64,208,148394,1,0
48,168,148538,1,0
56,128,148683,5,0
144,80,148973,1,0
232,112,149262,2,0,B|280:112|336:104,2,90,2|0|0
152,168,150420,2,0,B|128:192|120:224,1,60,8|0
121,219,151289,1,0
168,304,151579,5,2
200,280,151723,1,0
224,248,151868,1,0
432,312,152158,2,0,B|448:272,2,30,2|0|2
344,80,152737,5,2
312,104,152882,1,0
288,136,153026,1,0
80,72,153316,2,0,B|64:112,2,30,2|0|2
72,264,153895,5,0
256,312,154329,1,0
440,264,154764,1,0
440,120,155053,5,4
256,72,155487,1,0
72,120,155922,1,0
72,120,156211,5,4
224,224,156790,1,8
136,264,157080,1,0
192,344,157370,2,0,B|248:352|320:344,1,120,0|8
392,280,158238,5,0
440,192,158528,1,0
408,104,158817,1,0
376,80,158962,1,0
336,80,159107,1,8
288,288,159396,1,0
240,104,159686,1,0
192,256,159975,1,0
136,120,160265,1,8
96,224,160555,1,0
40,136,160844,5,0
40,136,161134,1,0
88,48,161423,1,8
88,48,161713,1,0
184,64,162002,2,0,B|248:72|312:64,1,120,0|8
400,48,162871,1,0
440,80,163016,1,0
464,120,163160,5,0
480,216,163450,1,0
480,264,163595,1,0
464,312,163740,1,8
352,344,164029,1,0
352,344,164319,1,0
256,320,164608,5,0
224,288,164753,1,0
208,248,164898,1,0
272,112,165187,1,0
232,96,165332,1,0
192,96,165477,6,0,B|152:104|120:120,1,60,4|0
72,184,166346,1,0
72,184,166635,1,0
40,272,166925,2,0,B|40:304,2,30
128,296,167793,5,2
224,248,168083,1,0
280,144,168372,1,0
352,64,168662,1,0
440,32,168951,2,0,B|480:24|520:32,1,60
440,168,169531,5,0
440,256,169820,1,0
384,320,170110,1,2
256,336,170544,1,0
128,320,170978,1,0
72,256,171268,1,0
72,168,171557,1,0
72,168,171847,1,0
112,80,172136,5,0
112,80,172426,2,0,B|200:80|304:96,1,180,2|0
291,94,173584,1,0
288,176,173874,1,0
264,208,174019,1,0
256,248,174163,1,0
256,336,174453,2,0,B|256:368,1,30,8|4
432,296,175321,5,8
464,208,175611,1,0
472,160,175756,1,0
464,112,175901,1,2
400,40,176190,1,0
320,96,176480,1,8
232,64,176769,6,0,B|176:128,1,60,0|2
96,104,177348,2,0,B|72:176,1,60,0|8
16,240,177927,2,0,B|16:304,1,60,0|2
104,336,178507,5,0
152,352,178651,1,0
200,344,178796,1,8
272,224,179086,1,8
296,184,179230,1,0
304,136,179375,5,4
472,40,179954,1,8
488,136,180244,1,0
496,184,180389,1,0
488,232,180533,1,2
488,232,180823,1,0
440,312,181112,5,8
72,312,181402,1,0
392,256,181692,1,2
120,256,181981,1,0
360,192,182271,1,8
152,192,182560,1,0
336,120,182850,1,2
176,120,183139,5,8
184,72,183284,1,0
160,32,183429,1,8
336,120,183718,5,8
328,72,183863,1,0
352,32,184008,1,4
464,192,184587,1,8
432,280,184877,1,0
400,320,185021,1,0
352,344,185166,1,2
256,352,185456,1,0
256,352,185745,1,8
256,192,186035,12,4,188785
