osu file format v7

[General]
AudioFilename: 205-twins-great_romantic-tosk.mp3
AudioLeadIn: 0
PreviewTime: 116467
Countdown: 0
SampleSet: Soft
StackLeniency: 0.7
Mode: 0
LetterboxInBreaks: 1
SkinPreference:Default

[Editor]
DistanceSpacing: 0.800000011920929
BeatDivisor: 2
GridSize: 16

[Metadata]
Title:Grand Romanticism
Artist:Twins
Creator:alvisto
Version:Beginner
Source:
Tags:Chinese Cantonese Cantopop

[Difficulty]
HPDrainRate:3
CircleSize:3
OverallDifficulty:2
SliderMultiplier:0.8
SliderTickRate:0.5

[Events]
//Background and Video events
0,0,"0B.jpg"
//Break Periods
2,79971,86318
//Storyboard Layer 0 (Background)
//Storyboard Layer 1 (Fail)
//Storyboard Layer 2 (Pass)
//Storyboard Layer 3 (Foreground)
//Storyboard Sound Samples
//Background Colour Transformations
3,100,163,162,255

[TimingPoints]
10280,579.094681980504,4,2,0,63,1,0
21860,-100,4,2,2,46,0,0
24755,-100,4,2,1,62,0,0
32862,-100,4,2,2,42,0,0
34020,-100,4,2,1,62,0,0
38363,-100,4,2,1,24,0,0
42706,-100,4,2,1,29,0,0
43285,-100,4,2,1,62,0,0
49365,-100,4,2,1,27,0,0
51970,-100,4,2,1,62,0,0
89608,-100,4,2,2,45,0,0
106979,-100,4,2,1,55,0,0
117402,-100,4,2,1,66,0,0

[Colours]
Combo1 : 251,77,77
Combo2 : 255,128,255
Combo3 : 177,100,255

[HitObjects]
384,32,24178,1,2
256,96,25336,1,0
128,32,26494,2,0,B|64:64|32:128,2,120,2|0|0
160,96,28811,5,2
256,192,29969,1,0
352,288,31127,2,0,B|416:288|480:288,1,120,2|0
448,128,33443,5,2
320,64,34601,1,0
192,32,35760,2,0,B|112:16|32:48,2,160,2|0|2
256,192,38655,12,4,42709
256,112,43867,5,0
160,192,45025,1,2
256,288,46183,1,0
352,192,47342,6,0,B|352:96,3,80
256,192,49658,12,4,51974
96,240,53133,5,8
224,288,54291,1,0
352,256,55449,1,8
400,144,56607,5,0
320,32,57765,1,8
192,64,58923,1,0
128,176,60082,2,0,B|144:224|112:240|128:288,2,80,8|8|4
240,96,62398,5,8
368,128,63556,1,0
448,224,64714,1,8
384,336,65873,5,0
256,304,67031,1,8
128,336,68189,1,0
160,208,69347,2,0,B|144:144|176:176|160:112,2,80,8|8|4
288,240,71664,5,8
416,240,72822,1,0
416,112,73980,1,8
304,64,75138,5,0
176,80,76296,1,8
128,208,77454,1,0
256,240,78613,2,0,B|256:336,2,80,8|8|4
256,192,87878,6,0,B|256:288,2,80,8|8|4
384,224,90195,5,8
352,96,91353,2,0,B|256:96,2,80,2|0|8
304,224,93669,5,0
176,224,94827,1,8
80,144,95986,2,8,B|80:48,2,80,2|0|8
96,272,98302,5,0
208,320,99460,1,8
336,304,100618,2,0,B|416:256|480:176,1,160,2|8
416,80,102935,5,2
352,64,103514,1,0
288,48,104093,1,8
160,64,105251,5,2
112,112,105830,1,0
64,160,106409,1,8
128,272,107567,6,0,B|224:304,1,80,2|0
272,304,108726,2,0,B|384:304,1,80,2|0
416,272,109884,6,0,B|448:192,1,80,2|0
448,128,111042,2,0,B|448:16,1,80,2|0
384,48,112200,6,0,B|288:112,1,80,2|0
256,112,113358,2,0,B|160:112,1,80,2|0
256,192,114517,12,4,116833
112,64,117991,5,8
64,192,119149,2,0,B|80:272|128:352,2,160,0|8|0
160,112,122624,1,8
288,80,123782,5,0
416,96,124940,2,0,B|432:144|416:208,2,80,8|8|4
304,32,127257,5,8
176,48,128415,2,0,B|160:128,1,80
96,144,129573,2,0,B|96:256,1,80,8|0
128,288,130731,6,0,B|224:320,1,80
272,320,131889,1,8
336,320,132468,1,0
400,288,133048,6,0,B|432:208|448:128,1,160,0|8
448,64,134785,1,8
448,64,135364,1,4
320,64,136522,5,8
192,96,137680,2,0,B|96:128,2,80,0|0|8
256,208,139997,6,0,B|256:320,1,80
320,304,141155,2,0,B|416:272,1,80,8|0
256,192,142313,12,4,146946
