osu file format v7

[General]
AudioFilename: 205-twins-great_romantic-tosk.mp3
AudioLeadIn: 0
PreviewTime: 116467
Countdown: 0
SampleSet: Soft
StackLeniency: 0.7
Mode: 0
LetterboxInBreaks: 1
SkinPreference:Default

[Editor]
DistanceSpacing: 1.20000004768372
BeatDivisor: 4
GridSize: 8

[Metadata]
Title:Grand Romanticism
Artist:Twins
Creator:alvisto
Version:Advanced
Source:
Tags:Chinese Cantonese Cantopop

[Difficulty]
HPDrainRate:6
CircleSize:4
OverallDifficulty:6
SliderMultiplier:1.2
SliderTickRate:0.5

[Events]
//Background and Video events
0,0,"0B.jpg"
//Break Periods
2,79971,87118
//Storyboard Layer 0 (Background)
//Storyboard Layer 1 (Fail)
//Storyboard Layer 2 (Pass)
//Storyboard Layer 3 (Foreground)
//Storyboard Sound Samples
//Background Colour Transformations
3,100,163,162,255

[TimingPoints]
10280,579.094681980504,4,2,0,63,1,0
23597,-100,4,2,1,41,0,0
24032,-100,4,2,2,51,0,0
24321,-100,4,2,1,41,0,0
26493,-200,4,2,1,40,0,0
28230,-100,4,2,1,41,0,0
33296,-100,4,2,2,49,0,0
33586,-100,4,2,1,41,0,0
38076,-100,4,2,2,41,0,0
38366,-100,4,2,1,41,0,0
42706,-100,4,2,1,45,0,0
44153,-100,4,2,1,46,0,0
44443,-100,4,2,1,36,0,0
44732,-100,4,2,1,25,0,0
45022,-100,4,2,1,51,0,0
46469,-100,4,2,1,34,0,0
46759,-100,4,2,1,45,0,0
47048,-100,4,2,0,30,0,0
47117,-100,4,2,1,49,0,0
50667,-100,4,1,0,36,0,0
50957,-100,4,1,0,43,0,0
51246,-100,4,1,0,49,0,0
51536,-100,4,1,0,29,0,0
51826,-100,4,2,1,41,0,0
52115,-100,4,2,1,61,0,0
54286,-200,4,2,1,63,0,0
54865,-100,4,2,1,61,0,0
60222,-100,4,1,0,47,0,0
61090,-100,4,2,1,41,0,0
61380,-100,4,2,1,60,0,0
69197,-100,4,1,0,37,0,0
70500,-200,4,2,1,50,0,0
71368,-100,4,2,1,61,0,0
78461,-100,4,2,1,41,0,0
78751,-100,4,2,1,60,0,0
89029,-100,4,2,1,43,0,0
89608,-100,4,2,2,43,0,0
106110,-100,4,2,2,41,0,0
107413,-100,4,2,0,50,0,0
108861,-100,4,2,0,44,0,0
109150,-100,4,2,0,37,0,0
109440,-100,4,2,0,32,0,0
109729,-100,4,2,0,50,0,0
111177,-100,4,2,0,46,0,0
111467,-100,4,2,0,37,0,0
111756,-100,4,2,0,33,0,0
112046,-100,4,2,1,49,0,0
115809,-100,4,1,0,53,0,0
116678,-100,4,2,0,47,0,0
117112,-100,4,2,1,66,0,0
119139,-200,4,2,1,64,0,0
119718,-100,4,2,1,63,0,0
125074,-100,4,1,0,49,0,0
125942,-100,4,2,1,49,0,0
126232,-100,4,2,1,63,0,0
134049,-100,4,1,0,47,0,0
135352,-200,4,2,1,64,0,0
136220,-100,4,2,1,63,0,0
143024,-100,4,2,1,52,0,0
143603,-100,4,2,1,61,0,0
144544,-100,4,2,1,32,0,0
145051,-100,4,1,0,32,0,0
145340,-100,4,1,0,38,0,0
145630,-100,4,1,0,43,0,0
145919,-100,4,1,0,49,0,0
146209,-100,4,1,0,56,0,0
146498,-100,4,1,0,66,0,0
146933,-100,4,2,1,59,0,0
150407,-200,4,2,1,63,0,0
150986,-100,4,2,1,63,0,0
151999,-100,4,2,1,50,0,0
152578,-100,4,2,1,69,0,0
153157,-100,4,2,1,63,0,0
154894,-100,4,2,1,51,0,0
156487,-100,4,2,1,65,0,0
164449,-100,4,1,0,49,0,0
165317,-100,4,2,1,65,0,0
169949,-100,4,2,1,50,0,0
170384,-100,4,2,1,65,0,0
171831,-100,4,2,1,32,0,0
174727,-100,4,2,1,59,0,0

[Colours]
Combo1 : 251,77,77
Combo2 : 255,128,255
Combo3 : 177,100,255

[HitObjects]
392,88,23888,1,0
352,152,24178,2,0,B|256:160|144:152,1,180,2|0
172,153,25336,1,0
112,112,25626,2,0,B|88:88|72:48,2,60
104,184,26494,2,0,B|96:232|104:296,2,90,2|0|0
184,64,28811,5,2
184,64,29390,1,2
328,48,29969,1,0
392,80,30258,1,0
440,136,30548,1,0
464,208,30837,1,0
392,192,31127,2,0,B|344:232|264:256,1,120,2|0
216,248,31996,2,0,B|160:232|104:192,2,120
256,184,33443,6,0,B|272:96|256:0,1,180,2|0
192,32,34601,1,2
128,64,34891,2,0,B|96:88|64:120,1,60
40,160,35470,1,0
112,168,35760,2,0,B|144:232|208:280,1,120,2|0
248,288,36628,5,0
320,296,36918,1,2
392,288,37207,2,0,B|424:208,1,60
488,240,37786,2,0,B|488:160,1,60,0|2
288,96,38945,5,0
216,112,39234,1,2
144,128,39524,1,0
192,184,39813,1,0
168,256,40103,2,0,B|128:312|80:360,2,120
280,336,41840,5,0
280,336,42130,1,0
312,264,42419,6,0,B|384:296,1,60
376,216,42998,2,0,B|464:232,1,60
424,152,43577,2,0,B|488:152,1,60
456,88,44157,5,2
456,88,44446,1,2
456,88,44736,1,2
384,80,45025,6,0,B|320:48,1,60
328,128,45604,2,0,B|256:112,2,60
296,192,46473,5,2
296,192,46762,1,2
296,192,47052,1,2
248,248,47342,5,0
248,248,47631,1,0
184,288,47921,2,0,B|152:304|104:304,1,60
56,312,48500,2,0,B|32:248|40:176,1,120
120,72,49658,5,0
184,32,49947,1,0
256,24,50237,1,0
328,32,50527,1,0
384,80,50816,5,0
336,136,51106,1,0
288,192,51395,1,0
240,248,51685,1,0
184,296,51974,6,0,B|120:304|40:296,1,120,4|0
64,298,52843,1,0
32,232,53133,2,0,B|24:160|32:96,1,120,8|0
96,72,54001,5,0
168,48,54291,2,0,B|240:48,1,60
304,64,55159,1,0
368,104,55449,1,8
408,168,55738,1,0
424,240,56028,1,0
400,312,56318,5,0
400,312,56607,2,0,B|336:320|256:312,1,120,2|0
216,352,57476,1,0
144,328,57765,2,0,B|112:272|104:208,1,120,8|0
104,215,58634,5,0
128,144,58923,2,0,B|144:112|144:72,1,60,2|0
216,88,59503,2,0,B|240:112|272:120,1,60
336,128,60082,1,8
400,160,60371,5,0
400,160,60950,1,0
464,200,61240,6,0,B|448:264|408:328,1,120,4|0
344,328,62108,1,0
272,336,62398,2,0,B|208:344|144:336,2,120,8|0|2
240,272,63846,6,0,B|232:240,2,30
312,248,64425,1,0
368,200,64714,1,8
392,136,65004,1,0
400,64,65293,1,0
328,88,65583,1,0
256,96,65873,6,0,B|184:96|112:72,1,120,2|0
72,40,66741,1,0
72,112,67031,2,0,B|48:168|40:248,2,120,8|0|2
160,48,68623,5,0
256,96,69058,1,0
224,160,69347,6,0,B|200:240,1,60,0|0
280,224,69926,2,0,B|304:152,1,60
352,112,70505,6,0,B|399:93|448:114,1,90,4|0
439,111,71664,1,8
472,176,71953,2,0,B|472:248,1,60
416,288,72532,5,0
352,328,72822,2,0,B|280:320|208:288,1,120,2|0
235,299,73690,1,0
235,299,73980,1,8
168,264,74269,1,0
128,200,74559,5,0
88,264,74849,1,0
56,200,75138,2,0,B|40:112|64:16,1,180,2|0
62,21,76296,1,8
136,32,76586,1,0
208,40,76875,1,0
280,48,77165,5,0
280,48,77454,2,0,B|296:136|280:232,1,180,2|8
208,208,78613,1,4
224,280,78902,1,0
296,296,79192,2,0,B|304:328|328:360,2,60,8|8|4
256,40,88168,5,8
256,40,88457,2,0,B|256:96|256:176,1,120,8|4
392,328,89905,5,0
416,256,90195,2,0,B|432:192|440:128,1,120,8|0
438,138,91063,1,0
432,64,91353,1,0
368,96,91642,5,0
296,104,91932,1,0
224,96,92221,1,0
152,72,92511,2,0,B|88:56|36:4,2,120,8|0|2
256,176,94248,6,0,B|256:304,1,120,0|8
200,344,95117,1,0
128,352,95406,1,0
56,328,95696,1,0
8,272,95986,2,0,B|0:208|8:136,2,120,0|0|8
80,264,97433,1,0
152,256,97723,1,0
224,248,98012,5,0
296,240,98302,2,0,B|304:176|296:104,2,120,2|0|8
240,288,99750,1,0
224,216,100039,1,0
216,144,100329,1,0
208,72,100618,2,0,B|152:48|80:40,2,120,0|0|8
280,64,102066,5,0
320,128,102356,1,0
392,120,102645,1,0
440,176,102935,2,0,B|480:224|464:304,2,120,2|0|8
368,192,104382,5,0
296,208,104672,1,0
224,224,104961,2,0,B|168:232|96:224,2,120,0|0|0
248,152,106409,5,8
248,152,106699,1,0
248,152,106988,1,0
272,80,107278,6,0,B|328:48,1,60
400,32,107857,2,0,B|400:112,1,60
376,160,108436,2,0,B|296:128,1,60
248,152,109015,5,2
248,152,109305,1,2
248,152,109594,1,2
168,144,109884,6,0,B|112:176,1,60
104,248,110463,2,0,B|160:272,2,60
48,200,111332,5,2
48,200,111621,1,2
48,200,111911,1,2
72,128,112200,5,0
104,64,112490,1,0
144,128,112779,2,0,B|168:160|192:176,1,60
248,128,113358,2,0,B|312:152|344:232,2,120
208,192,114806,5,0
160,248,115096,1,0
232,264,115385,1,0
280,208,115675,1,0
264,136,115964,5,0
192,120,116254,1,0
136,176,116543,1,0
160,248,116833,2,0,B|200:296|264:320,1,120,4|0
328,328,117702,1,0
304,256,117991,2,0,B|320:192|352:128,1,120,8|0
392,88,118860,5,0
320,72,119149,2,0,B|288:64|248:64,1,60,2|0
184,72,120018,1,0
112,96,120307,1,8
48,136,120597,1,0
16,200,120887,1,0
88,200,121176,5,0
160,224,121466,2,0,B|216:232|288:224,1,120,2|0
328,168,122334,1,0
352,240,122624,2,0,B|400:264|472:272,1,120,8|0
472,200,123493,5,0
464,128,123782,2,0,B|400:72,1,60,2|0
368,144,124361,2,0,B|296:128,1,60
312,208,124940,1,8
256,264,125230,5,0
256,264,125809,1,0
192,224,126098,6,0,B|168:160|176:96,1,120,4|0
232,56,126967,1,0
304,32,127257,2,0,B|360:24|440:32,2,120,8|0|2
320,104,128704,6,0,B|336:136,2,30
256,136,129283,1,0
184,136,129573,1,8
112,112,129863,2,0,B|40:152,2,60
184,136,130731,5,2
224,200,131021,1,0
296,192,131310,1,0
336,256,131600,1,0
320,328,131889,2,0,B|256:336|176:328,2,120,8|0|2
408,264,133482,5,0
384,160,133916,1,0
344,96,134206,6,0,B|272:48,1,60
224,64,134785,2,0,B|168:112,1,60
112,144,135364,6,0,B|112:240,1,90,4|0
112,234,136522,1,8
56,288,136812,2,0,B|120:352,1,60
168,352,137391,5,0
232,312,137680,2,0,B|232:272|248:240,1,60,2|0
320,248,138259,1,0
360,184,138549,2,0,B|432:184,2,60,0|8|0
344,112,139418,5,0
296,48,139707,1,0
264,120,139997,2,0,B|208:144|144:160,2,120,2|0|8
312,184,141444,6,0,B|312:272,1,60
264,304,142024,5,0
264,304,142313,2,0,B|160:320|56:296,1,180,2|8
56,232,143471,1,4
40,160,143761,5,0
112,184,144050,1,0
184,160,144340,1,0
256,136,144629,1,4
336,144,144919,5,0
360,216,145209,1,0
304,272,145498,1,0
232,248,145788,1,0
216,176,146077,1,0
272,128,146367,1,0
288,200,146656,1,0
304,272,146946,6,0,B|304:320|304:368,2,90,4|0|0
360,224,148104,2,0,B|400:152,1,60,8|0
416,104,148683,5,0
352,64,148973,1,0
280,72,149262,2,0,B|232:80|176:72,2,90,2|0|0
320,136,150420,2,0,B|328:168|320:208,1,60,8|0
264,272,151579,5,2
232,288,151723,1,0
200,304,151868,1,0
128,328,152158,2,0,B|128:368,2,30,2|0|2
144,256,152737,5,2
136,224,152882,1,0
128,192,153026,1,0
96,128,153316,2,0,B|64:96,2,30,2|0|2
256,192,153895,12,4,156211
80,64,156790,5,8
48,128,157080,1,0
56,200,157370,2,0,B|64:264|80:336,1,120,0|8
144,336,158238,5,0
216,320,158528,1,0
280,288,158817,1,0
312,264,158962,1,0
328,232,159107,1,8
352,168,159396,1,0
384,104,159686,1,0
432,160,159975,1,0
400,224,160265,2,0,B|400:264|408:304,2,60,8|0|0
432,160,161134,5,0
424,88,161423,1,8
384,32,161713,1,0
312,48,162002,2,0,B|240:56|176:48,1,120,0|8
120,40,162871,1,0
56,72,163160,5,0
40,144,163450,1,0
32,176,163595,1,0
40,208,163740,1,8
56,280,164029,2,0,B|96:352,1,60
160,336,164608,5,0
232,320,164898,1,0
304,304,165187,1,0
376,288,165477,2,0,B|408:208|416:104,1,180,4|0
415,112,166635,1,2
384,48,166925,2,0,B|312:32,1,60
256,32,167504,6,0,B|184:48,1,60,0|2
128,72,168083,2,0,B|80:120,1,60
48,176,168662,2,0,B|32:256,1,60,0|2
152,320,169531,5,0
152,320,169820,1,0
224,336,170110,1,4
320,296,170544,1,0
360,192,170978,1,0
360,192,171268,1,2
256,192,172136,12,4,174742
