osu file format v7

[General]
AudioFilename: Xinhua Dance II - Blazing Tap.mp3
AudioLeadIn: 0
PreviewTime: 27275
Countdown: 1
SampleSet: Normal
StackLeniency: 0.7
Mode: 0
LetterboxInBreaks: 1

[Editor]
Bookmarks: 4025,50570
DistanceSpacing: 1.5
BeatDivisor: 4
GridSize: 8

[Metadata]
Title:Xinhua Dance II - Blazing Tap
Artist:Tutuwan
Creator:Terbins
Version:Normal
Source:
Tags:

[Difficulty]
HPDrainRate:2
CircleSize:3
OverallDifficulty:2
SliderMultiplier:0.7
SliderTickRate:2

[Events]
//Background and Video events
Video,0,"Tap.avi"
0,0,"BG.jpg"
//Break Periods
2,25686,25744
2,38413,49017
2,62050,70835
//Storyboard Layer 0 (Background)
//Storyboard Layer 1 (Fail)
//Storyboard Layer 2 (Pass)
//Storyboard Layer 3 (Foreground)
//Storyboard Sound Samples
//Background Colour Transformations
3,100,163,162,255

[TimingPoints]
1123,363.636363636364,4,1,0,60,1,0
50479,-100,4,1,0,60,0,0

[Colours]
Combo1 : 255,137,6
Combo2 : 255,0,0
Combo3 : 62,62,255
Combo4 : 0,255,64

[HitObjects]
85,125,4032,2,0,B|93:70|164:69,1,105,4|0
266,69,4941,1,8
265,68,5123,1,8
370,68,5486,2,0,B|412:68,3,35,0|0|0|0
405,173,6395,1,8
405,174,6577,1,8
405,279,6941,6,0,B|399:344|321:344,1,105,4|0
230,343,7850,1,8
230,343,8032,1,8
125,343,8395,2,0,B|79:343,3,35
90,237,9304,1,8
90,237,9486,1,8
195,237,9850,6,0,B|301:237,2,105,0|0|8
195,131,11304,6,0,B|317:132,2,105,0|0|8
120,57,12759,6,0,B|197:57,1,70,0|8
295,57,13486,2,0,B|378:57,1,70,0|8
440,131,14213,2,0,B|440:182,6,35,2|0|2|0|2|0|8
440,236,15668,5,4
328,124,16213,1,0
254,199,16577,1,8
254,199,16759,1,8
149,199,17123,2,0,B|149:164,4,17.5
260,310,18032,1,8
260,310,18213,1,8
365,310,18577,6,0,B|366:228,1,70,4|0
365,135,19304,6,0,B|366:84,2,35,0|8|8
257,107,20032,6,0,B|202:66|151:114,1,105
86,180,20941,1,8
86,180,21123,1,8
160,254,21486,6,0,B|211:287|266:254,2,105,4|0|8
160,148,22941,2,0,B|211:116|270:154,2,105,4|0|8
256,192,24123,12,0,25486
106,155,27304,6,0,B|115:90|198:108,1,105
288,105,28213,1,0
288,105,28395,1,8
388,138,28759,6,0,B|384:210|310:207,1,105
218,206,29668,1,0
218,206,29850,1,8
144,281,30213,6,0,B|178:313|210:280,1,70,0|8
311,283,30941,2,0,B|350:320|382:272,1,70,0|8
298,211,31668,2,0,B|265:188,4,35,8|0|8|0|8
112,88,33123,6,0,B|145:153,1,70,0|8
167,197,33668,1,0
208,294,34032,1,0
208,294,34213,1,8
314,294,34577,6,0,B|348:222,1,70,0|8
364,182,35123,1,0
408,87,35486,1,0
408,87,35668,1,8
303,87,36032,6,0,B|223:87,1,70,0|8
233,192,36759,2,0,B|309:191,1,70,0|8
283,294,37486,2,0,B|235:294,4,35,8|0|8|0|8
228,66,50577,6,0,B|298:66,2,52.5,8|0|8
260,220,51668,1,8
235,322,52032,6,0,B|296:322,2,52.5,8|0|8
264,167,53123,1,8
295,67,53486,6,0,B|234:67,2,52.5,8|0|8
265,222,54577,1,8
190,147,54941,5,8
295,147,55304,1,0
295,147,55486,1,8
400,147,55850,1,8
400,147,56032,1,8
368,247,56395,6,0,B|369:181,2,52.5,8|0|8
207,224,57486,1,8
104,249,57850,6,0,B|105:192,2,52.5,8|0|8
266,225,58941,1,8
340,299,59304,5,0
265,224,59668,1,8
191,150,60032,1,0
117,76,60395,1,8
256,192,60759,12,0,61850
256,192,72395,12,4,73486
117,253,73850,6,0,C|173:253,2,52.5,8|0|8
145,151,74759,1,0
145,151,74941,1,8
193,58,75304,2,2,B|142:30|88:60,2,105
351,58,76941,5,8
405,148,77304,1,0
405,148,77486,1,8
405,253,77850,1,0
405,253,78032,1,8
331,327,78395,1,0
331,327,78577,1,8
226,327,78941,6,2,B|226:243,1,70
320,211,79668,5,0
320,53,80213,1,8
215,53,80577,1,0
215,53,80759,1,8
141,128,81123,6,0,B|187:157|250:127,2,105,0|8|8
141,285,82759,5,2
246,285,83123,1,0
246,285,83304,1,2
351,285,83668,1,2
256,192,84032,12,4,85304
