osu file format v12

[General]
AudioFilename: 03 Duel & Cloudscapes.mp3
AudioLeadIn: 0
PreviewTime: 45148
Countdown: 0
SampleSet: Soft
StackLeniency: 0.5
Mode: 0
LetterboxInBreaks: 1
WidescreenStoryboard: 1

[Editor]
DistanceSpacing: 0.8
BeatDivisor: 16
GridSize: 32
TimelineZoom: 1.7

[Metadata]
Title:Duel & Cloudscapes
TitleUnicode:Duel & Cloudscapes
Artist:Tuomas Holopainen
ArtistUnicode:Tuomas Holopainen
Creator:Sancteria
Version:Sea Storm
Source:
Tags:Nightwish Tuomas Holopainen Sancteria
BeatmapID:418382
BeatmapSetID:173130

[Difficulty]
HPDrainRate:6
CircleSize:5
OverallDifficulty:6
ApproachRate:7
SliderMultiplier:2.50000000596047
SliderTickRate:2

[Events]
//Background and Video events
0,0,"art-max-qin-sea-ship-boat-storm-waves-wreck-shipwreck.jpg",0,0
//Break Periods
2,68554,71689
2,108083,112600
2,187141,191688
//Storyboard Layer 0 (Background)
//Storyboard Layer 1 (Fail)
//Storyboard Layer 2 (Pass)
//Storyboard Layer 3 (Foreground)
//Storyboard Sound Samples
//Background Colour Transformations
3,100,163,162,255

[TimingPoints]
590.62299094727,705.882352941176,4,2,0,100,1,0
34472,705.882352941176,4,2,0,100,1,0
68442,-100,4,2,0,100,0,0
72589,705.882352941176,4,2,0,100,1,0
113500,-66.6666666666667,4,2,0,100,0,0

[Colours]
Combo1 : 0,0,0
Combo2 : 9,135,176
Combo3 : 115,134,157
Combo4 : 0,2,102
Combo5 : 84,198,235
Combo6 : 95,3,124

[HitObjects]
256,32,34472,5,0,0:0:0:0:
256,128,34824,1,2,0:0:0:0:
256,224,35177,1,0,0:0:0:0:
256,128,35530,1,2,0:0:0:0:
256,64,35707,2,0,L|192:64,1,62.5000001490117
96,96,36236,1,2,0:0:0:0:
128,192,36589,2,0,L|128:320,1,125.000000298023,0|2,0:0|0:0,0:0:0:0:
256,352,37295,5,0,0:0:0:0:
256,256,37648,1,2,0:0:0:0:
256,160,38001,1,0,0:0:0:0:
256,256,38354,1,2,0:0:0:0:
352,256,38707,2,0,P|416:256|480:224,1,125.000000298023,0|2,0:0|0:0,0:0:0:0:
448,128,39413,2,0,P|384:128|320:160,1,125.000000298023,0|2,0:0|0:0,0:0:0:0:
256,64,40119,5,0,0:0:0:0:
256,160,40472,1,2,0:0:0:0:
256,256,40824,1,0,0:0:0:0:
256,352,41177,2,0,L|192:320,2,62.5000001490117,2|0|0,0:0|0:0|0:0,0:0:0:0:
256,256,41883,1,2,0:0:0:0:
256,160,42236,1,0,0:0:0:0:
256,64,42589,1,2,0:0:0:0:
256,160,42942,6,0,L|384:224,1,125.000000298023,0|2,0:0|0:0,0:0:0:0:
256,256,43648,2,0,L|160:352,1,125.000000298023,0|2,0:0|0:0,0:0:0:0:
256,288,44354,2,0,P|320:256|320:192,1,125.000000298023,0|2,0:0|0:0,0:0:0:0:
256,160,45060,2,0,P|192:192|192:256,1,125.000000298023,0|2,0:0|0:0,0:0:0:0:
256,32,45766,5,0,0:0:0:0:
256,32,46119,2,0,L|256:160,1,125.000000298023,2|0,0:0|0:0,0:0:0:0:
256,256,46824,1,2,0:0:0:0:
256,320,47001,1,0,0:0:0:0:
256,256,47177,2,0,L|256:320,2,62.5000001490117,0|0|2,0:0|0:0|0:0,0:0:0:0:
256,160,47883,1,0,0:0:0:0:
256,64,48236,5,2,0:0:0:0:
320,64,48413,1,0,0:0:0:0:
384,64,48589,2,0,P|384:192|256:224,1,250.000000596047
256,288,49471,1,0,0:0:0:0:
256,352,49648,1,2,0:0:0:0:
160,352,50001,2,0,P|133:310|128:224,1,125.000000298023,0|2,0:0|0:0,0:0:0:0:
128,192,50530,1,0,0:0:0:0:
128,128,50707,2,0,L|128:256,1,125.000000298023,0|2,0:0|0:0,0:0:0:0:
32,256,51413,5,0,0:0:0:0:
32,256,51766,2,0,L|32:128,1,125.000000298023,2|0,0:0|0:0,0:0:0:0:
32,32,52471,1,2,0:0:0:0:
96,32,52648,1,0,0:0:0:0:
32,32,52824,2,0,L|96:32,2,62.5000001490117,0|0|2,0:0|0:0|0:0,0:0:0:0:
32,128,53530,1,0,0:0:0:0:
32,224,53883,1,2,0:0:0:0:
128,224,54236,5,0,0:0:0:0:
224,224,54589,1,2,0:0:0:0:
256,128,54942,1,0,0:0:0:0:
256,64,55119,1,0,0:0:0:0:
256,128,55295,1,2,0:0:0:0:
256,224,55648,2,0,L|256:352,1,125.000000298023,0|2,0:0|0:0,0:0:0:0:
256,349,56177,1,0,0:0:0:0:
192,352,56354,2,0,P|128:288|128:256,1,125.000000298023,0|2,0:0|0:0,0:0:0:0:
128,160,57060,5,0,0:0:0:0:
128,64,57413,2,0,L|256:64,1,125.000000298023,2|0,0:0|0:0,0:0:0:0:
352,64,58118,1,2,0:0:0:0:
416,64,58295,1,0,0:0:0:0:
352,64,58471,2,0,L|416:64,2,62.5000001490117,0|0|2,0:0|0:0|0:0,0:0:0:0:
256,64,59177,1,0,0:0:0:0:
352,64,59530,5,2,0:0:0:0:
416,64,59707,1,0,0:0:0:0:
480,64,59883,2,0,P|480:192|352:224,1,250.000000596047
384,288,60765,1,0,0:0:0:0:
384,352,60942,1,2,0:0:0:0:
480,352,61295,2,0,P|544:288|544:256,1,125.000000298023,0|2,0:0|0:0,0:0:0:0:
480,256,61824,1,0,0:0:0:0:
480,192,62001,2,0,L|480:320,1,125.000000298023,0|2,0:0|0:0,0:0:0:0:
384,256,62707,5,0,0:0:0:0:
384,160,63060,2,0,L|384:32,1,125.000000298023,2|0,0:0|0:0,0:0:0:0:
288,32,63765,1,2,0:0:0:0:
352,32,63942,1,0,0:0:0:0:
288,32,64118,2,0,L|352:32,2,62.5000001490117,0|0|2,0:0|0:0|0:0,0:0:0:0:
192,32,64824,1,0,0:0:0:0:
192,128,65177,1,2,0:0:0:0:
288,128,65530,5,0,0:0:0:0:
384,128,65883,1,2,0:0:0:0:
288,128,66236,1,0,0:0:0:0:
288,64,66413,1,0,0:0:0:0:
288,128,66589,1,2,0:0:0:0:
192,64,66942,2,0,B|96:160|288:160|160:288,1,250.000000596047
256,288,68001,1,2,0:0:0:0:
256,192,68354,1,4,0:0:0:0:
256,96,72589,6,0,L|256:32,1,62.5000001490117
256,160,72941,1,2,0:0:0:0:
256,224,73118,1,0,0:0:0:0:
256,160,73294,1,0,0:0:0:0:
160,96,73647,1,2,0:0:0:0:
160,160,73824,1,0,0:0:0:0:
160,256,74177,2,0,L|160:320,1,62.5000001490117,0|2,0:0|0:0,0:0:0:0:
224,320,74530,1,0,0:0:0:0:
288,320,74706,1,0,0:0:0:0:
320,224,75059,1,2,0:0:0:0:
416,224,75412,5,0,0:0:0:0:
416,160,75589,1,0,0:0:0:0:
416,96,75765,2,0,L|288:96,1,125.000000298023,2|0,0:0|0:0,0:0:0:0:
192,96,76471,1,2,0:0:0:0:
192,160,76647,1,0,0:0:0:0:
192,224,76824,6,0,P|320:288|416:224,2,250.000000596047
256,32,78941,1,0,0:0:0:0:
192,224,79647,2,0,P|320:160|416:224,2,250.000000596047
256,320,81412,5,2,0:0:0:0:
256,256,81589,1,0,0:0:0:0:
256,320,81765,1,0,0:0:0:0:
352,320,82118,1,2,0:0:0:0:
448,320,82471,5,0,0:0:0:0:
352,320,82824,1,2,0:0:0:0:
352,224,83000,1,0,0:0:0:0:
352,224,83177,1,0,0:0:0:0:
256,224,83530,1,2,0:0:0:0:
256,128,83883,5,0,0:0:0:0:
128,128,84236,1,2,0:0:0:0:
64,128,84412,1,0,0:0:0:0:
128,128,84589,1,0,0:0:0:0:
64,224,84941,1,2,0:0:0:0:
64,320,85294,5,0,0:0:0:0:
160,320,85647,2,0,L|288:320,1,125.000000298023,2|0,0:0|0:0,0:0:0:0:
384,320,86352,1,2,0:0:0:0:
448,320,86529,1,0,0:0:0:0:
384,320,86705,2,0,L|448:320,2,62.5000001490117,0|0|2,0:0|0:0|0:0,0:0:0:0:
288,320,87412,1,0,0:0:0:0:
192,320,87764,5,2,0:0:0:0:
192,256,87941,1,0,0:0:0:0:
192,192,88117,2,0,P|320:128|416:192,1,250.000000596047
416,224,88999,1,0,0:0:0:0:
416,288,89176,1,2,0:0:0:0:
320,352,89529,2,0,P|256:288|256:256,1,125.000000298023,0|2,0:0|0:0,0:0:0:0:
320,192,90058,1,0,0:0:0:0:
320,128,90235,2,0,L|320:256,1,125.000000298023,0|2,0:0|0:0,0:0:0:0:
224,256,90941,5,0,0:0:0:0:
128,256,91294,2,0,L|128:128,1,125.000000298023,2|0,0:0|0:0,0:0:0:0:
224,128,91999,1,2,0:0:0:0:
288,128,92176,1,0,0:0:0:0:
224,128,92352,2,0,L|288:128,2,62.5000001490117,0|0|2,0:0|0:0|0:0,0:0:0:0:
224,32,93058,1,0,0:0:0:0:
128,32,93411,1,2,0:0:0:0:
32,32,93764,5,0,0:0:0:0:
32,128,94117,1,2,0:0:0:0:
32,224,94470,1,0,0:0:0:0:
32,288,94647,1,0,0:0:0:0:
32,224,94823,1,2,0:0:0:0:
96,288,95176,2,0,L|224:288,1,125.000000298023,0|2,0:0|0:0,0:0:0:0:
224,352,95705,1,0,0:0:0:0:
288,352,95882,2,0,P|352:288|352:256,1,125.000000298023,0|2,0:0|0:0,0:0:0:0:
352,160,96588,5,0,0:0:0:0:
256,160,96941,2,0,P|224:160|160:96,1,125.000000298023,2|0,0:0|0:0,0:0:0:0:
256,64,97646,1,2,0:0:0:0:
320,64,97823,1,0,0:0:0:0:
256,64,97999,2,0,L|320:64,3,62.5000001490117,0|0|2|0,0:0|0:0|0:0|0:0,0:0:0:0:
320,128,98706,1,0,0:0:0:0:
320,224,99058,5,2,0:0:0:0:
256,320,99411,2,0,P|192:192|256:96,1,250.000000596047
288,96,100293,1,0,0:0:0:0:
352,96,100470,1,2,0:0:0:0:
448,96,100824,2,0,P|448:128|384:192,1,125.000000298023,0|2,0:0|0:0,0:0:0:0:
384,256,101352,1,0,0:0:0:0:
320,256,101530,2,0,L|256:256,2,62.5000001490117,0|0|2,0:0|0:0|0:0,0:0:0:0:
320,352,102235,5,0,0:0:0:0:
320,256,102588,2,0,L|320:128,1,125.000000298023,2|0,0:0|0:0,0:0:0:0:
256,32,103293,1,2,0:0:0:0:
320,32,103470,1,0,0:0:0:0:
256,32,103646,2,0,L|320:32,2,62.5000001490117,0|0|2,0:0|0:0|0:0,0:0:0:0:
160,32,104352,1,0,0:0:0:0:
160,128,104705,1,2,0:0:0:0:
160,224,105058,5,0,0:0:0:0:
160,128,105411,1,2,0:0:0:0:
160,32,105764,1,0,0:0:0:0:
224,32,105941,1,0,0:0:0:0:
160,32,106117,1,2,0:0:0:0:
160,128,106470,2,0,L|288:128,1,125.000000298023,0|2,0:0|0:0,0:0:0:0:
288,192,106999,1,0,0:0:0:0:
352,192,107176,2,0,P|416:128|416:96,1,125.000000298023,0|2,0:0|0:0,0:0:0:0:
352,192,107883,1,4,0:0:0:0:
96,192,113500,5,2,0:0:0:0:
256,192,113853,1,2,0:0:0:0:
416,192,114206,1,2,0:0:0:0:
256,192,114558,1,2,0:0:0:0:
256,256,114721,1,2,0:0:0:0:
256,320,114867,1,2,0:0:0:0:
256,256,115044,1,2,0:0:0:0:
256,320,115220,1,2,0:0:0:0:
256,192,115559,1,2,0:0:0:0:
416,192,119177,5,2,0:0:0:0:
256,192,119530,1,2,0:0:0:0:
96,192,119883,1,2,0:0:0:0:
256,192,120191,1,2,0:0:0:0:
256,128,120368,1,2,0:0:0:0:
256,64,120544,1,2,0:0:0:0:
256,128,120721,1,2,0:0:0:0:
256,64,120897,1,2,0:0:0:0:
256,192,121236,1,2,0:0:0:0:
96,32,124824,5,0,0:0:0:0:
256,32,125177,1,0,0:0:0:0:
416,32,125530,1,0,0:0:0:0:
416,192,125883,2,0,L|320:192,1,93.7500037997964
256,192,126236,1,0,0:0:0:0:
256,128,126412,1,0,0:0:0:0:
320,128,126588,1,0,0:0:0:0:
256,256,126941,1,0,0:0:0:0:
96,256,127294,2,0,L|192:256,1,93.7500037997964
192,192,127647,5,0,0:0:0:0:
192,32,128000,1,0,0:0:0:0:
32,32,128353,1,0,0:0:0:0:
32,96,128530,2,0,L|32:192,1,93.7500037997964
32,32,129059,1,0,0:0:0:0:
256,352,130471,5,0,0:0:0:0:
256,192,130824,1,0,0:0:0:0:
256,32,131177,1,0,0:0:0:0:
256,192,131530,2,0,L|256:288,1,93.7500037997964
256,192,131883,1,0,0:0:0:0:
320,192,132059,1,0,0:0:0:0:
384,192,132236,1,0,0:0:0:0:
384,32,132588,1,0,0:0:0:0:
384,192,132941,2,0,L|384:96,1,93.7500037997964
384,192,133294,5,0,0:0:0:0:
384,352,133647,1,0,0:0:0:0:
256,288,134000,2,0,P|192:288|192:256,2,93.7500037997964
256,128,134706,1,0,0:0:0:0:
128,192,135015,1,0,0:0:0:0:
192,192,135191,1,0,0:0:0:0:
256,192,135368,1,0,0:0:0:0:
320,192,135544,1,0,0:0:0:0:
384,192,135721,1,0,0:0:0:0:
448,192,135897,1,0,0:0:0:0:
448,96,136118,5,0,0:0:0:0:
288,96,136471,1,0,0:0:0:0:
128,96,136824,1,0,0:0:0:0:
128,256,137177,2,0,B|160:256|192:224|160:192|128:192|96:224|64:288,1,187.500007599593
64,352,137706,1,0,0:0:0:0:
128,352,137883,1,0,0:0:0:0:
256,288,138236,1,0,0:0:0:0:
416,288,138588,2,0,B|443:233|475:201|507:201|539:233|507:265|475:265,1,187.500007599593
352,352,139294,1,0,0:0:0:0:
256,224,139647,1,0,0:0:0:0:
256,160,139824,1,0,0:0:0:0:
256,224,140000,1,0,0:0:0:0:
128,160,140353,2,0,B|128:128|160:96|192:64|256:32|320:64|352:96|384:128|480:128,2,375.000015199186
256,192,142118,5,0,0:0:0:0:
256,352,142471,1,0,0:0:0:0:
256,192,142824,2,0,L|256:96,1,93.7500037997964
320,96,143177,2,0,L|320:192,2,93.7500037997964
320,256,143883,1,0,0:0:0:0:
192,192,144236,2,0,L|192:96,1,93.7500037997964
192,32,144588,5,0,0:0:0:0:
32,32,144941,1,0,0:0:0:0:
32,192,145294,1,0,0:0:0:0:
32,128,145471,2,0,L|32:32,1,93.7500037997964
256,224,146353,1,0,0:0:0:0:
256,224,146486,1,0,0:0:0:0:
256,160,146662,1,0,0:0:0:0:
256,160,146838,1,0,0:0:0:0:
256,96,147015,1,0,0:0:0:0:
256,96,147191,1,0,0:0:0:0:
256,0,147412,6,0,L|256:192,1,187.500007599593
256,256,147941,1,0,0:0:0:0:
192,320,148118,2,0,L|288:224,1,93.7500037997964
320,320,148471,2,0,L|224:224,1,93.7500037997964
256,320,148824,6,0,L|256:128,1,187.500007599593
256,64,149353,1,0,0:0:0:0:
320,0,149530,2,0,L|224:96,1,93.7500037997964
192,0,149883,2,0,L|288:96,1,93.7500037997964
256,128,150236,6,0,L|256:320,1,187.500007599593
192,320,150765,1,0,0:0:0:0:
128,320,150941,2,0,B|64:288|64:256|64:224,1,93.7500037997964
128,192,151294,2,0,B|126:189|94:189|62:253,1,93.7500037997964
128,256,151647,5,0,0:0:0:0:
192,256,151780,1,0,0:0:0:0:
256,256,151956,1,0,0:0:0:0:
320,256,152133,1,0,0:0:0:0:
416,256,152353,2,0,B|448:224|384:192|448:160|384:128|448:96|384:64|448:32|384:0|256:0,1,375.000015199186
256,64,153236,5,0,0:0:0:0:
256,64,153412,2,0,B|224:64|192:96|192:128,1,93.7500037997964
256,64,153765,2,0,B|288:64|320:96|320:128,1,93.7500037997964
256,160,154118,1,0,0:0:0:0:
256,320,154471,5,0,0:0:0:0:
256,320,154647,2,0,B|224:320|192:288|192:256,1,93.7500037997964
256,320,155000,2,0,B|288:320|320:288|320:256,1,93.7500037997964
448,192,155530,5,0,0:0:0:0:
320,96,155883,2,0,L|320:192,1,93.7500037997964
256,192,156236,2,0,L|256:96,1,93.7500037997964
256,192,156588,1,0,0:0:0:0:
128,256,156941,5,0,0:0:0:0:
128,256,157118,1,0,0:0:0:0:
192,320,157294,1,0,0:0:0:0:
192,320,157471,1,0,0:0:0:0:
256,320,157647,1,0,0:0:0:0:
256,192,158000,1,0,0:0:0:0:
256,192,158177,1,0,0:0:0:0:
320,192,158353,1,0,0:0:0:0:
384,256,158530,1,0,0:0:0:0:
384,256,158706,1,0,0:0:0:0:
256,352,160118,5,0,0:0:0:0:
256,192,160471,1,0,0:0:0:0:
256,32,160824,1,0,0:0:0:0:
256,192,161177,2,0,L|160:192,1,93.7500037997964
96,192,161530,1,0,0:0:0:0:
96,128,161706,1,0,0:0:0:0:
96,64,161882,1,0,0:0:0:0:
256,64,162236,1,0,0:0:0:0:
96,64,162588,2,0,L|192:64,1,93.7500037997964
256,64,162941,5,0,0:0:0:0:
416,64,163294,1,0,0:0:0:0:
416,224,163647,1,0,0:0:0:0:
352,224,163824,2,0,B|320:224|288:192|256:160,1,93.7500037997964
256,32,164353,1,0,0:0:0:0:
256,32,165765,5,0,0:0:0:0:
256,192,166118,1,0,0:0:0:0:
256,352,166471,1,0,0:0:0:0:
256,192,166824,2,0,L|256:288,1,93.7500037997964
256,352,167177,1,0,0:0:0:0:
320,352,167353,1,0,0:0:0:0:
384,352,167530,1,0,0:0:0:0:
384,192,167882,1,0,0:0:0:0:
384,352,168235,2,0,L|384:256,1,93.7500037997964
384,192,168588,5,0,0:0:0:0:
384,352,168941,1,0,0:0:0:0:
384,192,169294,2,0,P|448:192|448:224,2,93.7500037997964
448,64,170000,1,0,0:0:0:0:
448,192,170309,1,0,0:0:0:0:
384,192,170485,1,0,0:0:0:0:
320,192,170662,1,0,0:0:0:0:
256,192,170838,1,0,0:0:0:0:
192,192,171015,1,0,0:0:0:0:
128,192,171191,1,0,0:0:0:0:
128,320,171412,5,0,0:0:0:0:
256,224,171765,1,0,0:0:0:0:
384,128,172118,1,0,0:0:0:0:
256,32,172471,2,0,P|192:64|256:128,1,187.500007599593
320,128,173000,1,0,0:0:0:0:
384,128,173177,1,0,0:0:0:0:
256,192,173530,1,0,0:0:0:0:
256,352,173883,2,0,P|318:301|252:254,1,187.500007599593
96,256,174588,1,0,0:0:0:0:
96,96,174941,1,0,0:0:0:0:
96,160,175118,1,0,0:0:0:0:
160,192,175294,1,0,0:0:0:0:
224,32,175647,2,0,B|256:32|160:64|320:96|320:160|320:224|288:256|160:288|256:384,2,375.000015199186
352,96,177412,5,0,0:0:0:0:
352,256,177765,1,0,0:0:0:0:
192,224,178118,2,0,L|192:128,1,93.7500037997964
256,128,178471,2,0,L|256:224,2,93.7500037997964
416,128,179177,1,0,0:0:0:0:
320,224,179530,2,0,L|320:128,1,93.7500037997964
256,128,179882,5,0,0:0:0:0:
256,288,180235,1,0,0:0:0:0:
416,288,180588,1,0,0:0:0:0:
416,224,180765,2,0,L|416:128,1,93.7500037997964
256,224,181294,5,0,0:0:0:0:
256,224,181427,1,0,0:0:0:0:
256,160,181603,1,0,0:0:0:0:
256,160,181779,1,0,0:0:0:0:
256,224,181956,1,0,0:0:0:0:
96,160,182353,5,0,0:0:0:0:
96,160,182486,1,0,0:0:0:0:
96,224,182662,1,0,0:0:0:0:
96,224,182838,1,0,0:0:0:0:
96,160,183015,1,0,0:0:0:0:
192,32,183412,5,0,0:0:0:0:
256,32,183545,1,0,0:0:0:0:
320,32,183721,1,0,0:0:0:0:
384,32,183897,1,0,0:0:0:0:
448,32,184074,1,0,0:0:0:0:
384,192,184471,5,0,0:0:0:0:
256,288,184824,2,0,P|160:320|160:288,2,187.500007599593
384,192,185883,1,0,0:0:0:0:
224,192,186236,1,0,0:0:0:0:
64,192,186588,1,0,0:0:0:0:
224,192,186941,1,0,0:0:0:0:
256,192,192588,5,0,0:0:0:0:
256,192,194706,1,0,0:0:0:0:
0,32,195412,1,0,0:0:0:0:
0,320,196118,1,0,0:0:0:0:
256,192,196824,1,0,0:0:0:0:
256,192,201059,5,0,0:0:0:0:
256,192,203177,1,0,0:0:0:0:
480,384,203883,1,0,0:0:0:0:
480,96,204588,1,0,0:0:0:0:
256,320,205294,1,0,0:0:0:0:
384,32,209530,6,0,B|288:32|192:64|96:96|32:160|32:256|64:352|128:352|224:352|352:352|448:288|480:192|384:96|288:64|192:96|96:192|96:256|224:288|320:192,1,1125.00004559756
0,192,212353,1,0,0:0:0:0:
256,32,213059,1,0,0:0:0:0:
512,192,213765,1,0,0:0:0:0:
288,192,214294,5,0,0:0:0:0:
64,192,214824,2,0,L|160:192,1,93.7500037997964
64,192,215177,1,0,0:0:0:0:
64,256,215353,1,0,0:0:0:0:
192,320,215706,1,0,0:0:0:0:
352,192,216236,2,0,L|224:192,1,93.7500037997964
416,192,216588,1,0,0:0:0:0:
416,128,216765,1,0,0:0:0:0:
256,128,217118,1,0,0:0:0:0:
256,352,217647,1,0,0:0:0:0:
256,288,217824,1,0,0:0:0:0:
256,224,218000,2,0,B|343:311|471:279|471:215|375:119|279:87|183:119|87:215|119:311|215:375|343:375|439:375|503:375|535:279|535:183|471:119|375:87|279:55|183:55,1,1125.00004559756
256,352,220824,5,0,0:0:0:0:
256,64,221530,1,0,0:0:0:0:
256,352,222236,1,0,0:0:0:0:
416,192,222765,1,0,0:0:0:0:
192,192,223295,6,0,L|288:192,1,93.7500037997964
352,192,223648,1,0,0:0:0:0:
288,192,223824,1,0,0:0:0:0:
256,352,224177,1,0,0:0:0:0:
256,128,224707,2,0,L|128:128,1,93.7500037997964
96,128,225059,1,0,0:0:0:0:
160,128,225236,1,0,0:0:0:0:
256,256,225588,1,0,0:0:0:0:
256,32,226118,1,0,0:0:0:0:
256,96,226295,1,0,0:0:0:0:
256,160,226471,5,0,0:0:0:0:
256,320,226824,1,0,0:0:0:0:
256,256,227000,1,0,0:0:0:0:
128,160,227353,1,0,0:0:0:0:
128,96,227530,1,0,0:0:0:0:
128,256,227883,1,0,0:0:0:0:
128,320,228059,1,0,0:0:0:0:
128,160,228412,1,0,0:0:0:0:
128,96,228588,1,0,0:0:0:0:
256,192,228941,1,0,0:0:0:0:
256,352,229294,5,0,0:0:0:0:
416,352,229647,1,0,0:0:0:0:
416,192,230000,1,0,0:0:0:0:
416,32,230353,1,0,0:0:0:0:
256,32,230706,5,0,0:0:0:0:
256,192,231059,1,0,0:0:0:0:
320,192,231236,1,0,0:0:0:0:
96,192,231765,2,0,L|96:288,1,93.7500037997964
160,288,232118,5,0,0:0:0:0:
320,288,232471,1,0,0:0:0:0:
384,288,232647,1,0,0:0:0:0:
384,64,233177,2,0,L|384:160,1,93.7500037997964
320,160,233530,1,0,0:0:0:0:
160,160,233883,1,0,0:0:0:0:
160,96,234059,1,0,0:0:0:0:
384,64,234589,2,0,L|384:160,1,93.7500037997964
320,160,234941,5,0,0:0:0:0:
256,288,235294,1,0,0:0:0:0:
256,352,235471,1,0,0:0:0:0:
192,352,235647,1,0,0:0:0:0:
192,288,235824,1,0,0:0:0:0:
256,288,236000,1,0,0:0:0:0:
256,128,236353,1,0,0:0:0:0:
384,64,236706,1,0,0:0:0:0:
384,128,236883,1,0,0:0:0:0:
320,128,237059,1,0,0:0:0:0:
320,64,237236,1,0,0:0:0:0:
384,64,237412,1,0,0:0:0:0:
256,128,237765,6,0,B|160:160|96:224|96:320|256:320|320:288,2,375.000015199186
352,12,239530,5,0,0:0:0:0:
412,57,239707,1,0,0:0:0:0:
394,129,239883,1,0,0:0:0:0:
318,131,240060,1,0,0:0:0:0:
293,60,240236,1,0,0:0:0:0:
256,192,240588,1,0,0:0:0:0:
128,256,240941,5,0,0:0:0:0:
188,301,241118,1,0,0:0:0:0:
170,373,241294,1,0,0:0:0:0:
94,375,241471,1,0,0:0:0:0:
69,304,241647,1,0,0:0:0:0:
256,192,242000,1,0,0:0:0:0:
112,149,242353,2,0,L|208:85,1,93.7500037997964
256,64,242706,1,0,0:0:0:0:
322,100,242883,2,0,L|418:164,1,93.7500037997964
256,192,243412,12,0,245530,0:0:0:0:
224,96,246236,6,0,P|320:128|352:224,1,187.500007599593,0|2,0:0|0:0,0:0:0:0:
256,320,246942,2,0,P|160:288|128:192,1,187.500007599593,0|2,0:0|0:0,0:0:0:0:
224,96,247647,5,0,0:0:0:0:
256,256,248000,2,0,L|256:160,2,93.7500037997964
256,256,248530,1,0,0:0:0:0:
320,256,248706,1,0,0:0:0:0:
416,128,249059,5,0,0:0:0:0:
256,96,249412,2,0,L|256:0,2,93.7500037997964
256,160,249942,1,0,0:0:0:0:
192,160,250118,1,0,0:0:0:0:
256,32,250471,5,0,0:0:0:0:
128,128,250824,2,0,L|128:32,2,93.7500037997964
128,192,251354,1,0,0:0:0:0:
64,160,251486,1,0,0:0:0:0:
256,192,251883,12,0,254000,0:0:0:0:
256,352,254706,5,0,0:0:0:0:
256,192,255059,2,0,L|256:96,1,93.7500037997964
256,32,255412,1,0,0:0:0:0:
256,96,255588,2,0,L|256:192,1,93.7500037997964
128,288,256118,2,0,P|256:128|384:192,2,375.000015199186
256,192,257883,5,0,0:0:0:0:
256,128,258059,1,0,0:0:0:0:
256,64,258236,1,0,0:0:0:0:
320,64,258412,1,0,0:0:0:0:
256,64,258588,1,0,0:0:0:0:
96,64,258941,5,0,0:0:0:0:
96,224,259294,1,0,0:0:0:0:
96,288,259471,1,0,0:0:0:0:
96,352,259647,1,0,0:0:0:0:
160,352,259824,1,0,0:0:0:0:
160,288,260000,1,0,0:0:0:0:
256,192,260353,12,0,262471,0:0:0:0:
256,64,263177,6,0,P|192:160|128:160,1,187.500007599593
256,64,263883,6,0,P|320:160|384:160,1,187.500007599593
256,256,264588,5,0,0:0:0:0:
256,96,264941,2,0,L|256:0,2,93.7500037997964
224,160,265471,1,0,0:0:0:0:
288,160,265647,2,0,L|256:256,1,93.7500037997964
256,320,266000,1,0,0:0:0:0:
416,320,266353,5,0,0:0:0:0:
416,256,266530,1,0,0:0:0:0:
352,256,266706,1,0,0:0:0:0:
352,320,266883,1,0,0:0:0:0:
352,256,267059,2,0,L|381:167,1,93.7500037997964
384,96,267412,1,0,0:0:0:0:
256,0,267765,5,0,0:0:0:0:
192,0,267942,1,0,0:0:0:0:
192,64,268118,1,0,0:0:0:0:
256,64,268295,1,0,0:0:0:0:
256,128,268471,2,0,L|256:224,1,93.7500037997964
256,288,268824,2,0,P|160:192|256:0,2,375.000015199186
256,128,270588,5,0,0:0:0:0:
256,288,270941,1,0,0:0:0:0:
128,192,271294,1,0,0:0:0:0:
256,128,271647,2,0,P|352:192|256:288,1,281.250011399389
256,128,272353,2,0,P|160:192|256:288,1,281.250011399389
256,224,273059,1,4,0:0:0:0:
