osu file format v9

[General]
AudioFilename: Nightcore - Feel Fine.mp3
AudioLeadIn: 0
PreviewTime: 42941
Countdown: 0
SampleSet: Soft
StackLeniency: 0.4
Mode: 0
LetterboxInBreaks: 1

[Editor]
Bookmarks: 42938
DistanceSpacing: 0.8
BeatDivisor: 4
GridSize: 8

[Metadata]
Title:Feel Fine (Nightcore Mix)
Artist:Tune Up
Creator:Xeno32
Version:Normal
Source:Eurodance Group
Tags:Trance Techno Starrodkirby86

[Difficulty]
HPDrainRate:5
CircleSize:4
OverallDifficulty:5
ApproachRate:5
SliderMultiplier:1
SliderTickRate:1

[Events]
//Background and Video events
0,0,"Background.jpg"
//Break Periods
2,65676,74135
//Storyboard Layer 0 (Background)
//Storyboard Layer 1 (Fail)
//Storyboard Layer 2 (Pass)
//Storyboard Layer 3 (Foreground)
//Storyboard Sound Samples
//Background Colour Transformations
3,100,163,162,255

[TimingPoints]
3505,352.112676056338,4,2,0,70,1,0
25864,-100,4,2,0,50,0,0
28681,-100,4,2,0,30,0,0
30441,-100,4,2,0,70,0,0
42938,-100,4,2,0,70,0,1
65475,-100,4,2,0,70,0,0
135902,-100,4,2,0,70,0,1
158438,-100,4,2,0,70,0,0

[Colours]
Combo1 : 128,0,255
Combo2 : 74,165,255
Combo3 : 255,145,255
Combo4 : 0,87,130

[HitObjects]
256,352,3505,1,2
256,272,3857,1,8
256,192,4209,1,2
416,192,4913,5,2
336,192,5265,1,8
256,192,5617,1,2
256,32,6321,5,2
256,112,6674,1,8
256,192,7026,1,2
96,192,7730,5,2
176,192,8082,1,8
256,192,8434,1,2
256,352,9138,5,8
256,272,9490,1,0
256,192,9843,1,8
256,112,10195,2,0,L|184:112,2,50,0|8|8
336,112,10899,1,0
416,112,11251,1,0
496,112,11603,6,0,L|496:40,2,50,0|8|8
496,192,12307,1,0
416,192,12659,1,8
416,272,13012,1,0
336,272,13364,1,4
24,192,14772,5,8
104,192,15124,1,0
184,192,15476,1,2
320,216,16004,2,0,L|320:144,5,50,0|8|0|0|0|2
256,16,17589,5,8
256,96,17941,1,0
256,176,18293,1,2
232,304,18821,2,0,L|282:304,5,50,0|8|0|0|0|2
256,144,20406,5,8
256,144,20758,1,0
176,144,21110,1,8
176,144,21462,2,0,L|176:194,2,50,8|0|8
176,64,22166,1,0
176,64,22519,1,4
256,64,22871,6,0,L|256:14,2,50,8|0|8
256,64,23575,1,0
256,144,23927,1,0
336,144,24279,1,0
336,64,24631,1,4
416,192,26040,5,2
336,176,26392,1,8
256,192,26744,1,4
176,208,27096,1,8
96,192,27448,1,2
256,352,28857,5,2
240,272,29209,1,8
256,192,29561,1,4
272,112,29913,1,8
256,32,30265,1,2
96,312,31674,5,2
96,232,32026,2,0,L|96:176,2,50,8|0|8
200,176,32906,6,0,L|217:222,1,50,2|2
256,208,33258,2,0,L|232:144,1,50,2|2
280,152,33610,2,0,L|297:198,1,50,2|2
448,240,34490,5,8
448,240,34843,2,0,L|448:184,2,50,8|0|8
328,128,35899,5,8
328,128,36251,2,0,L|272:128,2,50,8|0|8
216,240,37307,5,8
216,240,37659,2,0,L|216:184,2,50,8|0|8
136,240,38364,5,4
136,240,38716,2,0,L|112:176,1,50,8|0
128,152,39068,2,0,L|145:105,2,50,8|0|8
288,184,40124,5,8
288,184,40476,2,0,L|344:184,2,50,8|0|8
96,128,42941,5,0
96,128,43293,1,8
176,128,43645,1,0
176,128,43997,2,0,L|176:228,1,100,8|0
232,288,44702,5,8
232,288,45054,2,0,L|232:184,1,100,0|8
288,128,45758,5,0
288,128,46110,2,0,L|288:228,1,100,8|0
352,272,46814,2,0,L|456:272,2,100,8|0|8
287,223,47871,1,0
232,168,48223,2,0,L|154:90,1,100,8|4
112,32,48927,5,8
192,32,49279,1,0
272,32,49631,1,8
328,88,49983,5,0
328,88,50335,2,0,L|328:188,2,100,8|0|8
264,136,51392,2,0,L|264:32,1,100,4|8
192,72,52096,5,0
112,64,52448,1,8
144,136,52800,1,0
224,144,53152,2,0,L|224:194,6,50,8|0|8|0|8|0|4
304,144,54561,5,8
304,224,54913,1,0
224,248,55265,2,0,B|231:275|247:296|283:310|312:309,1,100,8|0
368,272,55969,5,8
368,192,56321,2,0,B|395:185|416:169|430:133|429:104,1,100,0|8
344,120,57026,5,0
320,40,57378,2,0,B|293:47|272:63|258:99|259:128,1,100,8|0
296,184,58082,5,8
288,264,58434,2,0,B|274:265|238:251|222:230|215:203,2,100,0|8|0
312,344,59490,2,0,B|339:337|360:321|374:285|369:255,1,100,8|0
368,192,60195,6,0,L|268:192,1,100,8|0
296,120,60899,1,8
296,120,61251,1,0
264,192,61603,2,0,L|164:192,2,100,8|0|8
344,192,62659,6,0,L|444:192,1,100,0|8
400,120,63364,1,0
400,120,63716,1,8
328,88,64068,2,0,L|328:24,6,50,8|0|8|0|0|8|8
304,168,65476,1,4
288,192,75335,6,0,L|232:136,1,50,2|2
216,160,75688,2,0,L|184:200,1,50,2|2
192,240,76040,2,0,L|227:275,1,50,2|2
264,272,76392,2,0,L|299:236,1,50,2|2
288,192,76744,5,8
288,112,77096,1,0
208,112,77448,1,8
208,192,77800,1,0
288,192,78152,6,0,L|344:192,2,50,8|0|0
208,192,78857,1,8
128,192,79209,2,0,L|72:192,2,50,0|0|8
208,192,79913,5,0
208,272,80265,1,8
288,272,80617,1,0
288,192,80969,6,0,L|288:136,2,50,8|0|0
288,272,81674,2,0,L|288:344,2,50,8|0|0
288,192,82378,5,8
288,112,82730,1,0
208,112,83082,1,8
208,192,83434,1,0
208,272,83786,6,0,L|208:336,2,50,8|0|0
208,192,84490,1,8
208,112,84843,2,0,L|264:112,2,50,0|0|8
128,112,85547,5,0
48,112,85899,1,8
48,192,86251,1,0
48,272,86603,6,0,L|83:307,1,50,2|2
112,336,86955,2,0,L|143:296,1,50,2|2
168,272,87307,2,0,L|203:307,1,50,2|2
232,336,87659,2,0,L|272:296,1,50,2|2
272,264,88012,5,12
272,184,88364,1,0
272,104,88716,1,8
272,184,89068,1,0
272,104,89420,6,0,L|328:104,2,50,8|0|0
192,104,90124,1,8
112,104,90476,2,0,L|112:48,2,50,0|0|8
112,184,91181,5,0
192,184,91533,1,8
272,184,91885,1,0
272,264,92237,6,0,L|192:264,2,50,8|0|0
352,264,92941,2,0,L|416:264,2,50,8|0|0
272,264,93645,5,8
272,184,93997,1,0
352,184,94350,1,8
432,184,94702,1,0
432,104,95054,6,0,L|467:68,2,50,8|0|0
376,160,95758,1,0
320,216,96110,2,0,L|285:251,2,50,8|0|0
376,160,96814,5,8
312,104,97166,1,0
248,152,97519,1,8
168,152,97871,6,0,L|112:192,1,50
168,200,98223,2,0,L|128:232,1,50,2|2
168,240,98575,2,0,L|133:275,1,50,2|2
168,288,98927,2,0,L|134:323,1,50,2|2
256,192,99279,12,0,102096
256,192,102448,5,0
256,192,102800,1,2
369,305,103504,5,2
312,248,103857,1,0
256,192,104209,1,2
369,78,104913,5,2
312,135,105265,1,0
256,192,105617,1,2
142,78,106321,5,2
199,135,106674,1,0
256,192,107026,1,2
142,305,107730,5,8
199,248,108082,1,0
256,192,108434,1,0
312,135,108786,2,0,L|261:84,2,50,0|0|8
369,192,109490,1,0
425,248,109843,1,0
368,304,110195,6,0,L|332:339,2,50,0|0|8
424,248,110899,1,0
368,192,111251,1,0
312,248,111603,1,0
368,304,111955,1,8
91,27,113364,5,8
148,84,113716,1,0
205,141,114068,1,0
288,224,114596,2,0,L|339:173,5,50,0|8|0|0|0|0
417,31,116181,5,8
360,88,116533,1,0
304,144,116885,1,0
219,228,117413,2,0,L|255:263,5,50,0|8|0|0|0|0
328,120,118997,5,8
328,120,119350,1,0
232,120,119702,1,0
232,120,120054,2,0,L|197:155,2,50,8|0|8
280,40,120758,1,0
280,40,121110,1,0
328,120,121462,6,0,L|363:85,2,50,8|0|8
328,120,122166,1,0
264,168,122519,1,0
328,216,122871,1,0
392,168,123223,1,8
88,192,124631,5,8
144,248,124983,2,0,L|176:288,2,50,8|0|8
136,128,125864,6,0,L|168:176,1,50,2|2
200,160,126216,2,0,L|232:208,1,50,2|2
264,192,126568,2,0,L|296:240,1,50,2|2
384,160,127272,6,0,L|384:216,1,50,8|8
368,288,127800,2,0,L|416:288|416:288|440:256,1,75,8|8
256,288,128857,5,8
280,208,129209,2,0,L|280:129,2,50,8|0|8
160,200,130089,6,0,L|142:153,1,50,2|2
184,152,130441,2,0,L|166:105,1,50,2|2
208,104,130793,2,0,L|190:57,1,50,2|2
272,72,131321,5,8
272,72,131674,2,0,L|344:72,1,50,2|2
352,104,132026,2,0,L|352:168,2,50,2|0|2
472,80,132906,6,0,L|450:129,1,50,2|10
416,200,133434,2,0,L|376:280,1,75,8|8
344,128,134314,6,0,L|326:81,1,50,2|2
256,112,134843,2,0,L|256:168,2,50,8|0|8
120,32,135899,5,4
192,72,136251,1,8
120,104,136603,1,0
48,72,136955,2,0,B|24:96|24:120|24:144|48:168,1,100,8|0
120,184,137659,5,8
192,144,138012,2,0,B|210:162|210:186|210:210|186:234,1,100,0|8
120,184,138716,5,0
48,224,139068,2,0,B|24:248|24:272|24:296|48:320,1,100,8|0
112,272,139772,2,0,L|216:272,2,100,8|0|8
152,200,140828,1,0
201,140,141181,2,0,B|178:117|154:117|130:117|112:136,1,100,8|0
152,200,141885,1,8
232,216,142237,1,0
288,160,142589,5,8
368,144,142941,1,0
414,213,143293,2,0,B|406:237|374:253|342:237|336:216,2,100,8|0|8
368,144,144350,6,0,L|264:144,1,100,0|8
216,88,145054,1,0
168,152,145406,1,8
216,216,145758,1,0
136,240,146110,2,0,L|136:290,6,50,8|0|8|0|8|0|4
136,160,147519,5,8
136,160,147871,1,0
96,88,148223,2,0,B|114:69|138:69|162:69|186:93,1,100,8|0
256,128,148927,5,8
336,128,149279,2,0,B|368:176|336:228,1,100,0|8
256,224,149983,1,0
176,224,150335,2,0,B|147:177|179:129,1,100,8|0
256,128,151040,5,8
256,48,151392,2,0,L|156:48,1,100,0|8
152,128,152096,1,0
80,96,152448,2,0,L|80:196,1,100,8|0
112,272,153152,2,0,L|212:272,1,100,8|0
216,192,153857,5,8
216,112,154209,1,0
168,48,154561,2,0,B|216:24|274:52,2,100,8|0|8
216,112,155617,2,0,L|216:216,1,100,0|8
216,288,156321,1,0
216,288,156674,1,8
216,288,157026,2,0,L|216:344,8,50,0|0|0|0|0|0|0|0|4
