osu file format v9

[General]
AudioFilename: Nightcore - Feel Fine.mp3
AudioLeadIn: 0
PreviewTime: 42941
Countdown: 0
SampleSet: Soft
StackLeniency: 0.4
Mode: 0
LetterboxInBreaks: 1

[Editor]
DistanceSpacing: 1.2
BeatDivisor: 4
GridSize: 8

[Metadata]
Title:Feel Fine (Nightcore Mix)
Artist:Tune Up
Creator:Xeno32
Version:Insane
Source:Eurodance Group
Tags:Trance Techno Starrodkirby86

[Difficulty]
HPDrainRate:8
CircleSize:5
OverallDifficulty:7
ApproachRate:8
SliderMultiplier:1.4
SliderTickRate:0.5

[Events]
//Background and Video events
0,0,"Background.jpg"
//Break Periods
2,65677,74585
2,123422,133564
//Storyboard Layer 0 (Background)
//Storyboard Layer 1 (Fail)
//Storyboard Layer 2 (Pass)
//Storyboard Layer 3 (Foreground)
//Storyboard Sound Samples
//Background Colour Transformations
3,100,163,162,255

[TimingPoints]
3505,352.112676056338,4,2,0,70,1,0
13188,-133.333333333333,4,2,0,70,0,0
14596,-100,4,2,0,70,0,0
28681,-100,4,2,0,30,0,0
30441,-100,4,2,0,70,0,0
42938,-100,4,2,0,70,0,1
65475,-100,4,2,0,70,0,0
102096,-133.333333333333,4,2,0,70,0,0
134138,-100,4,2,0,70,0,0
135902,-100,4,2,0,70,0,1
158438,-100,4,2,0,70,0,0

[Colours]
Combo1 : 128,0,255
Combo2 : 74,165,255
Combo3 : 255,145,255
Combo4 : 0,87,130

[HitObjects]
256,192,3505,1,2
256,192,3857,1,8
256,192,4209,1,2
8,192,4737,5,0
64,128,4913,1,2
120,192,5089,1,0
64,256,5265,1,8
8,192,5441,1,0
8,192,5617,1,2
256,192,6321,5,2
256,192,6674,1,8
256,192,7026,1,2
504,192,7554,5,0
448,256,7730,1,2
392,192,7906,1,0
448,128,8082,1,8
504,192,8258,1,0
504,192,8434,1,2
168,192,9138,5,8
256,336,9490,1,0
336,192,9843,1,0
168,192,10195,5,8
256,240,10371,1,0
336,192,10547,1,8
168,192,10899,1,0
168,192,11251,1,0
336,192,11603,5,8
256,144,11779,1,0
168,192,11955,1,8
168,192,12307,1,0
336,192,12659,1,8
336,192,13012,1,0
256,288,13364,2,0,B|184:344|104:280,2,157.499995306134,4|2|0
376,192,14772,5,8
256,80,15124,1,0
128,192,15476,1,2
360,120,16004,5,0
296,176,16181,1,8
256,248,16357,1,0
296,176,16533,1,0
216,176,16709,1,0
256,248,16885,1,2
120,192,17589,5,8
256,296,17941,1,0
376,192,18293,1,2
152,120,18821,5,0
216,176,18998,1,8
256,248,19174,1,0
216,176,19350,1,0
296,176,19526,1,0
256,248,19702,1,2
72,336,20406,5,8
440,336,20758,1,0
72,336,21110,1,8
256,262,21462,6,0,L|256:192,2,70,8|0|8
256,96,22166,1,0
256,264,22519,1,4
256,96,22871,6,0,L|256:176,2,70,8|0|8
120,192,23575,1,8
256,96,23927,1,0
392,192,24279,1,8
256,96,24631,1,4
256,360,26040,5,8
464,192,26392,1,8
256,24,26744,1,8
48,192,27096,1,8
256,360,27448,1,8
256,24,28857,5,10
464,192,29209,1,8
256,360,29561,1,12
48,192,29913,1,8
256,24,30265,1,10
256,360,31674,5,4
96,312,32026,1,10
36,252,32202,1,0
96,192,32378,1,8
320,312,32906,6,0,B|320:224,1,70,2|2
256,184,33258,2,0,B|256:254,1,70,2|2
320,200,33610,2,0,B|320:130,1,70,2|2
80,56,34314,5,8
120,48,34402,1,0
160,56,34490,1,8
160,56,34843,1,10
184,136,35019,1,0
192,176,35107,1,0
184,216,35195,1,8
352,344,35723,5,8
432,328,35899,1,8
472,256,36075,1,0
392,264,36251,2,0,L|392:194,1,70,8|0
472,184,36603,1,8
256,96,37131,5,8
256,176,37307,1,8
256,274,37659,2,0,L|256:344,2,70,8|0|8
256,96,38364,5,4
88,96,38716,1,8
148,156,38892,1,0
148,240,39068,1,8
88,300,39244,1,0
28,240,39420,1,8
256,312,39948,5,8
256,312,40036,1,0
256,312,40124,1,8
368,232,40476,1,8
432,288,40652,1,0
496,232,40828,1,8
256,160,41357,5,8
256,160,41445,1,0
256,160,41533,1,8
144,224,41797,1,0
104,208,41885,1,0
88,168,41973,1,0
104,128,42061,1,0
144,112,42149,1,0
256,64,42413,6,2,L|256:89,8,25
256,160,43117,1,0
328,112,43293,2,0,B|328:152,1,35,8|0
288,224,43557,2,8,B|304:264|304:264|344:264,1,70
384,200,43909,1,0
384,200,43997,1,8
440,136,44174,1,0
384,80,44350,5,8
312,40,44526,1,0
240,80,44702,1,8
240,80,44790,1,0
160,48,44966,1,0
240,80,45142,1,8
168,120,45318,1,0
168,120,45406,2,0,B|128:120|128:120|104:152,1,70,8|8
40,192,45758,5,8
8,272,45934,1,0
88,264,46110,1,8
88,264,46198,1,0
168,264,46374,1,0
128,336,46550,1,8
168,264,46726,2,0,B|200:280,1,35,0|8
248,208,46990,1,0
272,288,47166,2,0,B|304:288|304:288|336:240,1,70,8|0
320,176,47519,5,8
320,176,47607,1,0
248,136,47783,1,0
320,96,47959,1,0
320,96,48135,2,0,B|360:96,1,35,0|8
392,176,48399,1,0
392,176,48575,5,8
472,152,48751,1,0
456,232,48927,1,8
456,232,49015,1,0
376,264,49191,1,0
296,264,49367,1,0
296,264,49543,2,0,B|248:264,1,35,0|8
296,192,49807,1,0
216,192,49983,5,8
296,192,50159,1,0
220,196,50335,1,8
220,196,50424,1,0
176,120,50600,1,0
256,128,50776,1,8
256,128,50952,2,0,B|256:72,1,35,0|8
336,120,51216,1,0
336,120,51392,5,8
376,192,51568,1,0
336,264,51744,1,8
336,264,51832,1,0
416,264,52008,2,0,B|471:306,2,70,8|0|8
416,264,52448,1,8
456,192,52624,1,0
376,192,52800,5,0
368,152,52888,1,0
336,120,52976,1,0
296,112,53064,1,0
256,120,53152,1,8
224,144,53240,1,0
216,184,53328,1,8
240,224,53416,1,0
280,240,53504,5,0
304,272,53592,1,0
312,312,53680,1,0
304,352,53768,1,0
272,376,53856,1,8
232,384,53944,1,0
192,376,54033,1,0
160,344,54121,1,0
152,304,54209,1,4
232,304,54384,1,0
176,240,54561,5,8
176,240,54649,1,0
176,240,54825,2,8,B|144:216|144:216|96:216,1,70
32,216,55177,1,0
32,216,55265,1,8
32,128,55442,1,0
32,216,55618,5,8
48,296,55794,1,0
120,328,55970,1,8
120,328,56058,1,0
200,304,56234,1,0
280,336,56410,1,8
200,304,56586,1,0
200,308,56674,2,0,B|200:228,1,70,8|8
120,216,57026,5,8
200,184,57202,1,0
280,216,57378,1,8
280,216,57466,1,0
200,184,57642,1,0
136,128,57818,1,8
200,72,57994,2,0,B|240:72,1,35,0|8
296,128,58258,1,0
296,128,58434,2,0,B|376:128,1,70,8|0
360,216,58787,5,8
360,216,58875,1,0
280,216,59051,1,0
320,288,59227,1,0
320,288,59403,2,0,B|280:288,1,35,0|8
200,288,59667,1,0
120,256,59843,5,8
88,176,60019,1,0
112,96,60195,1,8
112,96,60283,1,0
168,152,60459,1,0
232,96,60635,1,0
296,152,60811,2,0,B|336:152,1,35,0|8
312,72,61075,1,0
232,96,61251,5,8
168,152,61427,1,0
232,208,61603,1,8
232,208,61692,1,0
160,248,61868,1,0
232,288,62044,1,8
232,208,62219,1,0
232,208,62307,1,8
232,288,62484,1,0
312,280,62660,5,8
352,208,62836,1,0
400,280,63012,1,8
400,280,63188,2,0,B|456:320,2,70,8|0|8
432,200,63716,1,8
432,200,63892,1,0
392,128,64068,5,0
384,88,64156,1,0
352,56,64244,1,0
312,48,64332,1,0
272,56,64420,1,8
240,80,64508,1,0
232,120,64596,1,8
248,160,64684,1,0
288,176,64772,5,0
320,208,64860,1,0
328,248,64948,1,0
320,288,65036,1,0
288,312,65124,1,8
248,320,65212,1,0
208,312,65301,1,0
176,280,65388,1,0
168,240,65477,1,4
40,192,75335,5,0
112,152,75512,1,0
184,192,75688,1,0
256,152,75864,1,0
328,192,76040,1,0
400,152,76216,1,0
472,192,76392,1,0
472,192,76480,1,0
472,192,76568,1,0
472,192,76656,1,0
472,192,76744,1,8
328,112,77096,5,0
256,264,77448,1,8
176,112,77800,1,0
256,264,78152,1,10
256,264,78328,1,2
256,264,78505,1,2
256,264,78857,1,8
176,112,79209,5,2
256,88,79385,1,2
336,112,79561,1,10
176,112,79913,1,0
336,112,80265,1,8
176,112,80617,1,0
256,256,80969,5,10
256,336,81145,1,2
256,256,81321,1,2
256,256,81674,1,10
256,176,81850,1,2
256,256,82026,1,2
392,216,82378,5,8
128,168,82730,1,0
392,168,83082,1,8
128,216,83434,1,0
392,216,83786,1,10
256,192,83962,1,2
128,216,84138,1,2
392,216,84490,1,8
256,116,84843,5,2
256,116,85019,1,2
172,116,85195,5,8
160,128,85284,1,0
148,140,85371,1,0
136,152,85459,1,0
149,164,85547,1,0
162,176,85635,1,0
176,188,85724,1,0
164,200,85812,1,0
152,212,85900,1,8
140,224,85988,1,0
153,236,86076,1,0
166,248,86164,1,0
179,260,86252,1,0
167,272,86340,1,0
155,284,86427,1,0
143,296,86515,1,0
152,312,86603,5,8
164,324,86691,1,0
176,336,86779,1,0
188,323,86868,1,0
200,310,86956,1,0
212,297,87044,1,0
224,309,87132,1,0
236,321,87219,1,0
248,333,87307,1,8
260,320,87395,1,0
272,307,87483,1,0
284,294,87571,1,0
296,306,87659,1,0
308,318,87747,1,0
320,330,87835,1,0
332,317,87924,1,0
344,304,88012,5,12
256,160,88364,1,0
256,160,88716,1,8
256,160,89068,1,0
136,136,89420,5,10
256,96,89596,1,2
376,136,89772,1,2
136,136,90124,1,8
376,136,90476,6,0,B|376:206,1,70
376,72,90828,1,8
136,136,91181,6,8,B|136:206,1,70,0|0
136,72,91533,1,8
256,192,91885,1,0
160,352,92237,5,10
256,248,92413,1,2
352,352,92589,1,2
352,32,92941,5,10
256,136,93117,1,2
160,32,93293,1,2
256,312,93645,5,10
112,72,93998,1,0
400,72,94350,1,8
112,136,94702,1,0
400,136,95054,1,10
256,96,95230,1,2
112,136,95406,1,2
400,136,95758,1,8
400,136,96110,6,0,B|400:206,1,70
336,80,96462,1,8
112,136,96815,6,8,B|112:206,1,70,0|0
176,80,97167,1,8
256,352,97519,1,0
24,192,97871,5,10
160,192,98047,1,2
256,288,98223,1,2
256,288,98399,1,2
488,192,98575,5,10
352,192,98751,1,2
256,288,98927,1,2
256,288,99103,1,2
256,192,99279,12,2,102096
256,192,102448,5,8
256,192,102800,1,2
72,136,103328,5,0
40,192,103504,1,2
72,248,103680,1,0
40,192,103856,1,8
72,136,104032,1,0
40,192,104208,1,2
256,192,104912,5,2
256,192,105265,1,8
256,192,105617,1,2
440,136,106145,5,0
472,192,106321,1,2
440,248,106497,1,0
472,192,106673,1,8
440,136,106849,1,0
472,192,107025,1,2
256,64,107729,5,8
256,192,108081,1,0
256,320,108434,1,0
256,192,108786,5,8
256,192,108962,1,0
256,192,109138,1,8
256,64,109490,1,0
256,192,109842,1,0
384,192,110194,5,8
320,192,110370,1,0
256,192,110546,1,8
128,192,110898,1,0
256,192,111250,1,8
384,192,111603,1,0
328,80,111955,2,0,B|255:21|183:77,2,157.499995306134,4|2|0
376,192,113363,5,8
256,312,113715,1,0
136,192,114067,1,2
376,128,114595,5,0
296,104,114772,1,8
240,168,114948,1,0
320,184,115124,1,0
264,248,115300,1,0
344,264,115476,1,2
136,192,116181,5,8
256,72,116533,1,0
376,192,116885,1,2
136,256,117413,5,0
216,280,117590,1,8
272,216,117766,1,0
192,200,117942,1,0
248,136,118118,1,0
168,120,118294,1,2
168,120,118997,5,8
376,272,119349,1,0
168,120,119701,1,8
377,120,120053,6,0,L|424:72,2,52.4999984353781,8|0|8
168,272,120757,1,0
376,120,121110,1,4
168,272,121462,6,0,L|112:320,2,52.4999984353781,8|0|8
376,120,122166,1,8
152,192,122518,1,0
376,256,122870,1,8
152,192,123222,1,4
256,340,134314,5,8
256,340,134490,1,8
140,292,134754,1,0
124,252,134842,1,0
136,212,134930,1,0
128,172,135018,1,0
144,132,135106,1,0
256,48,135370,6,2,L|256:73,8,25
256,144,136074,1,0
256,240,136250,2,0,B|256:280,1,35,8|0
256,240,136514,2,8,B|280:216|280:216|320:216,1,70
376,272,136866,1,0
376,272,136954,1,8
400,192,137131,1,0
368,112,137307,5,8
296,72,137483,1,0
256,144,137659,1,8
256,144,137747,1,0
216,72,137923,1,0
216,72,138099,1,8
144,40,138275,1,0
144,40,138363,2,0,B|104:56|104:56|88:88,1,70,8|8
56,152,138715,5,8
56,232,138891,1,0
128,192,139067,1,8
128,192,139156,1,0
208,192,139331,1,0
288,192,139507,1,8
376,192,139684,1,8
376,192,139773,1,0
448,152,139947,1,0
448,232,140123,6,0,B|448:272|448:272|416:296,1,70,8|0
368,352,140476,1,8
368,352,140564,1,0
328,280,140740,1,0
280,344,140916,1,0
280,344,141092,2,0,B|248:312,1,35,0|8
176,352,141356,1,0
104,312,141532,5,8
104,312,141708,1,0
104,232,141884,1,8
104,232,141972,1,0
176,272,142148,1,0
176,192,142324,1,0
176,192,142500,2,0,B|224:192,1,35,0|8
176,272,142764,1,0
256,272,142940,5,8
312,208,143116,1,0
384,152,143292,1,8
384,152,143381,1,0
304,128,143557,1,0
312,208,143733,1,8
240,160,143909,2,0,B|192:144,1,35,0|8
248,72,144173,1,0
328,48,144349,5,8
304,128,144525,1,0
384,152,144701,1,8
384,152,144789,1,0
392,232,144965,2,0,B|447:274,2,70,8|0|8
392,232,145405,1,8
384,152,145581,1,0
464,120,145757,1,8
400,64,145933,5,0
360,72,146022,1,0
328,96,146109,1,8
312,136,146197,1,0
312,176,146285,1,0
336,208,146373,1,0
376,224,146462,1,8
416,224,146550,1,0
448,192,146638,1,0
464,152,146726,1,0
464,112,146814,1,8
440,80,146902,1,0
400,64,146990,1,0
328,24,147166,5,8
248,32,147342,1,0
216,112,147518,2,0,B|256:128,1,35,8|0
256,224,147782,2,8,B|256:304,1,70
256,224,148134,1,0
256,224,148222,1,8
192,200,148399,1,0
256,224,148575,5,8
320,200,148751,1,0
256,224,148927,1,8
256,224,149015,1,0
256,304,149191,1,0
256,224,149367,1,8
256,144,149543,1,0
256,144,149631,2,0,B|256:64,1,70,8|8
176,104,149983,5,8
216,32,150159,1,0
296,32,150335,1,8
296,32,150423,1,0
336,104,150599,1,0
256,88,150775,1,8
256,88,150951,2,0,B|256:128,1,35,0|8
256,208,151215,1,0
296,280,151391,6,0,B|328:264|336:216,1,70,8|0
296,280,151744,1,8
296,280,151832,1,0
216,288,152008,1,0
176,216,152184,1,0
256,208,152360,2,0,B|256:160,1,35,0|8
256,208,152624,1,0
336,208,152800,5,0
336,128,152976,1,0
256,96,153152,2,0,B|256:26,1,70,8|0
256,96,153505,5,0
176,128,153681,1,0
96,96,153857,2,0,B|96:26,2,70,8|0|0
32,152,154385,5,0
32,232,154561,1,8
96,288,154737,2,0,B|96:358,2,70
32,232,155265,1,8
32,152,155441,1,0
80,192,155617,5,0
92,204,155706,1,0
104,216,155793,1,0
116,228,155881,1,0
128,215,155969,1,8
140,202,156057,1,0
152,188,156146,1,0
164,200,156234,1,0
176,212,156322,1,0
188,224,156410,1,0
200,211,156498,1,0
212,198,156586,1,0
224,185,156674,1,8
236,197,156762,1,0
248,209,156849,1,0
260,221,156937,1,0
272,208,157025,5,0
284,195,157113,1,0
296,182,157202,1,0
308,194,157290,1,0
320,206,157378,1,8
332,218,157466,1,0
344,205,157554,1,0
356,192,157642,1,0
368,179,157730,1,0
380,191,157818,1,0
392,203,157905,1,0
404,215,157993,1,0
416,202,158081,1,8
428,189,158169,1,0
440,176,158258,1,0
452,188,158346,1,0
464,200,158434,1,4
