osu file format v9

[General]
AudioFilename: Nightcore - Feel Fine.mp3
AudioLeadIn: 0
PreviewTime: 42941
Countdown: 0
SampleSet: Soft
StackLeniency: 0.4
Mode: 0
LetterboxInBreaks: 1

[Editor]
DistanceSpacing: 1.2
BeatDivisor: 4
GridSize: 8

[Metadata]
Title:Feel Fine (Nightcore Mix)
Artist:Tune Up
Creator:Xeno32
Version:Hard
Source:Eurodance Group
Tags:Trance Techno Starrodkirby86

[Difficulty]
HPDrainRate:6
CircleSize:4
OverallDifficulty:6
ApproachRate:6
SliderMultiplier:1.4
SliderTickRate:1

[Events]
//Background and Video events
0,0,"Background.jpg"
//Break Periods
2,65676,70060
//Storyboard Layer 0 (Background)
//Storyboard Layer 1 (Fail)
//Storyboard Layer 2 (Pass)
//Storyboard Layer 3 (Foreground)
//Storyboard Sound Samples
//Background Colour Transformations
3,100,163,162,255

[TimingPoints]
3505,352.112676056338,4,2,0,70,1,0
28681,-100,4,2,0,30,0,0
30441,-100,4,2,0,70,0,0
42938,-100,4,2,0,70,0,1
65475,-100,4,2,0,70,0,0
135902,-100,4,2,0,70,0,1
158438,-100,4,2,0,70,0,0

[Colours]
Combo1 : 128,0,255
Combo2 : 74,165,255
Combo3 : 255,145,255
Combo4 : 0,87,130

[HitObjects]
0,192,3505,1,2
0,192,3857,1,8
0,192,4033,1,0
0,192,4209,1,2
256,48,4737,5,0
200,112,4913,1,2
256,176,5089,1,0
312,112,5265,1,8
256,48,5441,1,0
200,112,5617,1,2
512,192,6321,5,2
512,192,6674,1,8
512,192,6850,1,0
512,192,7026,1,2
256,336,7554,5,0
312,272,7730,1,2
256,208,7906,1,0
200,272,8082,1,8
256,336,8258,1,0
312,272,8434,1,2
416,72,9138,5,8
88,72,9490,1,0
256,336,9843,1,0
296,152,10195,5,8
216,152,10371,1,0
256,224,10547,1,8
256,56,10899,1,0
256,224,11251,1,0
256,224,11603,6,0,L|256:128,2,70,0|0|8
256,56,12307,1,0
168,200,12659,1,8
344,200,13012,1,0
256,56,13364,1,4
480,40,14772,5,8
256,104,15124,1,0
32,40,15476,1,2
256,232,16004,2,0,L|256:144,5,70,0|8|0|0|0|2
480,344,17589,5,8
256,280,17941,1,0
40,344,18293,1,2
256,152,18821,2,0,L|256:240,5,70,0|8|0|0|0|2
48,32,20406,5,8
168,152,20758,1,0
168,152,21110,1,8
168,152,21462,2,0,L|168:232,2,70,8|0|8
344,152,22166,1,0
344,152,22519,1,4
344,152,22871,6,0,L|344:232,2,70,8|0|8
168,192,23575,1,0
256,336,23927,1,0
168,192,24279,1,0
256,48,24631,1,4
32,48,26040,5,2
192,112,26392,1,8
256,264,26744,1,4
104,192,27096,1,8
32,48,27448,1,2
488,336,28857,5,2
328,280,29209,1,8
256,128,29561,1,4
408,192,29913,1,8
488,336,30265,1,2
40,64,31674,5,2
40,64,32026,2,0,L|40:144,2,70,8|0|8
288,232,32906,6,0,B|304:272|352:248,1,70,2|2
272,208,33258,2,0,B|312:192|288:144,1,70,2|2
248,224,33610,2,0,B|232:184|184:208,1,70,2|2
40,64,34490,5,8
40,64,34843,2,0,L|90:64,2,50,8|0|8
424,64,35899,5,8
424,64,36251,2,0,L|424:144,2,70,8|0|8
256,256,37131,5,8
256,256,37307,1,8
256,256,37659,2,0,L|256:176,2,70,8|0|8
256,88,38364,5,4
256,88,38716,2,0,L|256:160,1,70,8|0
256,88,39068,2,0,B|184:88,2,70,8|0|8
424,192,39948,5,8
424,192,40124,1,8
424,192,40476,2,0,L|354:192,2,70,8|0|8
184,120,41357,5,8
184,120,41533,1,8
184,120,41885,2,0,L|184:64,2,50,8|0|8
312,128,42413,6,0,L|312:176,6,35,0|0|0|0|0|0|4
168,240,43293,5,8
48,120,43645,1,0
208,80,43997,1,8
168,240,44350,5,0
96,192,44526,1,0
48,120,44702,1,8
208,80,45054,1,0
328,192,45406,1,8
360,24,45758,5,0
280,32,45934,1,0
208,80,46110,1,8
184,248,46462,1,0
56,136,46814,1,8
32,304,47166,5,0
112,296,47343,1,0
184,248,47519,1,8
280,112,47871,1,0
352,264,48223,1,8
184,248,48575,5,0
224,176,48751,1,0
280,112,48927,1,8
280,112,49103,1,0
280,112,49279,1,2
280,112,49631,1,8
432,48,49983,5,0
352,64,50159,1,0
280,112,50335,1,8
280,112,50512,1,0
280,112,50688,1,4
280,112,51040,1,8
392,232,51392,5,0
352,160,51568,1,0
280,112,51744,1,8
280,112,51920,1,0
280,112,52096,1,2
280,112,52448,1,8
280,280,52800,1,0
152,168,53152,5,8
216,216,53328,1,0
216,136,53504,1,8
280,192,53681,1,0
280,112,53857,1,8
344,168,54033,1,0
344,88,54209,1,8
168,64,54561,6,0,B|80:24|50:124,1,140,8|0
40,280,55265,2,0,B|124:314|149:229,1,140,8|0
304,288,55969,2,0,B|324:201|425:240,1,140,8|0
248,256,56674,5,8
296,184,56850,1,0
376,160,57026,1,0
256,40,57378,6,0,B|162:0|112:104,1,140,8|0
136,240,58082,2,0,B|169:328|264:294,1,140,8|0
216,224,58610,1,0
216,224,58786,2,0,B|320:216|329:319,1,140,8|0
424,112,59490,6,0,B|383:106|351:123|328:157|336:208,1,140,8|0
416,192,60019,1,0
416,192,60195,2,0,B|424:281|324:285,1,140,8|0
424,112,60899,6,0,B|284:112,1,140,8|0
200,112,61427,1,0
263,162,61603,2,0,B|240:184|201:204|151:185|131:147,1,140,8|0
88,272,62307,6,0,B|228:272,1,140,8|0
312,272,62835,1,0
252,221,63011,2,0,B|272:200|309:179|360:200|379:226,1,140,8|0
256,104,63716,1,8
256,104,64068,5,8
192,48,64244,1,0
256,104,64420,1,8
320,48,64596,1,0
256,104,64772,2,0,B|256:192,2,70,0|8|8
256,104,65476,5,4
144,192,71110,5,2
256,72,71462,1,8
368,192,71814,1,2
256,312,72166,1,8
368,192,72519,5,2
328,112,72695,1,2
256,72,72871,1,8
136,192,73223,1,0
256,312,73575,5,10
328,264,73751,1,2
368,192,73927,1,0
208,192,74279,1,8
40,192,74631,1,0
208,192,74983,1,8
48,240,75335,6,0,L|112:304,1,70,2|2
184,288,75688,2,0,L|240:232,1,70,2|2
232,152,76040,2,0,L|176:96,1,70,2|2
96,104,76392,2,0,L|48:160,1,70,2|2
128,192,76744,5,12
256,304,77096,1,0
384,192,77448,1,8
256,80,77800,1,0
256,248,78152,6,0,L|336:248,2,70,8|0|0
256,248,78857,1,8
256,248,79209,2,0,L|176:248,2,70,0|0|8
256,80,79913,5,0
256,80,80265,1,8
256,80,80617,1,0
136,192,80969,6,0,L|136:104,2,70,8|0|0
376,192,81674,2,0,L|376:288,2,70,8|0|0
256,304,82378,5,8
136,192,82730,1,0
256,80,83082,1,8
376,192,83434,1,0
224,128,83786,6,0,L|312:128,2,70,8|0|0
256,296,84490,1,8
256,296,84843,2,0,L|256:208,2,70,0|0|8
256,128,85547,5,0
256,128,85899,1,8
256,128,86251,1,0
256,296,86603,6,0,L|312:352,1,70,2|2
312,264,86955,2,0,L|360:200,1,70,2|2
272,208,87307,2,0,L|208:152,1,70,2|2
200,240,87659,2,0,L|144:312,1,70,2|2
88,280,88012,5,12
88,112,88364,1,0
88,280,88716,1,8
88,112,89068,1,0
256,184,89420,6,0,L|256:104,2,70,8|0|0
256,184,90124,1,8
256,184,90476,2,0,L|192:216,2,70,0|0|8
256,184,91181,1,0
256,184,91533,1,8
256,184,91885,1,0
88,184,92237,6,0,L|-8:184,2,70,8|0|0
432,184,92941,2,0,L|512:184,2,70,8|0|0
256,184,93645,5,8
152,56,93997,1,0
256,184,94350,1,8
360,48,94702,1,0
256,184,95054,6,0,L|304:128,2,70,8|0|0
256,184,95758,1,0
256,184,96110,2,0,L|320:240,2,70,8|0|0
472,192,96814,5,8
320,112,97166,1,0
472,192,97519,1,8
304,160,97871,6,0,L|232:208,1,70
216,120,98223,2,0,L|168:184,1,70,2|2
112,120,98575,2,0,L|96:192,1,70,2|2
16,152,98927,2,0,L|24:232,1,70,2|2
40,304,99279,1,4
256,192,99455,12,0,102096
256,192,102448,5,0
256,192,102800,1,2
256,192,103328,5,0
256,112,103504,1,2
328,160,103681,1,0
328,80,103857,1,0
400,128,104033,1,0
400,48,104209,1,2
256,192,104913,5,2
256,192,105265,1,0
256,192,105617,1,2
256,192,106145,5,0
256,112,106321,1,2
184,160,106498,1,0
184,80,106674,1,0
112,128,106850,1,0
112,48,107026,1,2
424,224,107730,5,8
256,256,108082,1,0
88,224,108434,1,0
256,192,108786,2,0,L|256:96,2,70,0|0|8
424,224,109490,1,0
424,224,109843,1,0
256,248,110195,6,0,L|256:320,2,70,0|0|8
255,248,110899,1,0
96,88,111251,1,0
311,32,111603,1,0
255,248,111955,1,8
344,224,113364,5,8
168,224,113716,1,0
256,80,114068,1,0
256,80,114596,5,0
200,144,114772,1,8
120,160,114948,1,0
96,240,115124,1,0
160,296,115300,1,0
240,280,115476,1,0
408,280,116181,5,8
320,136,116533,1,0
240,280,116885,1,0
240,280,117413,5,0
176,224,117589,1,8
152,144,117765,1,0
72,120,117941,1,0
16,184,118117,1,0
40,264,118293,1,0
256,192,118997,5,8
256,192,119350,1,0
256,272,119702,1,0
256,272,120054,2,0,L|256:352,2,70,8|0|8
256,112,120758,1,0
256,272,121110,1,0
256,112,121462,6,0,L|256:32,2,70,8|0|8
256,112,122166,1,0
256,272,122519,1,0
256,112,122871,1,0
256,272,123223,1,12
40,192,124631,5,8
40,192,124983,1,8
40,192,125159,1,0
40,192,125335,1,8
296,128,125864,6,0,L|336:192,1,70,2|2
248,200,126216,2,0,L|176:200,1,70,2|2
216,128,126568,2,0,L|248:64,1,70,2|2
464,192,127272,6,0,L|464:272,1,70,8|8
464,96,127800,2,0,L|414:96,2,50,8|0|8
79,96,128857,5,8
80,96,129209,2,0,L|0:96,2,70,8|0|8
216,304,130089,6,0,L|178:244,1,70,2|2
263,231,130441,2,0,L|333:231,1,70,2|2
295,303,130793,2,0,L|263:365,1,70,2|2
264,232,131321,5,8
264,232,131674,2,0,L|264:136,1,70,2|2
264,80,132026,2,0,L|264:130,2,50,2|0|2
416,328,132906,6,0,L|440:256,1,70,2|2
416,328,133434,2,0,L|398:282,2,50,8|0|8
152,192,134314,6,0,L|125:117,1,70,2|2
152,192,134843,2,0,L|152:256,2,46.6666666666667,8|0|8
72,304,135371,2,2,L|47:304,8,25
256,192,136251,5,8
432,192,136603,1,0
256,192,136955,1,8
256,192,137308,5,0
328,240,137484,1,0
392,296,137660,1,8
256,192,138012,1,0
88,192,138364,1,8
256,192,138716,5,0
328,144,138892,1,0
392,88,139068,1,8
256,192,139420,1,0
256,24,139772,1,8
256,192,140124,5,0
184,144,140300,1,0
120,88,140476,1,8
256,192,140829,1,0
88,192,141181,1,8
256,192,141533,5,0
224,272,141709,1,0
256,352,141885,1,8
288,272,142061,1,0
256,192,142237,1,2
256,24,142589,1,8
256,192,142941,5,0
336,160,143117,1,0
416,192,143293,1,8
336,224,143469,1,0
256,192,143646,1,4
88,192,143998,1,8
256,192,144350,5,0
256,192,144526,1,0
256,192,144702,1,8
256,192,144878,1,0
256,192,145054,1,2
256,192,145406,1,8
256,360,145758,5,0
328,208,146110,5,8
328,128,146286,1,0
256,88,146462,1,8
184,128,146639,1,0
184,208,146815,1,8
256,256,146991,1,0
328,208,147167,1,8
64,296,147519,6,0,B|72:264|120:248|168:264|176:296,1,140,8|0
448,296,148223,2,0,B|440:264|392:248|344:264|336:296,1,140,8|0
256,152,148927,2,0,B|256:0,1,140,8|0
256,184,149632,5,8
256,264,149808,1,0
256,344,149984,1,0
104,272,150336,6,0,B|134:342|228:302,1,140,8|0
104,104,151040,2,0,B|137:16|232:50,1,140,8|0
184,120,151568,1,0
168,200,151744,2,0,B|269:209|268:81,1,140,8|0
392,248,152448,6,0,B|308:248|299:156,1,140,8|0
384,168,152977,1,0
368,85,153152,2,0,B|454:88|461:177,1,140,8|0
328,272,153857,6,0,B|188:272,1,140,8|0
136,200,154385,1,0
216,200,154561,2,0,B|356:200,1,140,8|0
464,328,155265,6,0,B|464:188,1,140,8|0
392,136,155793,1,0
392,224,155970,2,0,B|392:364,1,140,8|0
272,248,156674,6,0,B|132:248,1,140,8|8
176,176,157202,5,0
96,176,157378,1,8
48,248,157554,1,2
48,248,157730,1,10
96,320,157906,1,2
176,320,158082,1,8
328,248,158434,5,4
