osu file format v6

[General]
AudioFilename: Feel Fine 2009 Remix.mp3
AudioLeadIn: 0
PreviewTime: 76356
Countdown: 1
SampleSet: Normal
StackLeniency: 0.4
Mode: 0
LetterboxInBreaks: 1

[Editor]
Bookmarks: 129219
DistanceSpacing: 0.800000011920929
BeatDivisor: 4
GridSize: 8

[Metadata]
Title:Feel Fine (2009 Remix)
Artist:Tune Up
Creator:ztrot
Version:Soft
Source:
Tags:Tune Up! Feel Fine

[Difficulty]
HPDrainRate:3
CircleSize:3
OverallDifficulty:5
SliderMultiplier:1.8
SliderTickRate:0.5

[Events]
//Background and Video events
0,0,"feelfine.jpg"
//Break Periods
//Storyboard Layer 0 (Background)
//Storyboard Layer 1 (Fail)
//Storyboard Layer 2 (Pass)
//Storyboard Layer 3 (Foreground)
//Storyboard Sound Samples
//Background Colour Transformations
3,100,163,162,255

[TimingPoints]
3528,413.793103448276,4,1,0,60,1,0
43253,-100,4,1,0,60,0,1
69632,-100,4,1,0,60,0,0
116081,-100,4,1,0,60,0,1
129322,-100,4,1,0,60,0,0

[Colours]
Combo1 : 204,0,204
Combo2 : 0,0,147
Combo3 : 0,176,176
Combo4 : 111,32,145

[HitObjects]
56,80,3527,1,4
192,32,3941,1,0
328,80,4355,2,4,B|392:168|344:264,1,180,4|8
232,336,5183,2,0,B|136:336|88:232,1,180,0|8
88,96,6010,1,4
424,96,6838,5,4
472,232,7252,1,8
360,320,7665,2,0,B|256:336|200:232,1,180,4|8
208,104,8493,1,0
72,56,8907,1,8
64,200,9321,2,0,B|112:296|216:296,1,180,4|8
352,304,10148,5,0
456,208,10562,1,8
352,104,10976,2,0,B|264:48|176:104,1,180,0|8
184,240,11803,2,0,B|264:288|360:232,1,180,0|8
264,120,12631,1,4
64,328,13459,6,0,B|160:248|48:160,1,180,0|8
72,32,14286,2,0,B|72:136|192:152,1,180,0|8
360,48,15114,2,2,B|424:144|296:200|376:328,1,270
96,64,16769,5,0
24,192,17183,1,8
168,192,17596,1,0
96,312,18010,1,8
240,312,18424,2,2,B|344:192|176:192|256:56,1,270
472,344,20079,5,0
472,200,20493,1,8
344,272,20907,1,0
344,128,21321,1,8
224,208,21734,2,0,B|192:256|160:288|104:288|56:264|32:232|48:168,1,270,4|4
384,40,23390,5,0
472,152,23803,1,8
384,264,24217,1,0
296,152,24631,1,8
152,152,25045,2,4,B|-16:224|272:304|40:344,1,270,4|4
384,192,26700,5,0
456,64,27114,1,8
312,64,27527,1,0
248,192,27941,1,8
256,192,28355,12,0,30010
280,192,30424,5,0
280,336,30838,1,8
24,192,31665,1,0
168,192,32079,1,0
240,64,32493,1,4
440,272,33321,5,0
296,272,33734,1,0
368,152,34148,1,8
104,40,34976,1,0
248,40,35390,1,0
176,168,35803,1,4
416,328,36631,5,0
416,184,37045,1,0
288,256,37459,1,8
72,64,38286,1,0
72,208,38700,1,0
200,144,39114,1,8
472,64,39941,5,0
392,184,40355,1,0
304,64,40769,1,4
136,296,41596,1,0
64,168,42010,1,0
64,24,42424,1,4
184,96,42838,1,4
328,96,43252,5,0
352,160,43459,1,0
304,216,43665,1,8
184,304,44079,1,0
112,288,44286,1,0
88,224,44493,1,8
88,80,44907,1,0
216,24,45321,1,8
424,96,45734,5,0
464,160,45941,1,0
424,216,46148,1,8
304,296,46562,5,0
304,224,46769,1,0
304,152,46976,1,8
160,152,47390,1,0
160,224,47596,1,0
160,296,47803,1,8
56,192,48217,5,4
56,48,48631,1,8
200,72,49045,1,0
264,104,49252,1,0
328,128,49459,1,8
256,248,49872,5,0
256,320,50079,1,0
192,280,50286,2,2,B|120:272|80:200,1,135
368,48,51528,5,0
424,88,51734,1,0
416,160,51941,2,2,B|392:232|304:248,1,135
64,48,53183,5,0
32,112,53390,1,0
64,176,53596,2,2,B|88:248|176:264,1,135
416,64,54838,5,0
416,136,55045,1,0
416,208,55252,1,0
304,208,55562,2,2,B|304:96,3,90
304,80,56286,1,4
256,32,56493,6,4,B|144:0|64:72,1,180,4|12
72,200,57321,2,0,B|128:288|264:280,1,180,0|8
368,272,58148,2,0,B|408:248|448:200|464:136|392:96,1,180,0|8
304,40,58976,2,0,B|248:24|208:16|168:16|112:40,1,180,0|8
64,72,59596,1,4
0,112,59803,6,0,B|-24:176|16:248|72:280,1,180,0|8
192,304,60631,2,0,B|272:312|376:256,1,180,0|8
424,128,61459,2,0,B|376:40|248:32,1,180,0|8
160,120,62286,2,0,B|112:152|128:200|216:216|248:208,1,180,0|8
248,136,62907,1,4
320,136,63114,2,0,B|408:208|304:304,1,180,0|8
176,288,63941,1,0
104,288,64148,2,2,B|16:224|64:88,1,180
96,72,64769,5,0
232,32,65183,1,8
368,72,65596,1,0
376,144,65803,2,2,B|408:248|240:264,1,180
248,328,66424,1,0
104,296,66838,1,8
32,168,67252,1,4
320,192,68079,5,0
248,64,68493,1,0
176,192,68907,1,4
448,112,69734,5,4
64,112,70562,1,8
448,184,71390,1,4
64,184,72217,1,8
448,256,73045,1,4
64,256,73872,1,8
256,48,74700,5,0
256,192,75114,1,0
256,336,75528,1,0
128,264,75941,1,0
256,192,76355,5,2
112,192,76769,1,2
184,64,77183,1,2
256,192,77596,1,2
184,320,78010,2,0,B|344:328|480:224|472:120,1,360,4|10
208,32,79665,5,0
64,40,80079,1,0
136,160,80493,1,2
136,304,80907,1,2
280,304,81321,2,0,B|376:304,1,90,2|0
368,232,81734,2,0,B|288:152,1,90,2|0
392,168,82148,2,0,B|296:168,1,90,2|0
344,104,82562,1,2
280,72,82769,1,2
208,72,82976,5,0
80,144,83390,1,8
48,280,83803,2,0,B|232:304,1,180,0|8
256,160,84631,2,0,B|256:256,2,90,8|0|8
328,248,85459,1,12
328,104,85872,1,0
120,152,86286,5,0
48,272,86700,1,8
192,280,87114,1,0
336,280,87528,1,8
264,152,87941,1,2
264,80,88148,1,0
320,120,88355,1,2
320,192,88562,1,0
384,160,88769,1,2
384,88,88976,2,0,B|432:112|456:48,2,90,2|2|2
384,160,89596,5,0
296,272,90010,1,8
152,288,90424,1,0
56,176,90838,1,8
128,48,91252,1,0
200,48,91459,1,0
272,48,91665,2,0,B|360:104|320:216,1,180,8|0
248,328,92493,1,8
104,328,92907,5,0
32,200,93321,1,8
104,72,93734,1,0
184,200,94148,1,8
320,160,94562,5,2
320,88,94769,1,0
384,128,94976,1,2
384,200,95183,1,0
320,232,95390,1,2
248,232,95596,2,2,B|248:304|176:288,2,90
104,168,96217,5,0
136,304,96631,1,8
272,336,97045,1,0
392,264,97459,1,8
408,120,97872,1,0
360,64,98079,1,0
288,40,98286,1,8
144,72,98700,1,0
96,208,99114,1,8
128,272,99321,1,0
200,280,99528,5,0
344,280,99941,1,8
456,192,100355,1,0
376,72,100769,1,8
228,92,101183,2,0,B|292:164,1,90,2|0
198,159,101596,2,0,B|302:159,1,90,2|0
228,227,102010,2,0,B|292:155,1,90,2|0
351,223,102424,2,0,B|279:151,1,90,2|2
456,80,102838,5,4
320,32,103252,1,0
184,80,103665,2,4,B|120:168|168:264,1,180,4|8
280,336,104493,2,0,B|376:336|424:232,1,180,0|8
424,96,105321,1,4
88,96,106148,5,4
40,232,106562,1,8
152,320,106976,2,0,B|256:336|312:232,1,180,4|8
304,104,107803,1,0
440,56,108217,1,8
448,200,108631,2,0,B|400:296|296:296,1,180,4|8
160,304,109459,5,0
56,208,109872,1,8
160,104,110286,2,0,B|248:48|336:104,1,180,0|8
328,240,111114,2,0,B|248:288|152:232,1,180,0|8
248,120,111941,1,4
448,328,112769,6,0,B|352:248|464:160,1,180,0|8
440,32,113596,2,0,B|440:136|320:152,1,180,0|8
152,48,114424,2,2,B|88:144|216:200|136:328,1,270
416,72,116079,5,0
416,144,116286,2,0,B|416:328,1,180
272,320,117114,2,0,B|72:320,1,180
96,176,117941,2,0,B|288:176,1,180
256,32,118769,2,0,B|432:168,1,180
400,288,119596,6,0,B|184:288,1,180
72,288,120424,2,0,B|72:96,1,180
216,104,121252,2,0,B|408:104,1,180
304,216,122079,2,0,B|104:216,1,180
216,104,122907,6,0,B|416:104,1,180
448,240,123734,2,0,B|264:240,1,180
160,336,124562,2,0,B|56:168,1,180
136,56,125390,2,0,B|344:56,1,180
192,174,126217,5,0
336,176,126631,1,0
264,296,127045,1,0
264,152,127459,1,0
256,192,127665,12,4,129321
