osu file format v6

[General]
AudioFilename: Feel Fine 2009 Remix.mp3
AudioLeadIn: 0
PreviewTime: 76356
Countdown: 1
SampleSet: Normal
StackLeniency: 0.4
Mode: 0
LetterboxInBreaks: 1

[Editor]
Bookmarks: 129219
DistanceSpacing: 1
BeatDivisor: 4
GridSize: 8

[Metadata]
Title:Feel Fine (2009 Remix)
Artist:Tune Up
Creator:ztrot
Version:Fine
Source:
Tags:Tune Up! Feel Fine

[Difficulty]
HPDrainRate:6
CircleSize:4
OverallDifficulty:8
SliderMultiplier:2
SliderTickRate:0.5

[Events]
//Background and Video events
0,0,"feelfine.jpg"
//Break Periods
//Storyboard Layer 0 (Background)
//Storyboard Layer 1 (Fail)
//Storyboard Layer 2 (Pass)
//Storyboard Layer 3 (Foreground)
//Storyboard Sound Samples
//Background Colour Transformations
3,100,163,162,255

[TimingPoints]
3528,413.793103448276,4,1,0,60,1,0
43253,-100,4,1,0,60,0,1
69632,-100,4,1,0,60,0,0
116081,-100,4,1,0,60,0,1

[Colours]
Combo1 : 204,0,204
Combo2 : 0,0,147
Combo3 : 0,176,176
Combo4 : 111,32,145

[HitObjects]
48,48,3527,1,4
248,48,3941,1,8
152,224,4355,2,0,B|248:272|248:152|344:232,1,200,4|8
360,128,4976,5,0
448,168,5183,1,4
456,264,5390,1,0
368,320,5596,1,8
280,264,5803,1,0
184,296,6010,2,0,B|64:312|-16:208,1,200,4|8
256,152,6838,5,4
88,40,7252,1,8
288,32,7665,2,4,B|408:48|448:168,1,200,4|12
440,248,8286,5,0
352,288,8493,1,4
352,184,8700,1,0
248,184,8907,1,8
248,288,9114,1,0
160,232,9321,2,0,B|152:112|256:64,1,200,4|8
480,192,10148,5,4
280,192,10562,1,8
384,16,10976,1,4
168,72,11390,5,8
80,112,11596,1,0
80,208,11803,1,4
256,296,12217,2,0,B|360:296|448:208,1,200,12|4
192,136,13045,5,8
320,136,13252,1,0
256,264,13459,5,4
96,64,13872,1,12
416,64,14286,1,4
256,160,14700,1,8
456,152,15114,2,0,B|352:0|168:32,1,300,4|0
104,56,15941,1,4
288,128,16355,1,8
120,296,16769,6,0,B|216:216,1,100,4|0
256,312,17183,2,0,B|344:232,1,100,8|0
384,328,17596,2,0,B|472:248,1,100,4|0
400,176,18010,2,0,B|312:72,1,100,8|0
432,64,18424,2,2,B|280:-40|280:128|136:40,1,300
72,112,19252,2,0,B|72:232,1,100,4|0
32,304,19665,2,0,B|160:360,1,100,8|0
224,336,20079,6,0,B|336:288,1,100,4|0
416,296,20493,2,0,B|416:160,1,100,8|0
328,144,20907,2,0,B|240:256,1,100,4|0
200,144,21321,2,0,B|72:112,1,100,8|0
176,48,21734,2,0,B|304:48,1,100,4|0
368,80,22148,2,0,B|448:200,1,100,8|0
448,256,22562,2,0,B|336:312,1,100,4|0
256,312,22976,2,0,B|152:304,1,100,8|0
64,272,23390,5,4
40,176,23596,1,0
96,88,23803,2,8,B|224:56,1,100,12|0
256,144,24217,1,4
256,240,24424,1,0
352,232,24631,2,0,B|352:128,1,100,12|0
304,40,25045,1,4
400,72,25252,1,0
429,169,25459,2,12,B|348:237,1,100,12|0
296,152,25872,1,4
192,152,26079,1,0
168,248,26286,2,0,B|272:304,1,100,12|0
256,32,26700,5,4
96,192,27114,1,12
416,192,27527,1,4
256,352,27941,1,12
256,192,28355,1,0
256,32,28769,5,8
256,128,28976,1,8
256,224,29183,2,8,B|256:296,7,50
304,280,30010,6,2,B|320:344|400:344,2,100
376,272,30527,2,0,B|440:176,1,100,0|2
184,48,31459,5,2
88,72,31665,1,0
48,160,31872,1,2
144,216,32079,1,2
144,216,32183,1,2
216,152,32390,1,6
432,328,33114,5,2
464,288,33217,1,2
432,248,33321,1,2
376,336,33527,1,0
376,224,33734,1,2
376,224,33838,1,2
296,280,34045,1,14
192,48,34769,6,0,B|240:104|176:152,1,100
88,136,35183,2,0,B|40:184|88:224,1,100,0|2
88,272,35493,1,2
32,352,35700,1,4
384,336,36424,5,2
336,320,36528,1,0
288,296,36631,1,2
224,216,36838,1,0
232,112,37045,1,2
232,112,37148,1,2
328,136,37355,2,0,B|400:216|328:296|464:336,1,250,0|0
488,240,38079,5,2
440,232,38183,1,0
440,184,38286,1,2
496,96,38493,1,0
400,64,38700,1,0
400,64,38803,2,2,B|352:128|344:16|288:88,1,100
96,72,39528,5,2
64,112,39631,1,0
96,144,39734,1,2
64,184,39838,1,0
96,216,39941,1,4
96,312,40148,1,2
192,312,40355,1,2
192,312,40459,1,0
192,208,40665,1,4
464,64,41183,5,2
464,160,41390,1,2
376,112,41596,1,0
272,112,41803,1,0
352,168,42010,2,2,B|312:240,1,50
304,168,42217,2,2,B|272:216,1,50,0|2
264,304,42528,1,0
160,304,42734,1,0
64,264,42941,1,0
40,216,43045,1,0
80,184,43148,1,0
80,136,43252,5,4
112,40,43459,2,0,B|160:8|216:48,1,100,0|8
232,88,43769,1,0
320,48,43976,2,0,B|392:128,1,100
384,224,44390,1,0
384,272,44493,2,0,B|408:344|336:368,1,100,8|0
256,336,44907,6,0,B|144:256,1,100
128,184,45321,1,8
176,184,45424,1,0
176,80,45631,2,0,B|304:80,1,100
328,168,46045,1,0
352,120,46148,1,14
400,120,46252,1,0
416,168,46355,1,2
376,192,46459,1,0
408,224,46562,6,0,B|456:240|440:312,1,100
352,352,46976,1,8
304,352,47079,1,0
200,352,47286,2,0,B|96:256,1,100
240,288,47700,1,0
240,240,47803,2,0,B|288:192|200:184|264:120,1,100,8|0
152,184,48217,6,0,B|56:248,1,100,0|0
64,128,48631,1,8
64,80,48734,1,0
160,72,48941,2,0,B|264:64,1,100
360,64,49355,1,0
360,112,49459,1,10
408,128,49562,1,0
408,80,49665,1,2
448,104,49769,1,0
464,152,49872,6,0,B|504:208|448:264,2,100,0|0|8
408,200,50390,2,0,B|280:200,2,100,0|0|0
360,288,51010,1,0
360,336,51114,1,8
272,280,51321,5,2
248,320,51424,1,0
208,352,51528,2,0,B|152:352|128:296,1,100,2|0
48,240,51941,1,8
48,192,52045,1,0
48,88,52252,2,2,B|136:24,1,100
208,96,52665,5,0
184,136,52769,1,12
184,184,52872,1,0
224,216,52976,1,2
272,216,53079,1,0
296,176,53183,6,2,B|320:120|256:88,1,100
344,32,53596,1,10
376,72,53700,1,0
456,128,53907,2,2,B|480:248,1,100
408,296,54321,1,0
360,304,54424,1,8
256,304,54631,1,0
152,304,54838,6,0,B|80:232,1,100
88,136,55252,2,2,B|128:104,1,50
48,96,55459,2,2,B|96:48,1,50,2|0
184,72,55769,2,2,B|264:144,2,100
232,48,56286,1,0
280,48,56390,1,2
328,64,56493,6,0,B|412:136,1,100,0|4
416,232,56907,2,0,B|416:360,1,100,8|4
328,288,57321,2,0,B|328:160,1,100,0|4
328,288,57734,2,0,B|224:232,1,100,8|4
328,288,58148,2,0,B|248:360,1,100,0|4
328,288,58562,2,0,B|224:232,1,100,8|4
328,288,58976,2,0,B|328:176,1,100,0|4
400,120,59390,5,10
360,88,59493,1,0
320,120,59596,1,2
280,88,59700,1,0
240,120,59803,6,2,B|128:120,1,100
56,176,60217,1,8
56,224,60321,1,0
136,288,60528,2,0,B|160:344|224:336,1,100
312,336,60941,1,0
312,288,61045,2,0,B|432:288,1,100,8|0
456,200,61459,6,0,B|456:88,1,100
368,144,61872,1,8
320,144,61976,1,0
232,96,62183,2,0,B|232:208,1,100,0|0
56,64,62596,5,0
40,112,62700,1,10
64,152,62803,1,0
112,168,62907,1,2
152,136,63010,1,0
152,88,63114,6,0,B|184:40|256:48,1,100
328,80,63528,1,8
328,80,63631,1,0
400,144,63838,2,0,B|416:200|376:248,1,100
296,296,64252,1,0
248,296,64355,1,8
152,328,64562,1,2
112,296,64665,1,0
88,248,64769,6,0,B|40:216|56:144,1,100,2|0
88,64,65183,1,8
136,64,65286,1,0
232,64,65493,1,0
328,64,65700,1,0
416,120,65907,5,0
448,160,66010,1,10
448,208,66114,1,0
416,248,66217,1,2
368,256,66321,1,0
328,288,66424,6,2,B|216:288,1,100
128,288,66838,1,8
128,240,66941,1,0
64,160,67148,2,0,B|152:64,1,100
232,88,67562,1,0
256,128,67665,2,0,B|288:176|208:176|272:240,1,100,8|0
256,320,68079,5,0
256,216,68286,1,0
352,208,68493,1,0
384,168,68596,1,0
384,120,68700,1,0
352,80,68803,1,0
256,144,69010,5,0
256,144,69217,1,0
160,80,69424,1,0
128,120,69528,1,0
128,168,69631,1,0
160,208,69734,6,4,B|216:304|336:256,1,200
432,88,70562,2,4,B|352:8|232:16,1,200
0,104,71390,2,4,B|-72:224|88:280,1,200
376,272,72217,2,4,B|456:216|424:80,1,200,4|4
192,24,73045,2,4,B|88:8|0:104,1,200
168,312,73872,2,4,B|256:328|384:248,1,200
152,120,74700,5,0
200,120,74803,1,0
248,120,74907,1,0
296,120,75010,1,0
344,120,75114,1,0
336,168,75217,1,0
304,200,75321,1,0
256,200,75424,1,0
208,200,75528,2,0,B|160:200,16,25,0|0|0|0|0|0|0|0|0|0|0|0|0|0|0|2|2
40,40,76769,5,2
256,328,77183,1,2
472,40,77596,1,2
312,168,78010,1,2
256,80,78217,1,0
200,168,78424,1,2
256,360,78838,1,2
312,168,79252,5,2
256,80,79459,1,0
200,168,79665,1,2
40,344,80079,5,2
472,344,80493,1,2
256,56,80907,1,2
312,248,81321,5,2
200,248,81528,1,0
368,168,81734,1,2
144,168,81941,1,0
312,88,82148,1,2
200,88,82355,1,0
256,176,82562,1,2
256,8,82769,1,2
256,104,82976,5,2
376,264,83390,1,2
136,264,83803,1,2
256,104,84217,1,2
256,304,84631,1,2
344,192,84838,1,0
168,192,85045,1,2
448,192,85459,1,2
312,336,85872,5,2
200,336,86079,1,0
256,248,86286,1,2
56,48,86700,1,2
456,48,87114,1,2
256,248,87528,1,6
208,8,87941,5,2
304,8,88148,1,0
152,96,88355,1,2
360,96,88562,1,0
208,176,88769,1,2
304,176,88976,1,0
256,272,89183,1,2
256,96,89390,1,2
152,96,89596,6,0,B|96:112|88:168,1,100
88,264,90010,2,0,B|112:320|176:312,1,100,8|0
264,320,90424,2,0,B|320:336|360:288,1,100
416,216,90838,2,0,B|456:168|432:112,1,100,8|0
360,56,91252,2,0,B|312:24|248:32,1,100
160,24,91665,2,0,B|80:40|0:80|-16:128,1,200,8|0
176,192,92493,5,10
256,104,92700,1,0
336,192,92907,1,10
256,272,93114,6,0,B|256:200,2,50
256,160,93528,1,0
256,160,93734,1,8
176,80,93941,2,0,B|176:168,2,50
256,0,94355,1,0
336,72,94562,5,10
448,72,94769,1,0
280,160,94976,1,10
504,160,95183,1,0
336,248,95390,1,2
448,248,95596,1,0
392,160,95803,1,10
392,336,96010,1,2
256,344,96217,5,2
40,40,96631,1,8
472,40,97045,1,2
256,344,97459,1,10
320,152,97872,5,2
256,48,98079,1,0
192,152,98286,1,10
256,344,98700,1,2
360,176,99114,5,10
256,184,99321,1,0
152,184,99528,1,2
256,8,99941,1,8
256,376,100355,1,2
400,192,100769,1,8
184,192,101183,5,2
184,80,101390,1,8
256,248,101596,1,2
256,24,101803,1,0
336,192,102010,1,8
336,80,102217,2,2,B|240:160,2,100
464,48,102838,5,4
264,48,103252,1,8
360,224,103665,2,0,B|264:272|264:152|168:232,1,200,0|8
152,128,104286,5,0
64,168,104493,1,4
56,264,104700,1,0
144,320,104907,1,8
232,264,105114,1,0
328,296,105321,2,0,B|424:264|464:128,1,200,4|8
256,152,106148,5,4
432,56,106562,1,8
232,56,106976,2,4,B|112:72|128:224,1,200,4|12
88,288,107596,5,0
192,288,107803,1,4
192,184,108010,1,0
296,184,108217,1,8
296,288,108424,1,0
384,232,108631,2,0,B|392:112|288:64,1,200,4|8
32,192,109459,5,4
232,192,109872,1,8
128,16,110286,1,4
344,72,110700,5,8
432,112,110907,1,0
432,208,111114,1,4
256,296,111528,2,0,B|152:296|64:208,1,200,8|4
320,136,112355,5,8
192,136,112562,1,0
256,264,112769,5,4
416,64,113183,1,12
96,64,113596,1,4
256,160,114010,1,8
256,360,114424,1,0
256,192,114528,12,4,115252
416,320,116079,6,0,B|320:240,1,100,4|0
256,312,116493,2,0,B|168:232,1,100,8|0
128,328,116907,2,0,B|40:248,1,100,4|0
112,176,117321,2,0,B|200:72,1,100,8|0
80,64,117734,2,2,B|232:-40|232:128|376:40,1,300
440,112,118562,2,0,B|440:232,1,100,4|0
480,304,118976,2,0,B|352:360,1,100,8|0
288,336,119390,6,0,B|176:288,1,100,4|0
96,296,119803,2,0,B|96:160,1,100,8|0
184,144,120217,2,0,B|272:256,1,100,4|0
312,144,120631,2,0,B|440:112,1,100,8|0
336,48,121045,2,0,B|208:48,1,100,4|0
144,80,121459,2,0,B|64:200,1,100,8|0
56,256,121872,2,0,B|168:312,1,100,4|0
248,312,122286,2,0,B|352:304,1,100,8|0
448,280,122700,5,4
472,184,122907,1,0
424,96,123114,2,8,B|296:64,1,100,12|0
256,144,123528,1,4
256,240,123734,1,0
160,232,123941,2,0,B|160:128,1,100,12|0
208,40,124355,1,4
112,72,124562,1,0
80,174,124769,2,12,B|164:236,1,100,12|0
216,152,125183,1,4
320,152,125390,1,0
344,248,125596,2,0,B|240:304,1,100,12|0
256,32,126010,5,4
416,192,126424,1,12
96,192,126838,1,4
256,352,127252,1,12
256,192,127665,1,0
256,192,127769,12,0,129321
