osu file format v13

[General]
AudioFilename: track.mp3
AudioLeadIn: 0
PreviewTime: 24796
Countdown: 0
SampleSet: Normal
StackLeniency: 0.7
Mode: 0
LetterboxInBreaks: 0
EpilepsyWarning: 1
WidescreenStoryboard: 1

[Editor]
Bookmarks: 2853,7396,55482,164511
DistanceSpacing: 1.6
BeatDivisor: 4
GridSize: 4
TimelineZoom: 5.599997

[Metadata]
Title:Colours of the Rainbow (Nightcore Mix)
TitleUnicode:Colours of the Rainbow (Nightcore Mix)
Artist:Tune Up! vs. ItaloBrothers
ArtistUnicode:Tune Up! vs. ItaloBrothers
Creator:Kazuya
Version:Rave!
Source:
Tags:kurokami kazuya-sama -Bakari- trance techno remix
BeatmapID:490185
BeatmapSetID:208123

[Difficulty]
HPDrainRate:7
CircleSize:4
OverallDifficulty:8
ApproachRate:9
SliderMultiplier:1.7
SliderTickRate:1

[Events]
//Background and Video events
0,0,"bkg.jpg",0,0
//Break Periods
2,81225,85911
//Storyboard Layer 0 (Background)
//Storyboard Layer 1 (Fail)
//Storyboard Layer 2 (Pass)
//Storyboard Layer 3 (Foreground)
//Storyboard Sound Samples
//Background Colour Transformations
3,100,0,0,0

[TimingPoints]
111,342.857142857143,4,2,1,30,1,0
23425,-100,4,2,1,15,0,0
23768,-100,4,2,1,20,0,0
24111,-100,4,2,1,25,0,0
24453,-100,4,2,1,30,0,0
24796,-100,4,2,1,30,0,0
35768,-100,4,1,1,30,0,0
46053,-100,4,1,1,15,0,0
46396,-100,4,1,1,20,0,0
46825,-100,4,2,1,25,0,0
48111,-100,4,2,1,30,0,0
59082,-100,4,1,1,30,0,0
70053,-83.3333333333333,4,1,1,30,0,1
78282,-83.3333333333333,4,1,1,30,0,0
86511,-100,4,2,1,30,0,0
130396,-100,4,1,1,30,0,0
142396,-100,4,2,1,30,0,0
142739,-100,4,1,1,30,0,0
153711,-83.3333333333333,4,1,1,30,0,1
161939,-83.3333333333333,4,1,1,30,0,0
163996,-83.3333333333333,4,1,1,5,0,0

[Colours]
Combo1 : 191,106,249
Combo2 : 217,119,177
Combo3 : 154,224,37
Combo4 : 39,231,231
Combo5 : 225,225,28
SliderBorder : 255,255,255

[HitObjects]
16,64,2853,6,0,L|24:236,1,170,8|2,3:0|0:0,0:0:0:0:
29,336,3368,1,0,0:0:0:0:
116,283,3539,2,0,P|177:268|200:275,1,85,0|8,0:0|3:0,0:0:0:0:
279,334,3882,1,2,0:0:0:0:
372,292,4053,1,0,0:0:0:0:
440,216,4225,6,0,L|432:132,1,85,8|0,3:0|0:0,0:0:0:0:
334,96,4568,2,0,L|342:180,1,85,2|0,0:0|0:0,0:0:0:0:
248,140,4911,2,0,P|224:112|76:108,1,170,8|2,3:0|0:0,0:0:0:0:
72,296,5596,6,0,P|112:276|160:284,1,85,8|0,3:0|0:0,0:0:0:0:
322,302,5939,2,0,P|285:322|243:319,1,85,2|0,0:0|0:0,0:0:0:0:
216,204,6282,2,0,P|212:162|232:125,1,85,0|8,0:0|3:0,0:0:0:0:
304,52,6625,1,2,0:0:0:0:
472,168,6968,2,0,B|452:208|408:200|408:200|444:240|416:288,1,170,8|2,3:0|0:0,0:0:0:0:
94,284,7653,2,0,B|68:240|104:200|104:200|60:208|40:168,1,170,8|2,3:0|0:0,0:0:0:0:
256,68,8339,6,0,P|297:99|310:138,1,85,8|0,3:0|0:0,0:0:0:0:
336,228,8682,2,0,P|354:265|389:289,1,85,2|0,0:0|0:0,0:0:0:0:
432,196,9025,2,0,L|428:108,1,85,0|8,0:0|3:0,0:0:0:0:
419,9,9368,1,2,0:0:0:0:
419,9,9539,1,0,0:0:0:0:
340,74,9711,2,0,P|291:90|252:82,1,85,8|0,3:0|0:0,0:0:0:0:
165,46,10053,2,0,P|116:29|77:38,1,85,2|0,0:0|0:0,0:0:0:0:
23,117,10396,2,0,L|30:305,1,170,8|2,3:0|0:0,0:0:0:0:
240,180,11082,6,0,P|282:183|318:204,1,85,8|0,3:0|0:0,0:0:0:0:
404,260,11425,2,0,P|447:283|484:284,1,85,2|8,0:0|3:0,0:0:0:0:
473,176,11768,2,0,P|504:91|469:23,1,170,0|2,0:0|0:0,0:0:0:0:
402,100,12282,1,0,0:0:0:0:
334,176,12453,6,0,P|276:196|246:188,1,85,8|0,3:0|0:0,0:0:0:0:
196,108,12796,2,0,P|158:89|116:92,1,85,2|8,0:0|3:0,0:0:0:0:
32,148,13139,2,0,B|24:192|24:192|32:236,1,85,0|8,0:0|3:0,0:0:0:0:
93,313,13482,1,2,0:0:0:0:
160,236,13653,1,0,0:0:0:0:
352,236,13825,6,0,P|370:269|419:297,1,85,8|0,3:0|0:0,0:0:0:0:
443,198,14168,2,0,P|468:169|477:113,1,85,2|8,0:0|3:0,0:0:0:0:
444,28,14511,2,0,B|404:56|364:44|364:44|376:80|340:124,1,170,0|2,0:0|0:0,0:0:0:0:
68,28,15196,2,0,B|108:56|148:44|148:44|136:80|172:124,1,170,8|2,3:0|0:0,0:0:0:0:
256,196,15711,1,8,3:0:0:0:
188,272,15882,2,0,P|137:299|100:288,1,85,0|8,0:0|3:0,0:0:0:0:
48,216,16225,1,2,0:0:0:0:
28,116,16396,1,0,0:0:0:0:
108,52,16568,6,0,P|162:46|200:68,1,85,8|0,3:0|0:0,0:0:0:0:
404,126,16911,2,0,P|363:134|324:120,1,85,2|8,0:0|3:0,0:0:0:0:
208,176,17253,2,0,P|175:203|161:242,1,85,0|8,0:0|3:0,0:0:0:0:
256,328,17596,1,2,0:0:0:0:
492,232,17939,6,0,P|504:192|500:144,1,85,8|0,3:0|0:0,0:0:0:0:
403,178,18282,2,0,P|393:137|365:97,1,85,2|8,0:0|3:0,0:0:0:0:
280,52,18625,1,0,0:0:0:0:
183,83,18796,1,8,3:0:0:0:
140,176,18968,1,2,0:0:0:0:
43,207,19139,1,0,0:0:0:0:
123,306,19311,5,8,3:0:0:0:
204,368,19482,1,0,0:0:0:0:
389,306,19653,1,2,0:0:0:0:
308,368,19825,1,8,3:0:0:0:
208,260,19996,2,0,P|176:220|164:176,1,85,0|8,0:0|3:0,0:0:0:0:
304,124,20339,2,0,P|336:164|348:208,1,85,2|0,0:0|0:0,0:0:0:0:
312,292,20682,2,0,B|368:304|400:280|400:280|416:316|464:324,1,170,8|2,3:0|0:0,0:0:0:0:
200,292,21368,2,0,B|144:304|112:280|112:280|96:316|48:324,1,170,8|2,3:0|0:0,0:0:0:0:
112,76,22053,5,8,3:0:0:0:
112,76,22225,1,8,3:0:0:0:
172,188,22396,1,8,3:0:0:0:
172,188,22568,1,8,3:0:0:0:
400,76,22739,1,8,3:0:0:0:
400,76,22911,1,8,3:0:0:0:
340,188,23082,1,8,3:0:0:0:
340,188,23253,1,8,3:0:0:0:
256,284,23425,5,8,3:0:0:0:
226,308,23511,1,8,3:0:0:0:
191,322,23596,1,8,3:0:0:0:
153,325,23682,1,8,3:0:0:0:
116,317,23768,1,8,3:0:0:0:
82,299,23853,1,8,3:0:0:0:
56,271,23939,1,8,3:0:0:0:
39,237,24025,1,8,3:0:0:0:
33,198,24111,1,8,3:0:0:0:
37,158,24196,1,8,3:0:0:0:
55,126,24282,1,8,3:0:0:0:
83,99,24368,1,8,3:0:0:0:
116,81,24453,1,8,3:0:0:0:
153,73,24539,1,8,3:0:0:0:
192,78,24625,1,8,3:0:0:0:
227,93,24711,1,8,3:0:0:0:
256,120,24796,6,0,P|296:144|344:136,1,85,4|0,0:0|0:0,0:0:0:0:
408,72,25139,1,8,0:0:0:0:
484,140,25311,1,0,0:0:0:0:
464,240,25482,2,0,P|452:283|424:312,1,85
344,248,25825,2,0,P|313:276|272:287,1,85,8|0,0:0|0:0,0:0:0:0:
184,236,26168,2,0,B|140:208|96:228|96:228|116:192|100:152,1,170,0|8,0:0|0:0,0:0:0:0:
411,153,26853,2,0,B|396:192|416:228|416:228|372:208|328:236,1,170,0|8,0:0|0:0,0:0:0:0:
212,68,27539,5,0,0:0:0:0:
312,48,27711,1,0,0:0:0:0:
376,163,27882,1,8,0:0:0:0:
276,143,28053,1,0,0:0:0:0:
220,228,28225,2,0,P|184:266|147:278,1,85
131,177,28568,2,0,P|98:151|81:113,1,85,8|0,0:0|0:0,0:0:0:0:
180,88,28911,2,0,B|232:36|292:56|292:56|292:32|313:16,2,170,0|8|0,0:0|0:0|0:0,0:0:0:0:
92,272,29939,1,8,0:0:0:0:
168,340,30111,1,0,0:0:0:0:
236,264,30282,6,0,P|276:240|324:240,1,85
453,353,30625,2,0,P|411:349|376:327,1,85,8|0,0:0|0:0,0:0:0:0:
444,256,30968,2,0,B|480:184|480:184|464:96,1,170,0|8,0:0|0:0,0:0:0:0:
412,8,31482,1,0,0:0:0:0:
340,80,31653,2,0,P|296:104|248:96,1,85
93,33,31996,2,0,P|135:32|171:55,1,85,8|0,0:0|0:0,0:0:0:0:
168,157,32339,2,0,P|145:192|146:234,1,85,0|0,0:0|0:0,0:0:0:0:
176,332,32682,1,8,0:0:0:0:
256,269,32853,1,0,0:0:0:0:
336,332,33025,5,0,0:0:0:0:
336,332,33196,2,0,P|377:349|432:328,1,85,0|8,0:0|0:0,0:0:0:0:
484,265,33539,2,0,P|516:177|484:113,1,170
408,44,34053,1,8,0:0:0:0:
335,116,34225,1,0,0:0:0:0:
240,80,34396,2,0,P|185:60|156:68,1,85
80,128,34739,2,0,L|68:308,2,170,8|0|8,0:0|0:0|0:0,0:0:0:0:
161,66,35596,1,0,0:0:0:0:
256,104,35768,6,0,P|304:120|344:120,1,85,4|0,0:0|0:0,0:0:0:0:
428,72,36111,2,0,P|439:114|432:164,1,85,8|0,0:0|0:0,0:0:0:0:
422,191,36368,1,0,0:0:0:0:
391,213,36453,2,0,P|353:228|307:221,1,85
216,172,36796,2,0,P|178:156|132:164,1,85,8|0,0:0|0:0,0:0:0:0:
68,240,37139,2,0,P|36:160|72:84,1,170,0|8,0:0|0:0,0:0:0:0:
153,30,37653,1,0,0:0:0:0:
153,30,37739,1,0,0:0:0:0:
153,30,37825,2,0,L|244:36,1,85
380,114,38168,2,0,L|296:120,1,85,8|0,0:0|0:0,0:0:0:0:
168,128,38511,5,0,0:0:0:0:
72,236,38682,1,0,0:0:0:0:
192,316,38853,2,0,P|224:300|284:312,1,85,8|0,0:0|0:0,0:0:0:0:
306,323,39111,1,0,0:0:0:0:
335,347,39196,2,0,P|367:363|427:351,1,85,0|0,0:0|0:0,0:0:0:0:
487,285,39539,2,0,L|496:200,1,85,8|0,0:0|0:0,0:0:0:0:
509,99,39882,2,0,P|465:55|361:63,1,170,0|8,0:0|0:0,0:0:0:0:
280,120,40396,1,0,0:0:0:0:
280,120,40482,1,0,0:0:0:0:
280,120,40568,2,0,P|224:144|192:136,1,85
119,80,40911,1,8,0:0:0:0:
53,157,41082,1,0,0:0:0:0:
107,243,41253,6,0,P|143:271|199:271,1,85
405,141,41596,2,0,P|369:113|313:113,1,85,8|0,0:0|0:0,0:0:0:0:
296,124,41853,1,0,0:0:0:0:
263,144,41939,2,0,P|217:150|169:122,1,85,0|0,0:0|0:0,0:0:0:0:
105,68,42282,1,8,0:0:0:0:
105,68,42453,1,0,0:0:0:0:
52,156,42625,6,0,B|44:196|44:196|52:240,1,85
148,204,42968,2,0,B|154:244|154:244|176:282,1,85,8|0,0:0|0:0,0:0:0:0:
257,345,43311,1,0,0:0:0:0:
348,300,43482,1,0,0:0:0:0:
439,254,43653,2,0,P|455:210|448:168,1,85,8|0,0:0|0:0,0:0:0:0:
408,52,43996,5,0,0:0:0:0:
340,128,44168,2,0,P|296:148|256:144,1,85,0|8,0:0|0:0,0:0:0:0:
178,84,44511,1,0,0:0:0:0:
178,84,44596,1,0,0:0:0:0:
178,84,44682,2,0,P|134:64|94:68,1,85,0|0,0:0|0:0,0:0:0:0:
20,132,45025,1,8,0:0:0:0:
30,233,45196,1,0,0:0:0:0:
104,304,45368,2,0,L|196:312,1,85
356,244,45711,2,0,L|272:252,1,85,8|0,0:0|0:0,0:0:0:0:
180,208,46053,5,8,0:0:0:0:
152,181,46139,1,8,0:0:0:0:
142,143,46225,1,8,0:0:0:0:
150,105,46311,1,8,0:0:0:0:
174,76,46396,1,8,0:0:0:0:
210,64,46482,1,8,0:0:0:0:
247,69,46568,1,8,0:0:0:0:
278,89,46653,1,8,0:0:0:0:
297,122,46739,1,8,0:0:0:0:
256,192,46825,12,2,47768,0:0:0:0:
220,96,48111,6,0,P|154:114|132:104,1,85,10|0,0:0|0:0,0:0:0:0:
64,44,48453,1,8,0:0:0:0:
28,140,48625,1,0,0:0:0:0:
96,216,48796,2,0,P|88:256|104:312,1,85,10|0,0:0|0:0,0:0:0:0:
190,256,49139,2,0,P|202:215|230:183,1,85,10|0,0:0|0:0,0:0:0:0:
315,127,49482,5,8,0:0:0:0:
491,70,49653,1,2,0:0:0:0:
381,220,49825,1,8,0:0:0:0:
382,35,49996,1,2,0:0:0:0:
491,184,50168,1,8,0:0:0:0:
296,328,50511,2,0,P|244:346|204:336,1,85,10|0,0:0|0:0,0:0:0:0:
104,280,50853,6,0,L|92:192,1,85,10|0,0:0|0:0,0:0:0:0:
79,94,51196,1,10,0:0:0:0:
155,26,51368,1,0,0:0:0:0:
220,104,51539,2,0,P|265:120|312:112,1,85,10|0,0:0|0:0,0:0:0:0:
476,63,51882,2,0,P|434:59|395:76,1,85,8|0,0:0|0:0,0:0:0:0:
384,177,52225,2,0,P|412:237|408:261,1,85,10|0,0:0|0:0,0:0:0:0:
353,338,52568,2,0,P|312:368|188:348,2,170,10|10|10,0:0|0:0|0:0,0:0:0:0:
428,268,53425,1,10,0:0:0:0:
384,176,53596,6,0,P|340:172|308:144,1,85,10|0,0:0|0:0,0:0:0:0:
256,59,53939,1,10,0:0:0:0:
202,146,54111,1,0,0:0:0:0:
108,108,54282,2,0,P|71:133|52:176,1,85,10|0,0:0|0:0,0:0:0:0:
132,236,54625,2,0,P|143:278|177:311,1,85,10|0,0:0|0:0,0:0:0:0:
257,363,54968,5,8,0:0:0:0:
372,276,55139,1,2,0:0:0:0:
256,188,55311,1,8,0:0:0:0:
376,108,55482,1,2,0:0:0:0:
256,28,55653,2,0,P|216:12|100:52,1,170,8|8,0:0|0:0,0:0:0:0:
70,175,56168,6,8,L|62:211,4,21.25,0|0|0|0|0,3:0|3:0|3:0|3:0|3:0,3:0:0:0:
193,141,56511,2,0,L|185:105,4,21.25,0|0|0|0|0,3:0|3:0|3:0|3:0|3:0,3:0:0:0:
160,264,56853,2,8,L|152:300,4,21.25,0|0|0|0|0,3:0|3:0|3:0|3:0|3:0,3:0:0:0:
280,220,57196,2,8,L|288:184,4,21.25,0|0|0|0|0,3:0|3:0|3:0|3:0|3:0,3:0:0:0:
348,328,57539,2,8,L|340:364,4,21.25,0|0|0|0|8,3:0|3:0|3:0|3:0|3:0,3:0:0:0:
408,215,57882,1,8,3:0:0:0:
380,91,58053,1,8,3:0:0:0:
256,123,58225,1,8,3:0:0:0:
132,95,58396,1,8,3:0:0:0:
300,337,58739,2,0,B|256:345|256:345|214:337,1,85,8|8,3:0|3:0,0:0:0:0:
64,260,59082,6,0,L|52:168,1,85,12|0,0:0|0:0,0:0:0:0:
40,74,59425,1,8,0:0:0:0:
124,16,59596,1,0,0:0:0:0:
200,84,59768,2,0,P|241:104|284:104,1,85,8|0,0:0|0:0,0:0:0:0:
438,60,60111,2,0,P|401:40|358:39,1,85,8|0,0:0|0:0,0:0:0:0:
372,139,60453,6,0,P|375:187|396:225,1,85,8|0,0:0|0:0,0:0:0:0:
456,298,60796,1,8,0:0:0:0:
378,363,60968,1,0,0:0:0:0:
288,316,61139,2,0,L|196:328,1,85,8|0,0:0|0:0,0:0:0:0:
103,340,61482,1,8,0:0:0:0:
26,273,61653,1,0,0:0:0:0:
88,192,61825,6,0,B|120:156|108:112|108:112|144:136|188:108,1,170,8|8,0:0|0:0,0:0:0:0:
256,33,62339,1,0,0:0:0:0:
326,108,62511,2,0,B|368:136|404:112|404:112|392:156|424:192,1,170,8|8,0:0|0:0,0:0:0:0:
256,308,63196,2,0,P|212:332|168:328,1,85,8|0,0:0|0:0,0:0:0:0:
123,245,63539,2,0,B|94:257|75:288|74:336|74:336|39:320|9:347,2,170,8|8|8,0:0|0:0|0:0,0:0:0:0:
220,212,64396,1,0,0:0:0:0:
320,192,64568,6,0,P|352:156|360:120,1,85,8|0,0:0|0:0,0:0:0:0:
328,24,64911,1,8,0:0:0:0:
256,96,65082,1,0,0:0:0:0:
164,52,65253,2,0,L|72:64,1,85,8|0,0:0|0:0,0:0:0:0:
26,150,65596,2,0,L|110:160,1,85,8|0,0:0|0:0,0:0:0:0:
212,168,65939,5,8,0:0:0:0:
368,219,66111,1,2,2:0:0:0:
211,270,66282,1,8,0:0:0:0:
309,136,66453,1,2,2:0:0:0:
309,301,66625,2,0,P|260:360|168:364,1,170,8|8,0:0|0:0,0:0:0:0:
96,280,67139,1,0,0:0:0:0:
76,167,67311,6,0,L|60:83,1,85,8|0,0:0|0:0,0:0:0:0:
159,106,67653,2,0,L|174:189,1,85,8|0,0:0|0:0,0:0:0:0:
348,254,67996,2,0,L|332:170,1,85,8|0,0:0|0:0,0:0:0:0:
432,192,68339,2,0,L|447:275,1,85,8|0,0:0|0:0,0:0:0:0:
396,364,68682,5,8,0:0:0:0:
116,364,69025,2,0,P|96:312|100:280,1,85,8|0,0:0|0:0,0:0:0:0:
144,192,69368,1,8,0:0:0:0:
324,100,69539,1,2,2:0:0:0:
256,268,69711,1,8,0:0:0:0:
188,100,69882,1,2,2:0:0:0:
368,192,70053,6,0,P|388:228|388:288,1,101.999996887207,4|0,0:0|0:0,0:0:0:0:
292,364,70396,2,0,P|251:340|192:344,1,101.999996887207,8|0,0:0|0:0,0:0:0:0:
165,358,70653,1,0,0:0:0:0:
130,365,70739,2,0,P|67:356|34:333,1,101.999996887207
117,243,71082,2,0,P|92:184|96:143,1,101.999996887207,8|0,0:0|0:0,0:0:0:0:
148,36,71425,6,0,L|256:44,1,101.999996887207
384,169,71768,2,0,P|336:185|286:178,1,101.999996887207,8|0,0:0|0:0,0:0:0:0:
253,164,72025,1,0,0:0:0:0:
220,150,72111,2,0,P|172:133|122:140,1,101.999996887207,0|0,0:0|0:0,0:0:0:0:
9,226,72453,1,8,0:0:0:0:
96,340,72625,1,0,0:0:0:0:
232,296,72796,6,0,P|296:276|336:284,1,101.999996887207
424,360,73139,1,8,0:0:0:0:
496,260,73311,1,0,0:0:0:0:
496,260,73396,1,0,0:0:0:0:
496,260,73482,2,0,L|508:152,1,101.999996887207
399,26,73825,2,0,L|388:128,1,101.999996887207,8|0,0:0|0:0,0:0:0:0:
373,249,74168,6,0,P|324:276|265:265,1,101.999996887207
180,200,74511,1,8,0:0:0:0:
228,88,74682,1,0,0:0:0:0:
228,88,74768,1,0,0:0:0:0:
228,88,74853,2,0,P|294:111|336:100,1,101.999996887207
432,48,75196,1,8,0:0:0:0:
504,148,75368,1,0,0:0:0:0:
372,248,75539,6,0,P|312:240|268:256,1,101.999996887207
176,328,75882,2,0,P|116:336|72:320,1,101.999996887207,8|0,0:0|0:0,0:0:0:0:
47,304,76139,1,0,0:0:0:0:
35,270,76225,2,0,L|32:164,1,101.999996887207
60,48,76568,2,0,P|128:24|172:36,1,101.999996887207,8|0,0:0|0:0,0:0:0:0:
256,100,76911,6,0,L|256:208,2,101.999996887207,0|0|8,0:0|0:0|0:0,0:0:0:0:
356,28,77425,1,0,0:0:0:0:
356,28,77511,1,0,0:0:0:0:
356,28,77596,2,0,P|406:25|452:48,1,101.999996887207,0|0,0:0|0:0,0:0:0:0:
500,160,77939,1,8,0:0:0:0:
400,232,78111,1,0,0:0:0:0:
504,296,78282,5,0,0:0:0:0:
400,360,78453,2,0,P|348:368|300:344,1,101.999996887207,0|8,0:0|0:0,0:0:0:0:
228,252,78796,1,0,0:0:0:0:
228,252,78882,1,0,0:0:0:0:
228,252,78968,2,0,L|244:144,2,101.999996887207,0|0|8,0:0|0:0|0:0,0:0:0:0:
132,328,79482,1,0,0:0:0:0:
52,236,79653,5,8,3:0:0:0:
152,164,79825,1,8,3:0:0:0:
48,100,79996,1,8,3:0:0:0:
148,32,80168,1,8,3:0:0:0:
252,96,80339,2,0,P|400:56|440:84,1,203.999993774414,8|8,3:0|3:0,0:0:0:0:
484,188,80853,1,8,3:0:0:0:
488,224,80939,1,8,3:0:0:0:
492,260,81025,1,4,0:0:0:0:
264,320,86511,6,0,L|256:224,1,85,0|0,1:0|0:0,0:0:0:0:
332,91,86853,2,0,L|339:175,1,85,0|0,1:0|0:0,0:0:0:0:
353,277,87196,2,0,P|416:243|435:141,2,170,0|0|0,1:0|1:0|1:0,0:0:0:0:
81,248,88225,1,0,1:0:0:0:
256,40,88568,1,0,1:0:0:0:
484,192,88911,2,0,L|480:284,1,85,0|0,1:0|0:0,0:0:0:0:
400,340,89253,5,0,1:0:0:0:
275,191,89425,1,2,0:0:0:0:
304,304,89596,1,0,1:0:0:0:
372,228,89768,1,2,0:0:0:0:
204,284,89939,2,0,L|120:264,1,85,0|0,1:0|0:0,0:0:0:0:
156,168,90282,2,0,L|93:108,1,85,0|0,1:0|0:0,0:0:0:0:
172,44,90625,6,0,B|220:28|256:44|256:44|296:28|344:44,1,170,0|0,1:0|1:0,0:0:0:0:
340,340,91311,2,0,B|292:356|256:340|256:340|216:356|168:340,1,170,0|0,1:0|1:0,0:0:0:0:
164,136,91996,6,0,P|204:158|252:148,1,85,2|0,0:0|0:0,0:0:0:0:
316,84,92339,1,8,3:0:0:0:
404,32,92511,1,0,0:0:0:0:
480,100,92682,2,0,L|472:276,1,170,2|8,0:0|3:0,0:0:0:0:
464,371,93196,1,0,0:0:0:0:
380,312,93368,6,0,L|288:300,1,85,2|0,0:0|0:0,0:0:0:0:
126,253,93711,2,0,L|211:243,1,85,8|0,3:0|0:0,0:0:0:0:
304,202,94053,2,0,P|328:164|324:118,1,85,2|0,0:0|0:0,0:0:0:0:
256,50,94396,1,8,3:0:0:0:
172,108,94568,1,0,0:0:0:0:
100,36,94739,6,0,P|56:28|8:48,1,85,2|0,0:0|0:0,0:0:0:0:
64,132,95082,2,0,B|40:212|40:212|64:308,1,170,8|2,3:0|0:0,0:0:0:0:
138,363,95596,1,0,0:0:0:0:
224,308,95768,1,8,3:0:0:0:
424,264,96111,6,0,P|480:220|480:128,2,170,2|8|2,0:0|3:0|0:0,0:0:0:0:
336,212,96968,1,0,0:0:0:0:
268,288,97139,2,0,L|172:292,1,85,8|0,3:0|0:0,0:0:0:0:
72,212,97482,6,0,L|60:120,1,85,2|0,0:0|0:0,0:0:0:0:
120,44,97825,1,8,3:0:0:0:
196,112,97996,1,0,0:0:0:0:
272,44,98168,2,0,P|320:24|360:32,1,85,2|0,0:0|0:0,0:0:0:0:
444,72,98511,1,8,3:0:0:0:
488,164,98682,1,0,0:0:0:0:
468,264,98853,2,0,B|424:292|388:268|388:268|392:320|340:344,1,170,2|8,0:0|3:0,0:0:0:0:
44,264,99539,2,0,B|88:292|124:268|124:268|120:320|161:338,1,170,2|8,0:0|3:0,0:0:0:0:
424,120,100225,6,0,P|379:124|336:100,1,85,2|0,0:0|0:0,0:0:0:0:
492,44,100568,2,0,P|524:120|484:204,2,170,8|2|8,3:0|0:0|3:0,0:0:0:0:
424,120,101425,1,0,0:0:0:0:
348,52,101596,2,0,P|290:36|256:44,1,85,2|0,0:0|0:0,0:0:0:0:
199,118,101939,2,0,P|141:133|107:126,1,85,8|0,3:0|0:0,0:0:0:0:
60,44,102282,2,0,P|16:120|44:200,1,170,2|8,0:0|3:0,0:0:0:0:
308,348,102968,6,0,L|315:263,1,85,4|0,0:0|0:0,0:0:0:0:
110,210,103311,2,0,L|102:294,1,85,8|0,3:0|0:0,0:0:0:0:
409,294,103653,2,0,L|402:210,1,85,0|0,0:0|0:0,0:0:0:0:
196,263,103996,2,0,L|204:348,1,85,8|0,3:0|0:0,0:0:0:0:
409,295,104339,2,0,P|429:191|396:136,1,170,0|8,0:0|3:0,0:0:0:0:
103,89,105025,2,0,P|83:193|116:248,1,170,0|8,0:0|3:0,0:0:0:0:
408,320,105711,6,0,P|449:328|489:316,1,85
309,281,106053,2,0,P|300:322|315:367,1,85,8|0,3:0|0:0,0:0:0:0:
393,213,106396,2,0,P|364:182|324:169,1,85
222,164,106739,1,8,3:0:0:0:
53,283,107082,2,0,P|16:209|44:132,2,170,0|8|0,0:0|3:0|0:0,0:0:0:0:
116,204,107939,1,8,3:0:0:0:
116,204,108025,1,8,3:0:0:0:
116,204,108111,1,8,3:0:0:0:
192,136,108282,1,8,3:0:0:0:
192,136,108368,1,8,3:0:0:0:
192,136,108453,6,0,P|228:116|272:116,1,85
360,164,108796,1,8,3:0:0:0:
400,260,108968,1,0,0:0:0:0:
348,348,109139,2,0,L|172:340,1,170,0|8,0:0|3:0,0:0:0:0:
36,192,109825,2,0,B|68:160|108:156|108:156|104:112|140:76,1,170,0|8,0:0|3:0,0:0:0:0:
476,192,110511,2,0,B|444:160|404:156|404:156|408:112|372:76,1,170,0|8,0:0|3:0,0:0:0:0:
256,192,111025,6,8,L|256:232,4,21.25,0|0|0|0|0,3:0|3:0|3:0|3:0|3:0,3:0:0:0:
140,264,111368,2,8,L|160:298,4,21.25,0|0|0|0|0,3:0|3:0|3:0|3:0|3:0,3:0:0:0:
361,282,111711,2,8,L|372:264,4,21.25,0|0|0|0|0,3:0|3:0|3:0|3:0|3:0,3:0:0:0:
372,120,112053,2,8,L|361:101,4,21.25,0|0|0|0|0,3:0|3:0|3:0|3:0|3:0,3:0:0:0:
150,101,112396,2,8,L|140:120,4,21.25,0|0|0|0|8,3:0|3:0|3:0|3:0|3:0,3:0:0:0:
408,192,112911,1,8,3:0:0:0:
104,192,113253,1,8,3:0:0:0:
256,328,113596,6,8,L|256:306,7,21.25,0|0|0|0|8|8|8|8,3:0|3:0|3:0|3:0|3:0|3:0|3:0|3:0,3:0:0:0:
280,356,113939,6,0,P|325:360|376:340,1,85,4|0,0:0|0:0,0:0:0:0:
388,332,114196,1,8,3:0:0:0:
408,308,114282,2,0,L|412:216,1,85,2|8,0:0|3:0,0:0:0:0:
368,132,114625,1,2,0:0:0:0:
256,192,114796,1,8,3:0:0:0:
144,132,114968,2,0,L|140:180,1,42.5,8|8,3:0|3:0,0:0:0:0:
72,312,115311,6,0,P|112:336|164:328,1,85,2|0,0:0|0:0,0:0:0:0:
176,320,115568,1,8,3:0:0:0:
200,300,115653,2,0,P|240:276|292:284,1,85,2|8,0:0|3:0,0:0:0:0:
372,316,115996,1,2,0:0:0:0:
404,192,116168,1,8,3:0:0:0:
372,68,116339,2,0,L|364:24,1,42.5,8|8,3:0|3:0,0:0:0:0:
256,192,116682,12,0,119082,0:0:0:0:
448,336,119425,6,0,L|360:344,1,85,4|0,0:0|0:0,0:0:0:0:
219,249,119768,2,0,L|304:260,1,85,8|0,0:0|0:0,0:0:0:0:
172,340,120111,2,0,L|0:316,1,170,0|8,0:0|0:0,0:0:0:0:
148,31,120796,2,0,P|189:38|223:64,1,85,0|0,0:0|0:0,0:0:0:0:
382,152,121139,2,0,P|341:145|308:119,1,85,8|0,0:0|0:0,0:0:0:0:
482,177,121482,2,0,P|506:257|482:337,1,170,0|8,0:0|0:0,0:0:0:0:
148,224,122168,6,0,P|96:228|60:204,1,85
9,129,122511,1,8,0:0:0:0:
96,77,122682,1,0,0:0:0:0:
184,128,122853,2,0,P|228:133|268:156,1,85
363,276,123196,2,0,P|321:271|284:252,1,85,8|0,0:0|0:0,0:0:0:0:
432,200,123539,2,0,P|464:280|432:352,2,170,0|8|0,0:0|0:0|0:0,0:0:0:0:
256,94,124568,1,8,0:0:0:0:
196,176,124739,1,0,0:0:0:0:
108,124,124911,6,0,L|96:224,1,85
120,308,125253,2,0,P|162:324|204:318,1,85,8|0,0:0|0:0,0:0:0:0:
364,247,125596,2,0,P|322:243|284:260,1,85,0|0,0:0|0:0,0:0:0:0:
448,308,125939,1,8,0:0:0:0:
492,216,126111,1,0,0:0:0:0:
500,116,126282,6,0,B|450:114|421:145|421:145|393:117|342:123,1,170,0|8,0:0|0:0,0:0:0:0:
12,116,126968,2,0,B|62:114|91:145|91:145|119:117|170:123,1,170,0|8,0:0|0:0,0:0:0:0:
256,352,127653,5,0,0:0:0:0:
332,284,127825,2,0,P|352:269|420:280,1,85,0|8,0:0|0:0,0:0:0:0:
504,312,128168,2,0,L|492:136,1,170
484,40,128682,1,8,0:0:0:0:
403,101,128853,1,0,0:0:0:0:
324,36,129025,2,0,P|266:23|232:32,1,85
176,107,129368,2,0,B|126:114|126:114|56:88|56:88|0:96,2,170,8|0|8,0:0|0:0|0:0,0:0:0:0:
256,28,130225,1,0,0:0:0:0:
336,107,130396,6,0,P|368:124|424:112,1,85,4|0,0:0|0:0,0:0:0:0:
504,68,130739,2,0,P|516:112|508:156,1,85,8|0,0:0|0:0,0:0:0:0:
499,187,130996,1,0,0:0:0:0:
473,215,131082,2,0,L|464:300,1,85
368,336,131425,2,0,L|377:251,1,85,8|0,0:0|0:0,0:0:0:0:
352,152,131768,6,0,P|244:112|172:136,1,170,0|8,0:0|0:0,0:0:0:0:
109,181,132282,1,0,0:0:0:0:
109,181,132368,1,0,0:0:0:0:
109,181,132453,2,0,L|112:280,1,85
176,345,132796,1,8,0:0:0:0:
256,281,132968,1,0,0:0:0:0:
344,332,133139,6,0,P|392:350|432:340,1,85
476,256,133482,1,8,0:0:0:0:
432,164,133653,1,0,0:0:0:0:
432,164,133739,1,0,0:0:0:0:
432,164,133825,2,0,P|393:146|352:151,1,85
264,204,134168,2,0,P|225:221|184:216,1,85,8|0,0:0|0:0,0:0:0:0:
91,171,134511,6,0,P|56:96|96:16,1,170,0|8,0:0|0:0,0:0:0:0:
160,96,135025,1,0,0:0:0:0:
160,96,135111,1,0,0:0:0:0:
160,96,135196,2,0,P|193:122|233:133,1,85
328,60,135539,1,8,0:0:0:0:
404,152,135711,1,0,0:0:0:0:
380,268,135882,6,0,P|344:288|292:288,1,85
132,115,136225,2,0,P|168:95|211:93,1,85,8|0,0:0|0:0,0:0:0:0:
247,107,136482,1,0,0:0:0:0:
272,136,136568,2,0,P|308:156|351:158,1,85,0|0,0:0|0:0,0:0:0:0:
448,88,136911,1,8,0:0:0:0:
488,200,137082,1,0,0:0:0:0:
408,288,137253,2,0,P|368:264|324:268,1,85
142,287,137596,2,0,P|178:310|220:310,1,85,8|0,0:0|0:0,0:0:0:0:
240,192,137939,2,0,P|204:169|162:169,1,85,0|0,0:0|0:0,0:0:0:0:
53,217,138282,1,8,0:0:0:0:
16,104,138453,1,0,0:0:0:0:
108,28,138625,5,0,0:0:0:0:
208,92,138796,2,0,P|265:113|308:108,1,85,0|8,0:0|0:0,0:0:0:0:
400,72,139139,1,0,0:0:0:0:
400,72,139225,1,0,0:0:0:0:
400,72,139311,2,0,P|408:116|400:160,1,85
364,268,139653,1,8,0:0:0:0:
257,321,139825,1,0,0:0:0:0:
201,216,139996,6,0,L|117:204,1,85
310,167,140339,2,0,L|394:160,1,85,8|0,0:0|0:0,0:0:0:0:
256,60,140682,1,0,0:0:0:0:
148,110,140853,1,8,0:0:0:0:
257,321,141196,2,0,L|256:356,4,21.25,8|0|0|0|4,0:0|0:0|0:0|0:0|0:0,0:0:0:0:
296,40,142396,6,0,P|256:28|212:40,1,85,2|2,0:0|0:0,0:0:0:0:
128,120,142739,6,0,L|136:208,1,85,12|0,0:0|0:0,0:0:0:0:
224,256,143082,1,8,0:0:0:0:
296,184,143253,1,0,0:0:0:0:
360,264,143425,2,0,L|368:352,1,85,8|0,0:0|0:0,0:0:0:0:
456,297,143768,2,0,L|448:212,1,85,8|0,0:0|0:0,0:0:0:0:
396,124,144111,5,8,0:0:0:0:
200,188,144282,1,2,2:0:0:0:
322,21,144453,1,8,0:0:0:0:
322,228,144625,1,2,2:0:0:0:
200,61,144796,2,0,P|136:44|32:96,1,170,8|8,0:0|0:0,0:0:0:0:
11,207,145311,1,0,0:0:0:0:
43,330,145482,6,0,L|135:342,1,85,8|0,0:0|0:0,0:0:0:0:
201,270,145825,1,8,0:0:0:0:
282,331,145996,1,0,0:0:0:0:
383,345,146168,2,0,L|391:253,1,85,8|0,0:0|0:0,0:0:0:0:
491,241,146511,2,0,L|498:156,1,85,8|0,0:0|0:0,0:0:0:0:
436,76,146853,2,0,P|396:60|352:64,1,85,8|0,0:0|0:0,0:0:0:0:
288,140,147196,2,0,B|239:150|239:150|172:132|172:132|112:136,2,170,8|8|8,0:0|0:0|0:0,0:0:0:0:
356,64,148053,1,0,0:0:0:0:
432,132,148225,6,0,L|440:232,1,85,8|0,0:0|0:0,0:0:0:0:
392,308,148568,1,8,0:0:0:0:
300,264,148739,1,0,0:0:0:0:
220,328,148911,2,0,P|169:316|136:288,1,85,8|0,0:0|0:0,0:0:0:0:
156,196,149253,2,0,P|118:160|103:120,1,85,8|0,0:0|0:0,0:0:0:0:
160,44,149596,2,0,P|218:36|248:48,1,85,8|2,0:0|2:0,0:0:0:0:
369,136,149939,2,0,P|328:146|288:136,1,85,8|2,0:0|2:0,0:0:0:0:
440,62,150282,2,0,P|469:133|432:216,1,170,8|8,0:0|0:0,0:0:0:0:
332,292,150796,1,0,0:0:0:0:
264,215,150968,6,0,P|217:223|185:246,1,85,8|0,0:0|0:0,0:0:0:0:
100,190,151311,2,0,P|84:234|88:274,1,85,8|0,0:0|0:0,0:0:0:0:
144,356,151653,1,8,0:0:0:0:
368,356,151996,1,8,0:0:0:0:
352,148,152339,5,8,0:0:0:0:
180,48,152511,1,8,0:0:0:0:
160,148,152682,1,8,0:0:0:0:
332,48,152853,1,8,0:0:0:0:
428,192,153025,2,0,P|392:224|354:231,1,85,8|2,0:0|2:0,0:0:0:0:
84,192,153368,2,0,P|120:224|157:231,1,85,8|2,0:0|2:0,0:0:0:0:
256,324,153711,6,0,P|197:347|144:344,1,101.999996887207,4|0,0:0|0:0,0:0:0:0:
60,276,154053,2,0,L|52:168,1,101.999996887207,8|0,0:0|0:0,0:0:0:0:
49,138,154311,1,0,0:0:0:0:
68,108,154396,2,0,P|100:88|172:88,1,101.999996887207
362,167,154739,2,0,P|312:167|268:144,1,101.999996887207,8|0,0:0|0:0,0:0:0:0:
340,44,155082,6,0,P|390:41|435:63,1,101.999996887207,0|0,0:0|0:0,0:0:0:0:
500,168,155425,1,8,0:0:0:0:
436,272,155596,1,0,0:0:0:0:
436,272,155682,1,0,0:0:0:0:
436,272,155768,2,0,P|359:344|260:344,1,203.999993774414,0|8,0:0|0:0,0:0:0:0:
148,308,156282,1,0,0:0:0:0:
36,260,156453,6,0,L|48:148,1,101.999996887207
96,44,156796,1,8,0:0:0:0:
192,120,156968,1,0,0:0:0:0:
192,120,157053,1,0,0:0:0:0:
192,120,157139,2,0,L|300:132,1,101.999996887207
465,220,157482,2,0,L|364:232,1,101.999996887207,8|0,0:0|0:0,0:0:0:0:
241,241,157825,5,0,0:0:0:0:
136,304,157996,1,0,0:0:0:0:
50,216,158168,2,0,L|42:108,1,101.999996887207,8|0,0:0|0:0,0:0:0:0:
54,80,158425,1,0,0:0:0:0:
78,52,158511,2,0,P|114:36|178:44,1,101.999996887207
256,132,158853,1,8,0:0:0:0:
365,75,159025,1,0,0:0:0:0:
428,180,159196,6,0,L|416:296,1,101.999996887207
303,328,159539,2,0,P|247:300|199:308,1,101.999996887207,8|0,0:0|0:0,0:0:0:0:
176,317,159796,1,0,0:0:0:0:
146,337,159882,2,0,P|95:338|52:312,1,101.999996887207,0|0,0:0|0:0,0:0:0:0:
128,216,160225,2,0,P|171:190|221:191,1,101.999996887207,8|0,0:0|0:0,0:0:0:0:
417,284,160568,6,0,P|367:285|324:260,1,101.999996887207,0|0,0:0|0:0,0:0:0:0:
221,192,160911,1,8,0:0:0:0:
296,96,161082,1,0,0:0:0:0:
296,96,161168,1,0,0:0:0:0:
296,96,161253,2,0,P|352:128|400:120,1,101.999996887207
480,44,161596,1,8,0:0:0:0:
508,164,161768,1,0,0:0:0:0:
428,256,161939,5,0,0:0:0:0:
312,216,162111,2,0,P|256:196|204:208,1,101.999996887207,0|8,0:0|0:0,0:0:0:0:
148,304,162453,1,0,0:0:0:0:
148,304,162539,1,0,0:0:0:0:
148,304,162625,2,0,P|204:324|256:312,1,101.999996887207,0|0,0:0|0:0,0:0:0:0:
312,216,162968,1,8,0:0:0:0:
216,140,163139,1,0,0:0:0:0:
95,117,163311,6,0,P|96:168|120:220,1,101.999996887207
396,214,163653,2,0,P|416:167|417:117,1,101.999996887207
256,192,163996,12,0,165368,0:0:0:0:
