osu file format v13

[General]
AudioFilename: track.mp3
AudioLeadIn: 0
PreviewTime: 24796
Countdown: 0
SampleSet: Normal
StackLeniency: 0.7
Mode: 0
LetterboxInBreaks: 0
EpilepsyWarning: 1
WidescreenStoryboard: 1

[Editor]
Bookmarks: 2853
DistanceSpacing: 1.2
BeatDivisor: 4
GridSize: 4
TimelineZoom: 6.999996

[Metadata]
Title:Colours of the Rainbow (Nightcore Mix)
TitleUnicode:Colours of the Rainbow (Nightcore Mix)
Artist:Tune Up! vs. ItaloBrothers
ArtistUnicode:Tune Up! vs. ItaloBrothers
Creator:Kazuya
Version:Mediumcore
Source:
Tags:kurokami kazuya-sama -Bakari- trance techno remix
BeatmapID:492859
BeatmapSetID:208123

[Difficulty]
HPDrainRate:4
CircleSize:3
OverallDifficulty:4
ApproachRate:5
SliderMultiplier:0.999999999999999
SliderTickRate:2

[Events]
//Background and Video events
0,0,"bkg.jpg",0,0
//Break Periods
2,48111,57882
2,81225,85311
//Storyboard Layer 0 (Background)
//Storyboard Layer 1 (Fail)
//Storyboard Layer 2 (Pass)
//Storyboard Layer 3 (Foreground)
//Storyboard Sound Samples
//Background Colour Transformations
3,100,0,0,0

[TimingPoints]
111,342.857142857143,4,2,1,30,1,0
24796,-100,4,2,1,30,0,0
35768,-100,4,1,1,30,0,0
46739,-100,4,2,1,30,0,0
70053,-100,4,1,1,30,0,1
78282,-100,4,1,1,30,0,0
91996,-100,4,2,1,30,0,0
130396,-100,4,1,1,30,0,0
142739,-100,4,1,1,30,0,0
153711,-100,4,1,1,30,0,1
161939,-100,4,1,1,30,0,0
163311,-100,4,1,1,5,0,0

[Colours]
Combo1 : 191,106,249
Combo2 : 217,119,177
Combo3 : 154,224,37
Combo4 : 39,231,231
Combo5 : 225,225,28
SliderBorder : 255,255,255

[HitObjects]
32,340,2853,6,0,L|40:240,1,99.9999999999999,4|2,0:0|0:0,0:0:0:0:
100,136,3539,2,0,P|148:144|208:124,1,99.9999999999999,0|2,0:0|0:0,0:0:0:0:
317,142,4225,2,0,P|347:154|381:154,1,50
423,170,4568,2,0,L|431:278,2,99.9999999999999,2|0|2,0:0|0:0|0:0,0:0:0:0:
380,57,5596,5,0,0:0:0:0:
268,100,5939,2,0,P|220:112|168:108,1,99.9999999999999,2|0,0:0|0:0,0:0:0:0:
64,52,6625,1,2,0:0:0:0:
20,164,6968,2,0,L|32:276,1,99.9999999999999,0|2,0:0|0:0,0:0:0:0:
134,203,7653,2,0,L|146:315,1,99.9999999999999,0|2,0:0|0:0,0:0:0:0:
256,348,8339,5,0,0:0:0:0:
367,302,8682,2,0,L|372:236,1,50,2|0,0:0|0:0,0:0:0:0:
488,228,9196,2,0,L|492:161,1,50,0|2,0:0|0:0,0:0:0:0:
416,84,9711,2,0,P|368:96|316:96,1,99.9999999999999,0|2,0:0|0:0,0:0:0:0:
219,27,10396,2,0,P|169:31|112:51,1,99.9999999999999,0|2,0:0|0:0,0:0:0:0:
17,105,11082,6,0,L|3:50,2,50,0|0|2,0:0|0:0|0:0,0:0:0:0:
109,182,11768,2,0,L|128:284,1,99.9999999999999,0|2,0:0|0:0,0:0:0:0:
220,356,12453,2,0,P|272:364|324:348,1,99.9999999999999,0|2,0:0|0:0,0:0:0:0:
380,248,13139,2,0,P|376:199|348:156,1,99.9999999999999,0|2,0:0|0:0,0:0:0:0:
256,81,13825,5,0,0:0:0:0:
136,97,14168,2,0,P|88:85|36:97,2,99.9999999999999,2|0|2,0:0|0:0|0:0,0:0:0:0:
220,184,15196,2,0,P|268:194|316:182,1,99.9999999999999,0|2,0:0|0:0,0:0:0:0:
423,126,15882,2,0,P|435:174|427:230,1,99.9999999999999,0|2,0:0|0:0,0:0:0:0:
348,312,16568,6,0,P|296:320|228:304,1,99.9999999999999,0|2,0:0|0:0,0:0:0:0:
172,220,17253,2,0,L|180:160,2,50,0|0|2,0:0|0:0|0:0,0:0:0:0:
64,273,17939,1,0,0:0:0:0:
17,162,18282,1,2,0:0:0:0:
109,85,18625,2,0,P|160:88|208:72,1,99.9999999999999,0|2,0:0|0:0,0:0:0:0:
316,24,19311,5,0,0:0:0:0:
412,96,19653,2,0,P|421:122|420:156,1,50,2|0,0:0|0:0,0:0:0:0:
400,200,19996,2,0,P|368:216|284:208,1,99.9999999999999,0|2,0:0|0:0,0:0:0:0:
212,140,20682,2,0,P|180:124|96:132,1,99.9999999999999,0|2,0:0|0:0,0:0:0:0:
24,200,21368,2,0,L|28:312,1,99.9999999999999,0|2,0:0|0:0,0:0:0:0:
136,352,22053,5,8,3:0:0:0:
240,292,22396,1,8,3:0:0:0:
352,336,22739,2,0,P|400:348|448:328,1,99.9999999999999,8|8,3:0|3:0,0:0:0:0:
484,216,23425,2,0,L|480:108,1,99.9999999999999,8|8,3:0|3:0,0:0:0:0:
388,38,24111,2,0,P|348:30|284:50,1,99.9999999999999,8|8,3:0|3:0,0:0:0:0:
211,134,24796,5,4,0:0:0:0:
104,80,25139,1,8,0:0:0:0:
32,176,25482,2,0,P|20:228|36:288,1,99.9999999999999,0|8,0:0|0:0,0:0:0:0:
140,228,26168,2,0,P|155:279|199:322,2,99.9999999999999,0|8|0,0:0|0:0|0:0,0:0:0:0:
132,108,27196,1,8,0:0:0:0:
246,72,27539,6,0,L|258:21,2,50,0|0|8,0:0|0:0|0:0,0:0:0:0:
293,182,28225,2,0,P|358:206|401:194,1,99.9999999999999,0|8,0:0|0:0,0:0:0:0:
469,113,28911,2,0,L|448:12,2,99.9999999999999,0|8|0,0:0|0:0|0:0,0:0:0:0:
490,231,29939,1,8,0:0:0:0:
392,300,30282,6,0,L|280:308,1,99.9999999999999,0|8,0:0|0:0,0:0:0:0:
192,240,30968,2,0,L|80:232,1,99.9999999999999,0|8,0:0|0:0,0:0:0:0:
28,132,31653,2,0,P|34:80|71:32,2,99.9999999999999,0|8|0,0:0|0:0|0:0,0:0:0:0:
92,233,32682,1,8,0:0:0:0:
192,300,33025,6,0,P|266:281|304:292,1,99.9999999999999,0|8,0:0|0:0,0:0:0:0:
343,309,33539,2,0,P|332:232|360:164,1,150,0|8,0:0|0:0,0:0:0:0:
432,72,34396,1,0,0:0:0:0:
316,40,34739,2,0,L|208:48,1,99.9999999999999,8|0,0:0|0:0,0:0:0:0:
96,56,35425,1,8,0:0:0:0:
20,152,35768,5,4,0:0:0:0:
80,256,36111,2,0,P|85:280|77:312,1,50,8|0,0:0|0:0,0:0:0:0:
117,352,36453,2,0,P|154:343|229:352,1,99.9999999999999,0|8,0:0|0:0,0:0:0:0:
320,288,37139,1,0,0:0:0:0:
432,332,37482,1,8,0:0:0:0:
476,220,37825,2,0,L|472:112,1,99.9999999999999,0|8,0:0|0:0,0:0:0:0:
376,48,38511,5,0,0:0:0:0:
284,124,38853,2,0,P|272:156|256:172,1,50,8|0,0:0|0:0,0:0:0:0:
220,211,39196,2,0,P|171:198|108:215,1,99.9999999999999,0|8,0:0|0:0,0:0:0:0:
45,115,39882,2,0,P|52:72|36:12,2,99.9999999999999,0|8|0,0:0|0:0|0:0,0:0:0:0:
23,233,40911,1,8,0:0:0:0:
95,328,41253,5,0,0:0:0:0:
192,256,41596,2,0,L|200:192,1,50,8|0,0:0|0:0,0:0:0:0:
224,152,41939,2,0,P|264:128|320:136,1,99.9999999999999,0|8,0:0|0:0,0:0:0:0:
416,200,42625,2,0,B|424:248|424:248|408:304,1,99.9999999999999,0|8,0:0|0:0,0:0:0:0:
305,356,43311,2,8,L|197:348,1,99.9999999999999,0|8,0:0|0:0,0:0:0:0:
116,268,43996,6,0,P|120:216|96:160,1,99.9999999999999,0|8,0:0|0:0,0:0:0:0:
58,132,44511,2,0,P|136:157|214:135,1,150,0|8,0:0|0:0,0:0:0:0:
290,62,45368,1,0,0:0:0:0:
396,120,45711,1,8,0:0:0:0:
396,240,46053,2,0,P|348:254|299:247,1,99.9999999999999,0|8,0:0|0:0,0:0:0:0:
203,174,46739,5,4,0:0:0:0:
56,136,59082,6,0,P|104:120|168:128,1,99.9999999999999,4|8,0:0|0:0,0:0:0:0:
256,184,59768,1,0,0:0:0:0:
364,132,60111,1,8,0:0:0:0:
436,228,60453,2,0,L|424:344,2,99.9999999999999,0|8|0,0:0|0:0|0:0,0:0:0:0:
364,132,61482,1,8,0:0:0:0:
268,204,61825,6,0,P|205:223|164:216,1,99.9999999999999,0|8,0:0|0:0,0:0:0:0:
64,168,62511,1,0,0:0:0:0:
124,64,62853,1,8,0:0:0:0:
240,96,63196,2,0,P|276:104|300:100,1,50
345,81,63539,2,0,P|369:73|441:89,1,99.9999999999999,8|0,0:0|0:0,0:0:0:0:
495,195,64225,1,8,0:0:0:0:
402,271,64568,6,0,P|350:263|298:279,1,99.9999999999999,0|8,0:0|0:0,0:0:0:0:
204,340,65253,1,0,0:0:0:0:
108,268,65596,1,8,0:0:0:0:
204,196,65939,2,0,P|240:160|248:100,2,99.9999999999999,0|8|0,0:0|0:0|0:0,0:0:0:0:
108,268,66968,1,8,0:0:0:0:
195,350,67311,6,0,L|300:344,1,99.9999999999999,0|8,0:0|0:0,0:0:0:0:
396,280,67996,1,0,0:0:0:0:
440,168,68339,1,8,0:0:0:0:
344,96,68682,2,0,P|276:76|232:88,1,99.9999999999999,0|8,0:0|0:0,0:0:0:0:
152,152,69368,1,0,0:0:0:0:
44,100,69711,2,0,L|36:40,2,50,8|0|4,0:0|0:0|0:0,0:0:0:0:
58,219,70396,6,0,L|66:276,1,50,8|0,0:0|0:0,0:0:0:0:
82,326,70739,2,0,P|113:338|198:334,1,99.9999999999999,0|8,0:0|0:0,0:0:0:0:
256,247,71425,1,0,0:0:0:0:
356,312,71768,2,0,L|364:364,2,50,8|0|0,0:0|0:0|0:0,0:0:0:0:
428,216,72453,6,0,L|477:235,2,50,8|0|0,0:0|0:0|0:0,0:0:0:0:
332,144,73139,2,0,P|303:153|272:148,1,50,8|0,0:0|0:0,0:0:0:0:
230,125,73482,2,0,P|195:109|114:121,1,99.9999999999999,0|8,0:0|0:0,0:0:0:0:
44,192,74168,2,0,L|40:248,1,50
56,300,74511,2,0,P|88:316|160:316,1,99.9999999999999,8|0,0:0|0:0,0:0:0:0:
256,260,75196,1,8,0:0:0:0:
352,332,75539,5,0,0:0:0:0:
448,260,75882,2,0,P|455:231|456:208,1,50,8|0,0:0|0:0,0:0:0:0:
436,154,76225,2,0,P|388:135|340:139,1,99.9999999999999,0|8,0:0|0:0,0:0:0:0:
256,224,76911,1,0,0:0:0:0:
152,164,77253,2,0,L|160:104,2,50,8|0|0,0:0|0:0|0:0,0:0:0:0:
134,283,77939,1,8,0:0:0:0:
232,352,78282,6,0,P|296:324|336:332,1,99.9999999999999,0|8,0:0|0:0,0:0:0:0:
377,356,78796,2,0,P|352:280|373:196,1,150,0|8,0:0|0:0,0:0:0:0:
436,116,79653,1,0,0:0:0:0:
340,44,79996,1,0,0:0:0:0:
268,140,80339,2,0,P|214:157|168:152,1,99.9999999999999
76,80,81025,5,4,0:0:0:0:
60,336,86511,6,0,P|32:288|32:224,1,99.9999999999999
148,248,87196,2,0,P|147:192|179:137,1,99.9999999999999,0|0,0:0|0:0,0:0:0:0:
220,44,87882,1,0,0:0:0:0:
320,108,88225,1,0,0:0:0:0:
436,76,88568,1,0,0:0:0:0:
488,184,88911,1,0,0:0:0:0:
436,292,89253,6,0,P|408:301|384:300,1,50,0|2,0:0|2:0,0:0:0:0:
328,292,89596,2,0,P|300:282|276:284,1,50,0|2,0:0|2:0,0:0:0:0:
224,308,89939,2,0,P|176:320|124:308,1,99.9999999999999
52,216,90625,2,0,L|56:116,1,99.9999999999999
144,36,91311,2,0,L|148:136,1,99.9999999999999
256,192,91996,5,2,0:0:0:0:
352,120,92339,2,0,P|384:132|420:132,1,50,2|0,0:0|0:0,0:0:0:0:
456,112,92682,2,0,P|440:160|448:224,1,99.9999999999999,2|2,0:0|0:0,0:0:0:0:
388,316,93368,2,0,P|360:318|332:328,1,50,2|0,0:0|0:0,0:0:0:0:
279,328,93711,2,0,P|295:277|291:228,1,99.9999999999999,2|2,0:0|0:0,0:0:0:0:
224,132,94396,1,0,0:0:0:0:
128,204,94739,5,2,0:0:0:0:
32,132,95082,2,0,P|21:81|36:28,2,99.9999999999999,2|2|0,0:0|0:0|0:0,0:0:0:0:
128,204,96111,2,0,L|240:212,1,99.9999999999999,2|2,0:0|0:0,0:0:0:0:
296,112,96796,2,0,L|408:120,1,99.9999999999999,2|2,0:0|0:0,0:0:0:0:
481,204,97482,5,2,0:0:0:0:
410,301,97825,1,2,0:0:0:0:
305,242,98168,2,0,L|313:186,2,50,2|0|2,0:0|0:0|0:0,0:0:0:0:
208,312,98853,2,0,P|160:330|100:332,1,99.9999999999999,2|2,0:0|0:0,0:0:0:0:
20,256,99539,2,0,L|32:136,1,99.9999999999999,2|2,0:0|0:0,0:0:0:0:
120,76,100225,6,0,L|112:12,2,50,2|0|2,0:0|0:0|0:0,0:0:0:0:
192,172,100911,2,0,P|266:194|308:184,1,99.9999999999999,2|0,0:0|0:0,0:0:0:0:
388,128,101596,1,2,0:0:0:0:
460,224,101939,1,2,0:0:0:0:
388,320,102282,2,0,L|280:332,1,99.9999999999999,2|0,0:0|0:0,0:0:0:0:
184,272,102968,6,0,L|72:264,1,99.9999999999999,4|8,0:0|0:0,0:0:0:0:
45,151,103653,2,0,L|144:158,1,99.9999999999999,8|8,3:0|0:0,0:0:0:0:
256,112,104339,1,8,3:0:0:0:
364,60,104682,1,8,0:0:0:0:
460,132,105025,2,0,L|452:244,1,99.9999999999999,8|8,3:0|0:0,0:0:0:0:
376,324,105711,5,8,3:0:0:0:
284,248,106053,1,8,0:0:0:0:
176,300,106396,2,0,L|184:352,2,50,8|0|8,3:0|0:0|0:0,0:0:0:0:
80,228,107082,2,0,P|60:184|68:120,1,99.9999999999999,8|8,3:0|0:0,0:0:0:0:
148,48,107768,2,0,P|207:66|256:60,1,99.9999999999999,8|8,3:0|0:0,0:0:0:0:
356,20,108453,5,8,3:0:0:0:
452,92,108796,2,0,P|446:122|456:152,1,50,8|0,0:0|0:0,0:0:0:0:
478,194,109139,2,0,P|490:242|474:294,1,99.9999999999999,8|8,3:0|0:0,0:0:0:0:
364,332,109825,2,0,B|316:344|316:344|264:332,1,99.9999999999999,8|8,3:0|0:0,0:0:0:0:
200,232,110511,2,0,B|196:182|196:182|212:128,1,99.9999999999999,8|8,3:0|0:0,0:0:0:0:
300,56,111196,6,0,P|348:72|404:64,2,99.9999999999999,8|8|8,3:0|0:0|3:0,0:0:0:0:
184,24,112225,1,8,0:0:0:0:
88,96,112568,1,8,3:0:0:0:
120,212,112911,1,8,0:0:0:0:
236,240,113253,2,0,P|284:256|340:252,1,99.9999999999999,8|8,3:0|0:0,0:0:0:0:
448,220,113939,6,0,P|441:193|440:164,1,50,6|0,0:0|0:0,0:0:0:0:
472,120,114282,2,0,P|470:95|463:70,1,50,2|0,0:0|0:0,0:0:0:0:
412,40,114625,2,0,L|308:44,1,99.9999999999999,2|2,0:0|0:0,0:0:0:0:
212,112,115311,2,0,P|182:113|160:108,1,50,2|0,0:0|0:0,0:0:0:0:
128,60,115653,2,0,P|103:55|78:56,1,50,2|0,0:0|0:0,0:0:0:0:
27,88,115996,2,0,P|23:124|35:196,1,99.9999999999999,2|2,0:0|0:0,0:0:0:0:
256,192,116682,12,4,118053,0:0:0:0:
256,300,119425,6,0,L|368:308,1,99.9999999999999,4|8,0:0|0:0,0:0:0:0:
456,240,120111,2,0,P|472:192|464:128,1,99.9999999999999,0|8,0:0|0:0,0:0:0:0:
376,68,120796,1,0,0:0:0:0:
306,165,121139,1,8,0:0:0:0:
200,108,121482,2,0,L|96:120,1,99.9999999999999,0|8,0:0|0:0,0:0:0:0:
17,206,122168,6,0,P|9:258|21:306,1,99.9999999999999,0|8,0:0|0:0,0:0:0:0:
128,356,122853,1,0,0:0:0:0:
232,296,123196,1,8,0:0:0:0:
160,200,123539,2,0,P|140:136|144:96,2,99.9999999999999,0|8|0,0:0|0:0|0:0,0:0:0:0:
232,296,124568,1,8,0:0:0:0:
328,224,124911,6,0,P|385:219|424:200,1,99.9999999999999,0|8,0:0|0:0,0:0:0:0:
500,109,125596,2,0,P|454:88|405:85,1,99.9999999999999,0|8,0:0|0:0,0:0:0:0:
289,119,126282,1,0,0:0:0:0:
184,60,126625,1,8,0:0:0:0:
83,125,126968,2,0,L|67:225,1,99.9999999999999,0|8,0:0|0:0,0:0:0:0:
96,340,127653,6,0,P|144:320|196:324,1,99.9999999999999,0|8,0:0|0:0,0:0:0:0:
244,352,128168,2,0,P|220:280|240:204,1,150,0|8,0:0|0:0,0:0:0:0:
324,128,129025,1,0,0:0:0:0:
228,56,129368,2,0,L|120:48,2,99.9999999999999,8|0|8,0:0|0:0|0:0,0:0:0:0:
324,128,130396,5,4,0:0:0:0:
420,200,130739,2,0,L|412:256,1,50,8|0,0:0|0:0,0:0:0:0:
397,307,131082,2,0,P|364:324|288:312,1,99.9999999999999,0|8,0:0|0:0,0:0:0:0:
216,236,131768,2,0,L|232:120,2,99.9999999999999,0|8|0,0:0|0:0|0:0,0:0:0:0:
144,332,132796,1,8,0:0:0:0:
48,260,133139,5,0,0:0:0:0:
25,142,133482,2,0,P|18:111|20:87,1,50,8|0,0:0|0:0,0:0:0:0:
55,44,133825,2,0,P|103:28|163:40,1,99.9999999999999,0|8,0:0|0:0,0:0:0:0:
256,96,134511,2,0,L|256:208,2,99.9999999999999,0|8|0,0:0|0:0|0:0,0:0:0:0:
360,34,135539,1,8,0:0:0:0:
456,108,135882,5,0,0:0:0:0:
384,204,136225,2,0,P|358:201|324:212,1,50,8|0,0:0|0:0,0:0:0:0:
286,241,136568,2,0,P|256:260|192:256,1,99.9999999999999,0|8,0:0|0:0,0:0:0:0:
104,176,137253,1,0,0:0:0:0:
156,68,137596,1,8,0:0:0:0:
264,120,137939,2,0,P|320:128|376:112,1,99.9999999999999,0|8,0:0|0:0,0:0:0:0:
476,80,138625,6,0,P|480:128|464:184,1,99.9999999999999,0|8,0:0|0:0,0:0:0:0:
439,231,139139,2,0,P|363:265|293:262,1,150,0|8,0:0|0:0,0:0:0:0:
202,190,139996,1,0,0:0:0:0:
115,107,140339,1,8,0:0:0:0:
24,184,140682,2,0,P|16:232|32:280,1,99.9999999999999,0|8,0:0|0:0,0:0:0:0:
136,340,141368,5,4,0:0:0:0:
456,176,142396,6,0,L|464:120,2,50,0|0|4,0:0|0:0|0:0,0:0:0:0:
412,288,143082,2,0,P|384:288|356:300,1,50,8|0,0:0|0:0,0:0:0:0:
316,332,143425,2,0,P|276:345|208:328,1,99.9999999999999,0|8,0:0|0:0,0:0:0:0:
135,249,144111,1,0,0:0:0:0:
200,148,144453,2,0,L|192:96,2,50,8|0|0,0:0|0:0|0:0,0:0:0:0:
296,220,145139,6,0,L|304:272,2,50,8|0|0,0:0|0:0|0:0,0:0:0:0:
400,160,145825,2,0,P|411:133|412:104,1,50,8|0,0:0|0:0,0:0:0:0:
400,54,146168,2,0,P|372:42|304:48,1,99.9999999999999,0|8,0:0|0:0,0:0:0:0:
196,100,146853,2,0,P|184:72|184:48,2,50,0|0|8,0:0|0:0|0:0,0:0:0:0:
281,185,147539,1,0,0:0:0:0:
392,232,147882,6,0,P|421:223|455:226,2,50,8|0|0,0:0|0:0|0:0,0:0:0:0:
296,304,148568,2,0,P|273:318|240:320,1,50,8|0,0:0|0:0,0:0:0:0:
190,322,148911,2,0,B|139:321|139:321|92:304,1,99.9999999999999,0|8,0:0|0:0,0:0:0:0:
12,216,149596,1,0,0:0:0:0:
84,120,149939,2,0,L|76:64,2,50,8|0|0,0:0|0:0|0:0,0:0:0:0:
169,205,150625,6,0,P|198:218|233:221,1,50,8|0,0:0|0:0,0:0:0:0:
276,216,150968,2,0,P|324:204|376:208,1,99.9999999999999,0|8,0:0|0:0,0:0:0:0:
432,312,151653,2,0,P|383:324|334:320,2,99.9999999999999,0|8|0,0:0|0:0|0:0,0:0:0:0:
476,200,152682,1,8,0:0:0:0:
416,96,153025,1,0,0:0:0:0:
320,168,153368,6,0,L|332:224,2,50,8|0|4,0:0|0:0|0:0,0:0:0:0:
208,124,154053,2,0,L|196:68,1,50,8|0,0:0|0:0,0:0:0:0:
152,36,154396,2,0,P|112:28|56:52,1,99.9999999999999,0|8,0:0|0:0,0:0:0:0:
12,161,155082,1,0,0:0:0:0:
66,268,155425,2,0,L|50:328,2,50,8|0|0,0:0|0:0|0:0,0:0:0:0:
168,204,156111,6,0,L|184:144,2,50,8|0|0,0:0|0:0|0:0,0:0:0:0:
220,312,156796,2,0,P|252:312|272:320,1,50,8|0,0:0|0:0,0:0:0:0:
324,341,157139,2,0,P|363:352|436:341,1,99.9999999999999,0|8,0:0|0:0,0:0:0:0:
474,238,157825,2,0,L|482:170,1,50
483,128,158168,2,0,P|458:110|383:108,1,99.9999999999999,8|0,0:0|0:0,0:0:0:0:
304,188,158853,6,0,L|312:244,2,50,8|0|0,0:0|0:0|0:0,0:0:0:0:
232,92,159539,2,0,P|204:92|176:80,1,50,8|0,0:0|0:0,0:0:0:0:
136,48,159882,2,0,P|102:47|29:95,1,99.9999999999999,0|8,0:0|0:0,0:0:0:0:
11,193,160568,1,0,0:0:0:0:
84,288,160911,2,0,L|80:344,2,50,8|0|0,0:0|0:0|0:0,0:0:0:0:
156,192,161596,5,8,0:0:0:0:
252,120,161939,2,0,P|328:148|352:140,1,99.9999999999999,0|8,0:0|0:0,0:0:0:0:
384,100,162453,2,0,L|376:256,1,150,0|8,0:0|0:0,0:0:0:0:
256,192,163311,12,0,165368,0:0:0:0:
