osu file format v13

[General]
AudioFilename: track.mp3
AudioLeadIn: 0
PreviewTime: 24796
Countdown: 0
SampleSet: Soft
StackLeniency: 0.7
Mode: 0
LetterboxInBreaks: 0
EpilepsyWarning: 1
WidescreenStoryboard: 1

[Editor]
Bookmarks: 2853
DistanceSpacing: 1.2
BeatDivisor: 4
GridSize: 4
TimelineZoom: 2.3

[Metadata]
Title:Colours of the Rainbow (Nightcore Mix)
TitleUnicode:Colours of the Rainbow (Nightcore Mix)
Artist:Tune Up! vs. ItaloBrothers
ArtistUnicode:Tune Up! vs. ItaloBrothers
Creator:Kazuya
Version:Bakari's Softcore
Source:
Tags:kurokami kazuya-sama -Bakari- trance techno remix
BeatmapID:492858
BeatmapSetID:208123

[Difficulty]
HPDrainRate:2
CircleSize:3
OverallDifficulty:2
ApproachRate:3
SliderMultiplier:0.749999999999999
SliderTickRate:1

[Events]
//Background and Video events
0,0,"bkg.jpg",0,0
//Break Periods
2,48111,57642
2,81225,90556
//Storyboard Layer 0 (Background)
//Storyboard Layer 1 (Fail)
//Storyboard Layer 2 (Pass)
//Storyboard Layer 3 (Foreground)
//Storyboard Sound Samples
//Background Colour Transformations
3,100,0,0,0

[TimingPoints]
111,342.857142857143,4,2,1,30,1,0
24796,-100,4,2,1,30,0,0
35768,-100,4,1,1,30,0,0
46053,-100,4,1,1,20,0,0
46396,-100,4,1,1,25,0,0
46739,-100,4,2,1,30,0,0
59082,-100,4,1,1,30,0,0
70053,-100,4,1,1,30,0,1
78282,-100,4,1,1,30,0,0
91996,-100,4,2,1,30,0,0
130396,-100,4,1,1,30,0,0
142396,-100,4,2,1,30,0,0
142739,-100,4,1,1,30,0,0
153711,-100,4,1,1,30,0,1
161939,-100,4,1,1,30,0,0
162625,-100,4,1,1,25,0,0
162968,-100,4,1,1,15,0,0
163311,-100,4,1,1,5,0,0

[Colours]
Combo1 : 191,106,249
Combo2 : 217,119,177
Combo3 : 154,224,37
Combo4 : 39,231,231
Combo5 : 225,225,28
SliderBorder : 255,255,255

[HitObjects]
232,104,2853,6,0,L|228:24,2,74.9999999999999,0|2|0,3:0|0:0|0:0,0:0:0:0:
336,252,4225,2,0,L|328:344,2,74.9999999999999,0|0|2,3:0|0:0|0:0,0:0:0:0:
264,196,5253,1,0,0:0:0:0:
312,120,5596,6,0,P|364:120|448:184,1,150,0|0,3:0|0:0,0:0:0:0:
320,316,6968,1,0,3:0:0:0:
232,324,7311,2,0,L|148:332,2,74.9999999999999,2|0|2,0:0|3:0|0:0,0:0:0:0:
264,244,8339,6,0,P|276:204|244:100,1,150,0|0,3:0|0:0,0:0:0:0:
172,56,9368,1,2,0:0:0:0:
96,108,9711,2,0,P|64:116|24:104,2,74.9999999999999,0|2|0,3:0|0:0|3:0,0:0:0:0:
268,156,11082,6,0,P|288:188|224:344,1,225,0|2,3:0|0:0,0:0:0:0:
136,320,12453,1,0,3:0:0:0:
80,252,12796,2,0,L|0:248,2,74.9999999999999,2|0|2,0:0|0:0|0:0,0:0:0:0:
156,200,13825,6,0,P|172:168|176:116,1,74.9999999999999,0|2,3:0|0:0,0:0:0:0:
160,40,14511,1,0,0:0:0:0:
248,60,14853,1,2,0:0:0:0:
336,84,15196,2,0,L|416:72,2,74.9999999999999,0|2|0,0:0|0:0|0:0,0:0:0:0:
220,220,16568,5,0,3:0:0:0:
132,204,16911,1,2,0:0:0:0:
156,292,17253,2,0,P|156:320|128:368,1,74.9999999999999,0|2,0:0|0:0,0:0:0:0:
60,312,17939,2,0,P|24:240|64:96,1,225,0|2,3:0|0:0,0:0:0:0:
144,132,19311,6,0,L|132:208,2,74.9999999999999,0|2|0,3:0|0:0|0:0,0:0:0:0:
224,96,20339,2,0,L|212:20,2,74.9999999999999,2|0|2,0:0|3:0|0:0,0:0:0:0:
300,140,21368,1,0,3:0:0:0:
256,192,22053,12,4,24796,0:0:0:0:
56,176,26168,6,0,P|88:168|140:180,1,74.9999999999999,0|8,0:0|0:0,0:0:0:0:
208,216,26853,1,0,0:0:0:0:
376,156,27539,2,0,P|388:132|376:76,1,74.9999999999999,0|8,0:0|0:0,0:0:0:0:
312,32,28225,1,0,0:0:0:0:
240,84,28568,1,8,0:0:0:0:
164,136,28911,6,0,P|128:148|76:140,2,74.9999999999999,0|8|0,0:0|0:0|0:0,0:0:0:0:
244,176,29939,2,0,P|248:212|232:256,2,74.9999999999999,8|0|8,0:0|0:0|0:0,0:0:0:0:
288,96,30968,2,0,P|328:104|364:136,1,74.9999999999999,0|8,0:0|0:0,0:0:0:0:
392,204,31653,5,0,0:0:0:0:
328,268,31996,2,0,P|324:292|332:348,2,74.9999999999999,8|0|8,0:0|0:0|0:0,0:0:0:0:
264,204,33025,2,0,P|232:196|188:196,2,74.9999999999999,0|8|0,0:0|0:0|0:0,0:0:0:0:
436,256,34396,5,0,0:0:0:0:
476,176,34739,1,8,0:0:0:0:
448,88,35082,1,0,0:0:0:0:
284,160,35768,6,0,P|240:168|200:152,2,74.9999999999999,4|8|0,0:0|0:0|0:0,0:0:0:0:
280,72,36796,1,8,0:0:0:0:
368,96,37139,2,0,P|368:52|356:16,2,74.9999999999999,0|8|0,0:0|0:0|0:0,0:0:0:0:
396,272,38511,2,0,P|356:300|248:288,1,150,0|0,0:0|0:0,0:0:0:0:
200,228,39539,1,8,0:0:0:0:
128,280,39882,6,0,L|132:360,2,74.9999999999999,0|8|0,0:0|0:0|0:0,0:0:0:0:
56,228,40911,1,8,0:0:0:0:
116,160,41253,2,0,P|124:120|116:80,1,74.9999999999999,0|8,0:0|0:0,0:0:0:0:
192,36,41939,2,0,P|224:52|268:48,1,74.9999999999999,0|8,0:0|0:0,0:0:0:0:
344,16,42625,5,0,0:0:0:0:
412,76,42968,2,0,L|408:240,1,150,8|8,0:0|0:0,0:0:0:0:
348,292,43996,2,0,L|356:380,2,74.9999999999999,0|8|0,0:0|0:0|0:0,0:0:0:0:
288,228,45025,1,8,0:0:0:0:
256,192,45368,12,0,46739,0:0:0:0:
128,152,59082,6,0,L|120:64,2,74.9999999999999,12|8|8,0:0|0:0|0:0,0:0:0:0:
208,196,60111,1,8,0:0:0:0:
264,124,60453,2,0,P|296:112|400:172,1,150,8|8,0:0|0:0,0:0:0:0:
388,248,61482,1,8,0:0:0:0:
312,300,61825,6,0,L|316:384,2,74.9999999999999,8|8|8,0:0|0:0|0:0,0:0:0:0:
248,236,62853,1,8,0:0:0:0:
168,280,63196,2,0,L|88:276,1,74.9999999999999,8|8,0:0|0:0,0:0:0:0:
32,208,63882,1,8,0:0:0:0:
152,76,64568,5,8,0:0:0:0:
268,216,65253,2,0,P|304:228|356:216,1,74.9999999999999,8|8,0:0|0:0,0:0:0:0:
400,156,65939,2,0,L|404:80,2,74.9999999999999,8|8|8,0:0|0:0|0:0,0:0:0:0:
456,228,66968,1,8,0:0:0:0:
396,296,67311,6,0,L|304:292,1,74.9999999999999,8|8,0:0|0:0,0:0:0:0:
240,328,67996,1,8,0:0:0:0:
196,252,68339,1,8,0:0:0:0:
156,172,68682,2,0,P|164:136|200:100,2,74.9999999999999,8|8|8,0:0|0:0|0:0,0:0:0:0:
248,176,69711,1,8,0:0:0:0:
336,180,70053,6,0,P|328:216|292:252,2,74.9999999999999,4|8|0,0:0|0:0|0:0,0:0:0:0:
300,96,71082,1,8,0:0:0:0:
380,52,71425,2,0,L|460:48,2,74.9999999999999,0|8|0,0:0|0:0|0:0,0:0:0:0:
300,12,72453,1,8,0:0:0:0:
224,60,72796,5,0,0:0:0:0:
148,108,73139,2,0,L|72:100,2,74.9999999999999,8|0|8,0:0|0:0|0:0,0:0:0:0:
224,156,74168,2,0,L|308:148,2,74.9999999999999,0|8|0,0:0|0:0|0:0,0:0:0:0:
168,228,75196,1,8,0:0:0:0:
200,312,75539,5,0,0:0:0:0:
276,264,75882,2,0,P|312:252|420:284,1,150,8|8,0:0|0:0,0:0:0:0:
484,224,76911,2,0,P|476:184|480:140,1,74.9999999999999,0|8,0:0|0:0,0:0:0:0:
508,64,77596,1,0,0:0:0:0:
428,20,77939,1,8,0:0:0:0:
256,192,78282,12,4,81025,0:0:0:0:
412,108,91996,6,0,P|384:92|272:132,1,150,2|2,0:0|0:0,0:0:0:0:
192,280,93368,2,0,P|128:315|58:294,1,150,2|2,0:0|0:0,0:0:0:0:
32,116,94739,6,0,L|44:36,2,74.9999999999999,2|8|2,0:0|3:0|0:0,0:0:0:0:
184,216,96111,2,0,L|228:152,2,74.9999999999999,2|8|2,0:0|3:0|0:0,0:0:0:0:
340,308,97482,6,0,L|432:300,2,74.9999999999999,2|8|2,0:0|3:0|0:0,0:0:0:0:
264,356,98511,1,8,3:0:0:0:
196,296,98853,2,0,P|176:232|220:160,1,150,2|2,0:0|0:0,0:0:0:0:
384,104,100225,6,0,P|416:108|460:132,2,74.9999999999999,2|8|2,0:0|3:0|0:0,0:0:0:0:
236,204,101596,2,0,P|204:200|160:176,2,74.9999999999999,2|8|2,0:0|3:0|0:0,0:0:0:0:
392,292,102968,6,0,P|404:320|396:372,2,74.9999999999999,4|8|0,0:0|3:0|0:0,0:0:0:0:
324,232,103996,1,8,3:0:0:0:
244,276,104339,2,0,P|212:288|60:192,1,225,0|8,0:0|3:0,0:0:0:0:
84,112,105711,5,0,0:0:0:0:
164,72,106053,1,8,3:0:0:0:
228,136,106396,2,0,P|260:148|316:144,1,74.9999999999999,0|8,3:0|3:0,0:0:0:0:
384,188,107082,2,0,P|396:228|272:344,1,225,0|8,0:0|3:0,0:0:0:0:
204,304,108453,6,0,P|172:296|120:304,2,74.9999999999999,0|8|0,0:0|3:0|0:0,0:0:0:0:
276,248,109482,2,0,P|264:216|224:184,2,74.9999999999999,8|0|8,3:0|0:0|3:0,0:0:0:0:
288,336,110511,1,0,0:0:0:0:
436,236,111196,6,0,P|452:196|344:68,1,225,0|0,3:0|3:0,0:0:0:0:
276,112,112568,2,0,L|280:188,1,74.9999999999999,8|8,3:0|3:0,0:0:0:0:
220,256,113253,2,0,L|208:336,1,74.9999999999999,8|0,3:0|3:0,0:0:0:0:
128,368,113939,6,0,P|88:348|76:188,1,225,4|0,0:0|0:0,0:0:0:0:
156,148,115311,2,0,L|384:164,1,225,0|0,0:0|0:0,0:0:0:0:
464,132,116682,6,0,P|472:100|424:24,2,112.5,0|0|0,0:0|0:0|0:0,0:0:0:0:
392,188,118053,2,0,P|380:224|400:300,2,112.5,0|0|0,0:0|0:0|0:0,0:0:0:0:
324,128,119425,6,0,P|280:164|128:116,1,225,4|8,0:0|0:0,0:0:0:0:
88,44,120796,1,0,0:0:0:0:
12,92,121139,2,0,L|16:176,1,74.9999999999999,8|0,0:0|0:0,0:0:0:0:
64,244,121825,1,8,0:0:0:0:
144,200,122168,6,0,L|152:116,2,74.9999999999999,0|8|0,0:0|0:0|0:0,0:0:0:0:
212,260,123196,1,8,0:0:0:0:
284,204,123539,1,0,0:0:0:0:
356,256,123882,2,0,P|412:260|476:188,1,150,8|8,0:0|0:0,0:0:0:0:
452,108,124911,6,0,P|356:108|284:204,1,225,0|8,0:0|0:0,0:0:0:0:
228,276,126282,2,0,P|184:276|148:292,2,74.9999999999999,0|8|0,0:0|0:0|0:0,0:0:0:0:
304,324,127311,1,8,0:0:0:0:
380,276,127653,6,0,L|464:260,2,74.9999999999999,0|8|0,0:0|0:0|0:0,0:0:0:0:
240,160,129025,2,0,L|164:152,2,74.9999999999999,0|8|0,0:0|0:0|0:0,0:0:0:0:
388,56,130396,6,0,P|412:88|380:264,1,225,4|8,0:0|0:0,0:0:0:0:
296,268,131768,2,0,P|264:256|236:216,1,74.9999999999999,0|8,0:0|0:0,0:0:0:0:
152,208,132453,2,0,P|120:232|76:248,1,74.9999999999999,0|8,0:0|0:0,0:0:0:0:
20,188,133139,6,0,P|40:152|144:120,1,150,0|0,0:0|0:0,0:0:0:0:
224,148,134168,1,8,0:0:0:0:
304,108,134511,2,0,L|312:24,2,74.9999999999999,0|8|0,0:0|0:0|0:0,0:0:0:0:
432,236,135882,6,0,L|436:316,1,74.9999999999999,0|8,0:0|0:0,0:0:0:0:
364,364,136568,2,0,L|288:336,1,74.9999999999999,0|8,0:0|0:0,0:0:0:0:
224,284,137253,2,0,P|233:228|384:168,1,225,0|8,0:0|0:0,0:0:0:0:
448,116,138625,6,0,P|465:74|488:46,2,74.9999999999999,0|8|0,0:0|0:0|0:0,0:0:0:0:
452,204,139653,1,8,0:0:0:0:
256,192,139996,12,4,141368,0:0:0:0:
388,308,142739,6,0,L|476:312,2,74.9999999999999,12|8|8,0:0|0:0|0:0,0:0:0:0:
304,340,143768,1,8,0:0:0:0:
264,260,144111,2,0,P|252:204|384:136,1,225,8|8,0:0|0:0,0:0:0:0:
432,204,145482,6,0,P|428:248|412:276,2,74.9999999999999,8|8|8,0:0|0:0|0:0,0:0:0:0:
340,216,146511,1,8,0:0:0:0:
264,168,146853,2,0,L|268:80,1,74.9999999999999,8|8,0:0|0:0,0:0:0:0:
208,24,147539,1,8,0:0:0:0:
68,136,148225,5,8,0:0:0:0:
116,212,148568,2,0,P|128:244|112:292,2,74.9999999999999,8|8|8,0:0|0:0|0:0,0:0:0:0:
168,140,149596,2,0,P|220:136|292:200,1,150,8|8,0:0|0:0,0:0:0:0:
416,328,150968,5,8,0:0:0:0:
476,260,151311,2,0,L|484:176,2,74.9999999999999,8|8|8,0:0|0:0|0:0,0:0:0:0:
388,248,152339,1,8,0:0:0:0:
312,296,152682,2,0,P|256:304|172:244,1,150,8|8,0:0|0:0,0:0:0:0:
164,168,153711,6,0,P|176:128|208:96,2,74.9999999999999,4|8|0,0:0|0:0|0:0,0:0:0:0:
252,172,154739,1,8,0:0:0:0:
296,248,155082,2,0,B|332:224|338:189|338:189|344:140|380:120,1,150,0|0,0:0|0:0,0:0:0:0:
428,196,156111,1,8,0:0:0:0:
512,216,156453,6,0,P|496:252|456:280,2,74.9999999999999,0|8|0,0:0|0:0|0:0,0:0:0:0:
488,128,157482,1,8,0:0:0:0:
400,115,157825,2,0,P|361:107|330:79,1,74.9999999999999,0|8,0:0|0:0,0:0:0:0:
284,12,158511,1,0,0:0:0:0:
136,116,159196,5,0,0:0:0:0:
196,184,159539,2,0,P|168:200|116:204,2,74.9999999999999,8|0|8,0:0|0:0|0:0,0:0:0:0:
232,100,160568,2,0,P|272:132|272:232,1,150,0|0,0:0|0:0,0:0:0:0:
208,284,161596,1,8,0:0:0:0:
256,192,161939,12,0,165368,0:0:0:0:
