osu file format v9

[General]
AudioFilename: Tune Up! - Bounce (Nightcore Mix).mp3
AudioLeadIn: 0
PreviewTime: 21482
Countdown: 0
SampleSet: Soft
StackLeniency: 0.5
Mode: 0
LetterboxInBreaks: 0
EpilepsyWarning: 1

[Editor]
DistanceSpacing: 1.2
BeatDivisor: 4
GridSize: 8

[Metadata]
Title:Bounce (Nightcore Mix)
Artist:Tune Up!
Creator:osuplayer111
Version:Insane
Source:Nightcore III
Tags:Trance jericho2442 deadbeat Kite

[Difficulty]
HPDrainRate:7
CircleSize:4
OverallDifficulty:8
ApproachRate:8
SliderMultiplier:1.6
SliderTickRate:1

[Events]
//Background and Video events
0,0,"Bounce with me.jpg"
//Break Periods
//Storyboard Layer 0 (Background)
//Storyboard Layer 1 (Fail)
//Storyboard Layer 2 (Pass)
//Storyboard Layer 3 (Foreground)
//Storyboard Sound Samples
//Background Colour Transformations
3,100,163,162,255

[TimingPoints]
440,338.028169014084,4,2,1,80,1,0
18947,-100,4,2,1,50,0,0
21820,-100,4,2,1,66,0,0
21989,-100,4,1,1,50,0,0
22073,-100,4,1,1,66,0,1
42355,-100,4,1,2,66,0,0
65341,-100,4,2,1,80,0,0
74045,-100,4,2,1,50,0,0
74637,-133.333333333333,4,2,1,50,0,0
75313,-133.333333333333,4,2,1,30,0,0
76073,-100,4,1,2,66,0,0
86299,-100,4,2,1,66,0,0
86890,-100,4,1,1,50,0,0
86975,-100,4,1,1,66,0,1
97792,-100,4,1,1,66,0,0

[Colours]
Combo1 : 226,226,226
Combo2 : 255,149,98
Combo3 : 255,121,188
Combo4 : 53,53,255

[HitObjects]
256,320,11256,2,0,B|160:320|112:232,1,160,2|0
121,247,11763,1,0
176,128,12101,1,0
217,40,12270,2,0,B|256:60|296:39,1,80
336,128,12609,2,0,B|440:264,1,160,2|0
488,336,13116,1,0
488,336,13454,6,0,B|400:336,1,80
312,336,13792,1,0
312,336,13961,2,0,B|216:328|192:232,1,160,2|0
288,240,14468,2,0,B|267:155|171:147,1,160
104,216,14975,1,0
72,128,15144,1,0
136,56,15313,2,0,B|200:56|200:56|232:40|232:40|296:40,1,160,2|0
292,40,15820,1,0
464,128,16158,5,0
368,152,16327,1,0
392,248,16496,1,0
488,224,16665,2,0,B|416:176|392:88,1,160,2|0
320,40,17172,2,0,B|304:80|256:96|208:80|176:24,1,160
96,88,17679,2,0,B|24:144,1,80
24,256,18017,2,0,B|96:200,1,80,2|0
160,144,18355,1,0
160,144,18524,2,0,B|176:232|272:272,1,160
272,168,19031,5,2
272,168,19200,2,0,B|360:168|400:80,1,160
286,61,19707,1,2
286,61,19876,2,0,B|198:61|158:149,1,160
80,320,20552,5,0
80,320,20721,2,0,B|160:320|224:224,1,160,2|0
432,320,21228,2,0,B|352:320|288:224,1,160,2|0
256,152,21735,1,2
208,72,21904,1,0
256,56,21989,1,0
304,72,22073,1,0
256,328,22411,1,0
256,328,22580,1,0
40,152,22918,5,0
40,240,23087,1,0
104,96,23256,1,0
104,288,23425,2,0,B|168:224|256:240,1,160
408,96,23932,2,0,B|344:160|256:144,1,160
336,240,24439,6,0,B|424:240,1,80
176,144,24778,2,0,B|88:144,1,80
32,80,25116,1,0
32,80,25285,2,0,B|96:24|192:32,1,160
272,64,25792,1,0
272,64,25961,1,0
272,64,26130,2,0,B|288:144|392:168,1,160
376,72,26637,1,0
272,304,26975,5,0
376,312,27144,1,0
376,312,27313,1,0
376,312,27482,2,0,B|360:232|256:208,1,160,0|8
112,328,28158,2,0,B|40:264,1,80
48,176,28496,2,0,B|48:88|136:48,2,160,8|0|8
144,192,29341,2,0,B|312:192,1,160
376,256,29848,5,8
448,192,30017,1,0
416,104,30186,2,0,B|360:104|360:104|320:88|320:88|256:88,1,160,0|8
96,176,30693,2,0,B|152:176|152:176|192:192|192:192|256:192,1,160
344,224,31200,2,0,B|368:256|368:256|368:304,1,80,8|0
288,344,31538,1,0
112,264,31876,5,8
88,168,32045,2,0,B|64:136|64:136|64:88,1,80
144,48,32383,1,0
208,120,32552,2,0,B|240:120,8,20,0|0|0|0|0|0|0|0|0
272,304,33228,1,8
432,192,33566,5,0
464,104,33735,1,0
336,200,33904,1,8
408,40,34073,1,0
344,112,34242,2,0,B|272:80|192:40,1,160,0|8
120,216,34918,2,0,B|144:248|144:248|184:264,1,80
256,192,35256,1,8
392,216,35425,2,0,B|368:248|368:248|328:264,1,80
256,352,35932,5,8
256,352,36101,2,0,B|256:192,1,160
220,104,36609,2,0,B|258:87|258:87|292:104,1,80,8|0
384,128,36947,1,0
128,128,37285,1,8
128,128,37454,1,0
208,352,37792,5,0
304,352,37961,1,8
160,272,38130,1,0
352,272,38299,1,0
256,152,38637,2,0,B|256:240,1,80,8|0
128,128,39144,6,0,B|128:80|168:48,1,80,0|8
384,128,39482,2,0,B|384:80|344:48,1,80
392,216,39989,1,8
392,216,40158,2,0,B|392:304|312:344,1,160
120,216,40665,2,0,B|120:304|200:344,1,160,8|0
199,343,41172,1,0
256,272,41341,5,8
224,232,41425,1,0
200,192,41510,1,0
176,152,41594,1,0
160,104,41679,1,0
168,56,41763,1,0
208,32,41848,1,0
256,48,41932,1,0
304,32,42017,1,8
344,56,42102,1,0
352,104,42186,1,0
336,152,42270,1,0
312,192,42355,1,4
288,232,43707,5,4
120,328,44045,1,0
32,160,44383,2,0,B|72:136|72:96,1,80,4|0
184,256,44721,2,0,B|144:232|144:192,1,80
176,96,45059,2,0,B|360:96,2,160,4|0|4
168,192,45904,1,0
216,280,46073,2,0,B|304:280,1,80
344,192,46411,2,0,B|448:192|464:96,2,160,4|0|4
368,96,47256,5,0
304,24,47425,1,0
208,24,47594,1,0
144,96,47763,1,4
256,312,48101,2,0,B|256:152,1,160,0|4
168,96,48609,1,0
344,96,48778,1,0
208,24,48947,1,0
304,24,49116,1,4
464,240,49454,6,0,B|368:216|336:304,1,160,8|4
256,352,49961,1,0
175,303,50130,2,0,B|144:216|48:240,1,160,8|4
256,192,50806,1,8
115,61,51144,1,4
56,136,51313,1,0
115,61,51482,2,0,B|187:125|259:56,1,160,8|4
256,192,52158,6,0,B|326:123|398:192,1,160,8|4
320,264,52665,1,0
256,336,52834,1,8
192,264,53003,1,0
256,152,53172,6,0,B|256:192,3,40
192,112,53510,2,0,B|136:112,3,40
256,64,53848,2,0,B|256:24,3,40
320,112,54186,2,0,B|376:112,3,40
432,112,54524,5,4
256,320,54862,1,8
80,112,55200,2,0,B|104:80|104:80|144:80,1,80,4|0
128,176,55538,1,8
256,32,55876,1,4
384,176,56214,1,8
176,320,56552,6,0,B|136:320|96:280,1,80,4|0
336,320,56890,2,0,B|376:320|416:280,1,80,8|0
256,272,57228,2,0,B|256:104,1,160,4|8
88,176,57904,2,0,B|40:240,2,80,4|0|8
424,176,58580,2,0,B|472:240,2,80,4|0|8
256,32,59256,1,4
176,208,59594,5,8
256,152,59763,1,0
336,208,59932,1,4
256,312,60270,2,0,B|256:144,1,160,8|4
144,120,60778,2,0,B|168:88|168:88|208:72,1,80,0|8
368,120,61116,2,0,B|344:88|344:88|304:72,1,80,0|4
256,312,61623,1,8
64,320,61961,6,0,B|120:304|120:248,1,80,4|0
48,192,62299,1,8
64,64,62468,2,0,B|120:80|120:136,1,80,0|4
208,192,62975,2,0,B|40:192,1,160,8|0
118,117,63482,2,0,B|142:77|190:77,1,80,0|8
118,267,63820,2,0,B|142:307|190:307,1,80,0|0
280,320,64158,5,0
280,320,64242,1,0
280,320,64327,2,0,B|384:320,1,80,8|0
432,264,64665,1,0
472,240,64749,1,0
488,192,64834,1,0
472,144,64918,1,0
432,120,65003,2,0,B|384:120,4,40,8|0|0|0|2
280,64,65679,6,0,B|192:64|128:136,1,160,0|2
128,224,66186,2,0,B|176:304,1,80
342,292,66524,2,0,B|384:224,1,80,0|2
176,368,67031,2,0,B|352:368,1,160,0|2
304,288,67538,1,0
208,288,67707,1,0
344,216,67876,1,0
168,216,68045,2,0,B|88:192|64:104,2,160,2|0|2
176,120,68890,6,0,B|200:72|240:72,1,80
336,264,69228,2,0,B|312:312|272:312,1,80,0|2
320,72,69735,1,0
192,312,70073,5,0
192,312,70242,2,0,B|112:312|32:224,1,160
116,122,70749,2,0,B|195:122|255:189,1,160,2|0
480,288,71425,6,0,B|416:336,1,80
272,288,71763,2,0,B|336:336,1,80
376,248,72101,1,2
416,64,72439,5,0
416,64,72609,2,0,B|360:64|360:64|328:48|328:48|256:48,1,160
68,176,73116,2,0,B|124:176|124:176|156:192|156:192|228:192,1,160,0|2
480,192,73792,2,0,B|384:192,1,80,0|0
400,192,74130,1,0
352,112,74299,1,0
352,272,74468,1,0
304,192,74637,1,0
224,192,74806,6,0,B|208:264|160:288|160:288|112:264|88:176,2,239.999992847443,2|0|4
376,304,76496,1,8
376,80,76834,2,0,B|480:80,2,80,4|0|8
256,192,77510,1,4
136,304,77848,1,8
136,80,78186,2,0,B|56:80,2,80,4|0|8
176,368,78862,6,0,B|248:368|248:368|272:352|272:352|336:352,1,160,4|8
256,192,79538,1,4
208,272,79707,1,0
304,272,79876,1,8
331,32,80214,6,0,B|272:32|272:32|248:16|248:16|176:16,1,160,4|8
256,192,80890,1,4
304,112,81059,1,0
208,112,81228,1,8
48,192,81566,6,0,B|80:280|192:280,1,160,4|8
368,280,82242,2,0,B|464:280,1,80,4|0
488,192,82580,2,0,B|488:96|384:64,2,160,8|4|8
296,192,83594,6,0,B|200:192,1,80,4|0
256,104,83932,1,8
48,344,84270,1,4
464,344,84609,1,8
176,272,84947,2,0,B|352:272,1,160,4|8
256,16,85623,1,4
256,328,86806,6,0,B|256:368,2,40
192,152,87313,2,0,B|216:192|256:216|296:192|320:144,1,160,8|0
344,56,87820,1,0
256,96,87989,1,8
168,56,88158,1,0
256,96,88327,2,0,B|256:264,1,160,0|8
256,256,88834,1,0
152,296,89172,6,0,B|160:336|208:352,1,80,0|8
359,296,89510,2,0,B|352:336|307:350,1,80
256,176,90017,1,8
176,96,90186,2,0,B|352:96,1,160
344,192,90693,1,8
256,256,90862,1,0
168,192,91031,1,0
256,16,91369,1,8
256,16,91538,1,0
40,192,91876,5,0
96,272,92045,1,8
176,224,92214,1,0
120,144,92383,1,0
472,192,92721,5,8
416,112,92890,1,0
336,160,93059,1,0
392,240,93228,1,0
472,192,93397,2,0,B|392:224|344:296,2,160,8|0|8
416,112,94242,2,0,B|368:40,1,80
336,160,94580,2,0,B|264:112,1,80,0|8
280,240,94918,1,0
208,304,95087,5,0
208,304,95172,1,0
208,304,95256,2,0,B|168:344,3,40,0|0|8|0
168,240,95594,2,0,B|120:240,4,40
208,176,96017,2,0,B|168:136,3,40,0|8|0|0
256,192,96439,12,4,97792
