osu file format v9

[General]
AudioFilename: Tune Up! - Bounce (Nightcore Mix).mp3
AudioLeadIn: 0
PreviewTime: 21482
Countdown: 0
SampleSet: Normal
StackLeniency: 0.5
Mode: 0
LetterboxInBreaks: 0
EpilepsyWarning: 1

[Editor]
DistanceSpacing: 1
BeatDivisor: 2
GridSize: 8

[Metadata]
Title:Bounce (Nightcore Mix)
Artist:Tune Up!
Creator:osuplayer111
Version:Hard
Source:Nightcore III
Tags:Trance jericho2442 deadbeat Kite

[Difficulty]
HPDrainRate:6
CircleSize:5
OverallDifficulty:6
ApproachRate:7
SliderMultiplier:1.4
SliderTickRate:1

[Events]
//Background and Video events
0,0,"Bounce with me.jpg"
//Break Periods
//Storyboard Layer 0 (Background)
//Storyboard Layer 1 (Fail)
//Storyboard Layer 2 (Pass)
//Storyboard Layer 3 (Foreground)
//Storyboard Sound Samples
//Background Colour Transformations
3,100,163,162,255

[TimingPoints]
440,338.028169014084,4,2,1,80,1,0
18947,-100,4,2,1,50,0,0
21059,-100,4,2,1,0,0,0
21228,-100,4,2,1,50,0,0
21397,-100,4,2,1,0,0,0
21566,-100,4,2,1,50,0,0
22073,-100,4,1,1,66,0,1
42355,-100,4,1,2,66,0,0
65172,-100,4,2,1,80,0,0
73961,-100,4,2,1,50,0,0
74975,-100,4,1,2,66,0,0
86975,-100,4,1,1,66,0,1
97792,-100,4,1,1,66,0,0

[Colours]
Combo1 : 226,226,226
Combo2 : 255,149,98
Combo3 : 255,121,188
Combo4 : 53,53,255

[HitObjects]
192,56,11256,2,0,B|248:56|248:56|272:40|272:40|328:40,1,140,2|0
392,40,11763,1,0
352,168,12101,1,0
288,192,12270,2,0,B|232:192|232:192|208:208|208:208|152:208,1,140,0|2
72,320,12947,1,0
136,344,13116,1,0
256,280,13454,5,0
256,344,13623,1,0
376,344,13961,2,0,B|456:328|472:240,1,140,2|0
472,184,14468,1,0
368,96,14806,1,0
368,96,14975,2,0,B|320:96|320:96|288:112|288:112|232:112,1,140,0|2
144,288,15820,6,0,B|192:288|192:288|224:272|224:272|280:272,1,140
352,272,16327,1,0
464,192,16665,1,2
368,96,17003,1,0
336,160,17172,2,0,B|288:160|288:160|256:176|256:176|200:176,1,140
144,216,17679,2,0,B|64:216,2,70,0|0|2
138,39,18355,5,0
138,39,18524,2,0,B|186:103|266:103,1,140
257,104,19031,2,0,B|328:104|375:40,1,140,2|0
375,39,19707,1,2
375,39,19876,1,0
336,320,20552,5,0
336,320,20721,2,0,B|304:264|256:232|208:264|176:320,2,210,2|2|2
256,192,22073,1,0
184,72,22411,1,0
328,72,22749,2,0,B|400:72,2,70
352,208,23425,5,0
256,312,23763,1,0
160,208,24101,2,0,B|88:208,2,70
200,152,24609,1,0
256,192,24778,1,0
184,312,25116,1,0
328,312,25454,1,0
312,152,25792,6,0,B|384:152,2,70
208,56,26468,2,0,B|136:56|88:128,1,140
88,264,27144,2,0,B|88:336,2,70
224,224,27820,2,0,B|280:224|280:224|304:240|304:240|368:240,1,140,8|0
359,240,28327,1,0
359,240,28496,1,8
488,192,28834,6,0,B|488:136|488:136|472:112|472:112|472:40,1,140,0|8
400,40,29341,2,0,B|352:40|352:40|320:56|320:56|256:56,1,140
192,56,29848,1,8
256,184,30186,1,0
328,304,30524,1,8
328,304,30693,2,0,B|176:304,1,140
128,344,31200,1,8
88,288,31369,1,0
48,232,31538,6,0,B|48:160|136:128,1,140,0|8
200,128,32045,1,0
328,192,32383,1,0
400,192,32552,2,0,B|432:192,8,17.5,0|0|0|0|0|0|0|0|0
320,304,33228,6,0,B|272:304|272:304|256:344|256:344|192:344,1,140,8|0
208,272,33735,1,0
136,272,33904,1,8
136,344,34073,1,0
208,344,34242,1,0
256,208,34580,2,0,B|256:56,2,140,8|0|8
392,184,35594,5,0
392,256,35763,2,0,B|464:256,1,70,0|8
352,344,36270,2,0,B|264:344,1,70
208,344,36609,1,8
208,272,36778,1,0
280,272,36947,2,0,B|352:240|352:144,2,140,0|8|0
136,272,37961,6,0,B|136:312|104:336,1,70,8|0
40,336,38299,2,0,B|40:256|104:208,1,140,0|8
200,112,38975,1,0
256,72,39144,1,0
312,112,39313,2,0,B|360:112|360:112|392:128|392:128|448:128,2,140,8|0|8
368,240,40327,5,0
320,288,40496,1,0
256,312,40665,1,8
192,288,40834,1,0
144,240,41003,1,0
187,72,41341,2,0,B|259:72,1,70,8|0
325,192,41848,2,0,B|253:192,1,70,0|8
256,312,42355,1,4
51,56,43707,6,0,B|99:56|99:56|131:72|131:72|195:72,1,140,4|0
328,104,44383,1,4
328,104,44552,1,0
328,104,44721,2,0,B|328:152|328:152|344:184|344:184|344:248,1,140,0|4
256,352,45397,1,0
168,240,45735,6,0,B|96:240,2,70,4|0|0
296,192,46411,1,4
168,136,46749,1,0
200,16,47087,1,4
256,64,47256,1,0
312,16,47425,2,0,B|392:16|424:96,1,140,0|4
200,16,48101,6,0,B|120:16|88:96,1,140,0|4
144,136,48609,2,0,B|208:184,2,70
90,89,49116,1,4
88,232,49454,1,8
200,320,49792,5,4
256,280,49961,1,0
312,320,50130,2,0,B|392:320|416:240,2,140,8|4|8
256,280,50975,2,0,B|256:128,1,140
256,140,51482,1,8
200,320,51820,2,0,B|120:320|96:240,2,140,4|8|4
256,360,52665,5,0
312,320,52834,1,8
256,280,53003,1,0
312,240,53172,2,0,B|352:192|352:192|352:112,1,140,0|0
200,240,53848,2,0,B|160:192|160:192|160:112,1,140,0|0
200,56,54355,1,0
256,104,54524,6,0,B|400:104,2,140,4|8|4
200,56,55369,1,0
144,104,55538,2,0,B|104:136|104:136|96:168|96:168|56:208,1,140,8|4
144,312,56214,2,0,B|224:312,1,70,8|0
368,312,56721,2,0,B|288:312,1,70,0|8
256,192,57228,6,0,B|256:40,1,140,4|8
328,64,57735,1,0
296,0,57904,1,4
216,0,58073,1,0
184,64,58242,1,8
328,136,58580,5,4
184,136,58918,1,8
256,264,59256,2,0,B|256:344,2,70,4|0|8
184,136,59932,2,0,B|144:136|112:136|112:136|96:168|48:168,1,140,4|8
256,192,60609,2,0,B|256:112,2,70,4|0|8
328,136,61285,2,0,B|368:136|400:136|400:136|416:168|464:168,1,140,4|8
400,296,61961,5,4
352,248,62130,1,0
328,312,62299,1,8
256,192,62637,1,4
256,192,62975,1,8
184,312,63313,1,0
160,248,63482,1,0
112,296,63651,1,8
136,360,63820,1,0
184,312,63989,5,0
256,192,64327,1,8
328,312,64665,1,0
120,192,65003,1,8
392,192,65341,1,2
328,72,65679,6,0,B|184:72,1,140
188,72,66186,1,0
188,72,66355,1,0
120,192,66693,1,2
184,312,67031,1,0
328,312,67369,2,0,B|408:312,2,70
392,192,68045,1,2
256,192,68383,6,0,B|256:352,1,140
184,312,68890,2,0,B|160:336|112:336,1,70
328,312,69228,2,0,B|352:336|400:336,1,70,0|2
328,216,69735,1,0
184,216,70073,1,0
176,144,70242,2,0,B|184:104|224:96,1,70
290,96,70580,2,0,B|328:104|336:144,1,70,0|2
376,264,71087,5,0
256,328,71425,2,0,B|256:248,1,70
136,264,71932,1,0
136,264,72101,2,0,B|56:264|32:184,1,140,2|0
32,48,72778,5,0
32,48,72947,2,0,B|112:48|136:128,1,140
160,192,73454,2,0,B|304:192,1,140,2|0
408,104,74130,2,0,B|440:104|440:104|448:120|448:120|476:120,1,70
488,192,74468,1,0
468,264,74637,2,0,B|448:264|448:264|440:280|440:280|408:280,1,70,0|2
44,264,76158,5,4
160,192,76496,1,8
44,120,76834,1,4
160,192,77172,2,0,B|72:192,2,70,8|0|4
256,296,77848,5,8
352,192,78186,1,4
256,88,78524,2,0,B|256:160,2,70,8|0|4
352,192,79200,5,8
468,120,79538,1,4
468,264,79876,2,0,B|468:339,2,70,8|0|4
328,280,80552,5,8
184,280,80890,1,4
208,216,81059,1,0
256,160,81228,1,8
304,216,81397,1,0
328,280,81566,1,4
256,160,81904,2,0,B|256:16,1,140,8|4
256,20,82411,1,0
256,20,82580,1,8
328,344,82918,6,0,B|184:344,1,140,4|8
221,280,83425,2,0,B|293:280,1,70,0|4
256,216,83763,1,0
192,192,83932,5,8
256,64,84270,1,4
320,192,84609,1,8
256,64,84947,2,0,B|256:136,1,70,4|0
256,216,85285,1,8
256,352,85623,1,4
256,216,86975,5,0
328,336,87313,1,8
184,336,87651,2,0,B|112:336,2,70,0|0|8
160,200,88327,1,0
256,96,88665,1,8
352,200,89003,2,0,B|424:200,2,70,0|0|8
312,256,89511,1,0
256,216,89680,5,0
328,96,90018,1,8
184,96,90356,1,0
200,256,90694,2,0,B|128:256,2,70,8|0|0
304,352,91370,2,0,B|376:352|424:280,1,140,8|0
424,144,92046,6,0,B|424:72,2,70,8|0|0
288,184,92722,2,0,B|232:184|232:184|208:168|208:168|144:168,1,140,8|0
153,168,93229,1,0
153,168,93398,1,8
24,216,93736,2,0,B|24:272|24:272|40:296|40:296|40:368,1,140,0|8
112,368,94243,2,0,B|160:368|160:368|192:352|192:352|256:352,1,140
320,352,94750,5,8
256,224,95088,1,0
184,104,95426,1,8
184,104,95595,2,0,B|336:104,1,140
384,64,96102,1,8
424,120,96271,1,0
256,192,96439,12,4,97792
