osu file format v10

[General]
AudioFilename: Nightcore - Bounce.mp3
AudioLeadIn: 0
PreviewTime: -1
Countdown: 0
SampleSet: Normal
StackLeniency: 0.7
Mode: 3
LetterboxInBreaks: 1

[Editor]
DistanceSpacing: 0.8
BeatDivisor: 4
GridSize: 8
CurrentTime: 12528

[Metadata]
Title:Bounce (Nightcore Mix)
TitleUnicode:Bounce (Nightcore Mix)
Artist:Tune Up!
ArtistUnicode:Tune Up!
Creator:[Zapper]
Version:easy!mania
Source:Nightcore III
Tags:
BeatmapID:178273
BeatmapSetID:59492

[Difficulty]
HPDrainRate:2
CircleSize:4
OverallDifficulty:3
ApproachRate:1
SliderMultiplier:0.999999999999999
SliderTickRate:2

[Events]
//Background and Video events
0,0,"BG.jpg"
//Break Periods
//Storyboard Layer 0 (Background)
//Storyboard Layer 1 (Fail)
//Storyboard Layer 2 (Pass)
//Storyboard Layer 3 (Foreground)
//Storyboard Sound Samples
//Background Colour Transformations
3,100,163,162,255

[TimingPoints]
139.546627821837,339.424110425977,4,1,1,45,1,0
16429,-100,4,1,1,40,0,0
17787,-100,4,1,1,45,0,0
21860,-58.8235294117647,4,1,1,75,0,1
32380,-58.8235294117647,4,1,1,75,0,0
32720,-58.8235294117647,4,1,1,75,0,1
35948,-166.666666666667,4,1,1,75,0,1
36288,-58.8235294117647,4,1,1,75,0,1
43416,-50,4,1,1,75,0,1
43580,-100,4,1,1,65,0,0
62585,-133.333333333333,4,1,1,40,0,0
76161,-117.647058823529,4,1,1,50,0,0

[Colours]
Combo1 : 255,255,255
Combo2 : 5,240,5
Combo3 : 5,5,240
Combo4 : 240,5,5
Combo5 : 255,150,0

[HitObjects]
256,192,9643,12,0,11001,0:0
64,296,11340,6,0,B|64:192,1,99.9999999999999,8|0,0:0|0:0,0:0
320,112,12019,2,0,B|320:224,1,99.9999999999999,8|0,0:0|0:0,0:0
448,232,12698,1,8,0:0
448,232,13037,1,0,0:0
192,272,13377,2,0,B|192:160,1,99.9999999999999,8|0,0:0|0:0,0:0
192,88,14055,1,8,0:0
320,136,14395,1,0,0:0
320,320,14734,2,0,B|320:208,1,99.9999999999999,8|0,0:0|0:0,0:0
64,296,15413,1,8,0:0
64,296,15753,1,0,0:0
192,64,16092,2,0,B|192:184,1,99.9999999999999,8|0,0:0|0:0,0:0
320,240,16771,1,8,0:0
448,240,17110,1,0,0:0
192,88,17450,2,0,B|192:192,1,99.9999999999999,8|0,0:0|0:0,0:0
320,88,17450,2,0,B|320:208,1,99.9999999999999,8|0,0:0|0:0,0:0
64,320,18129,2,0,B|64:208,1,99.9999999999999,8|0,0:0|0:0,0:0
448,328,18807,1,8,0:0
256,192,19147,12,4,21862,0:0
448,96,22202,6,0,B|448:280,1,170.000003242493,8|0,0:0|0:0,0:0
64,96,22880,1,8,0:0
192,184,23220,1,0,0:0
320,296,23559,2,0,B|320:96,1,170.000003242493,8|0,0:0|0:0,0:0
448,296,23559,2,0,B|448:104,1,170.000003242493,8|0,0:0|0:0,0:0
192,296,24238,1,8,0:0
64,296,24578,1,0,0:0
192,104,24917,1,8,0:0
320,104,24917,1,8,0:0
448,288,25256,2,0,B|448:112,1,170.000003242493,0|8,0:0|0:0,0:0
64,176,25935,1,0,0:0
64,176,26275,1,8,0:0
192,176,26275,1,8,0:0
192,176,26614,1,0,0:0
64,176,26614,1,0,0:0
320,176,26614,1,0,0:0
448,176,26954,2,0,B|448:360,1,170.000003242493,8|0,0:0|0:0,0:0
64,320,27632,1,8,0:0
192,320,27972,1,0,0:0
320,320,28311,1,8,0:0
448,256,28651,2,0,B|448:48,1,170.000003242493,0|8,0:0|0:0,0:0
64,208,29330,1,0,0:0
64,208,29669,1,8,0:0
64,320,30008,2,0,B|64:40|64:40|64:296,1,510.000009727478,0|8,0:0|0:0,0:0
192,320,30348,2,0,B|192:48|192:48|192:144,1,340.000006484985,8|8,0:0|0:0,0:0
320,320,30687,2,0,B|320:128,1,170.000003242493,0|8,0:0|0:0,0:0
256,192,31451,12,4,32724,0:0
64,64,33063,6,0,B|64:248,1,170.000003242493,8|0,0:0|0:0,0:0
192,264,33742,2,0,B|192:88,1,170.000003242493,8|0,0:0|0:0,0:0
320,96,33742,2,0,B|320:288,1,170.000003242493,8|0,0:0|0:0,0:0
448,184,33742,2,0,B|448:280|448:280|448:176,1,170.000003242493,8|0,0:0|0:0,0:0
448,344,34421,1,8,0:0
320,344,34760,1,0,0:0
192,344,35100,1,8,0:0
64,344,35439,1,0,0:0
