osu file format v14

[General]
AudioFilename: Tujamo & Plastik Funk Feat. Sneakbo-Dr. Who! (Smooth Remix).mp3
AudioLeadIn: 0
PreviewTime: 64921
Countdown: 0
SampleSet: Normal
StackLeniency: 0.7
Mode: 1
LetterboxInBreaks: 0
WidescreenStoryboard: 0

[Editor]
DistanceSpacing: 0.9
BeatDivisor: 4
GridSize: 4
TimelineZoom: 1.9

[Metadata]
Title:Dr. Who! (Smooth Remix)
TitleUnicode:Dr. Who! (Smooth Remix)
Artist:Tujamo & Plastik Funk feat. Sneakbo
ArtistUnicode:Tujamo & Plastik Funk feat. Sneakbo
Creator:Seiga Kaku
Version:Muzukashii
Source:
Tags:Drum & Bass dnb drum'n'bass Nishizumi Nyan
BeatmapID:718395
BeatmapSetID:323159

[Difficulty]
HPDrainRate:5
CircleSize:5
OverallDifficulty:5
ApproachRate:5
SliderMultiplier:1.4
SliderTickRate:1

[Events]
//Background and Video events
0,0,"fantasy-art-robot-robots-tesseract-2776727-1920x1080.jpg",0,0
//Break Periods
//Storyboard Layer 0 (Background)
//Storyboard Layer 1 (Fail)
//Storyboard Layer 2 (Pass)
//Storyboard Layer 3 (Foreground)
//Storyboard Sound Samples

[TimingPoints]
94,344.827586206897,4,1,0,70,1,0
44318,-125,4,1,0,70,0,0
46904,-117.647058823529,4,1,0,70,0,0
49662,-111.111111111111,4,1,0,70,0,0
52421,-105.263157894737,4,1,0,70,0,0
55180,-100,4,1,0,70,0,0
57938,-95.2380952380952,4,1,0,70,0,0
60697,-90.9090909090909,4,1,0,70,0,0
62076,-86.9565217391304,4,1,0,70,0,0
63456,-83.3333333333333,4,1,0,70,0,0
65007,-111.111111111111,4,1,0,70,0,0
66300,-90.9090909090909,4,1,0,80,0,1
86990,-100,4,1,0,70,0,0
113197,-100,4,1,0,80,0,1
132507,-100,4,1,0,70,0,0

[HitObjects]
192,212,94,5,4,0:0:0:0:
192,212,438,1,2,0:0:0:0:
192,212,611,1,0,0:0:0:0:
192,212,783,1,8,0:0:0:0:
192,212,1128,1,0,0:0:0:0:
192,212,1645,1,0,0:0:0:0:
192,212,2162,1,8,0:0:0:0:
192,212,2507,1,0,0:0:0:0:
192,212,2852,1,0,0:0:0:0:
188,216,3197,1,2,0:0:0:0:
192,212,3369,1,0,0:0:0:0:
192,212,3542,1,8,0:0:0:0:
192,212,3887,1,0,0:0:0:0:
196,216,4404,1,0,0:0:0:0:
188,216,4921,1,8,0:0:0:0:
192,212,5266,1,0,0:0:0:0:
192,212,5611,1,4,0:0:0:0:
192,216,5956,1,2,0:0:0:0:
192,212,6128,1,0,0:0:0:0:
192,216,6300,1,8,0:0:0:0:
188,216,6645,1,0,0:0:0:0:
188,216,7162,1,0,0:0:0:0:
192,216,7680,1,8,0:0:0:0:
192,216,8025,1,0,0:0:0:0:
192,216,8369,1,0,0:0:0:0:
200,216,8714,1,2,0:0:0:0:
192,216,8887,1,0,0:0:0:0:
196,216,9059,1,8,0:0:0:0:
192,216,9404,1,0,0:0:0:0:
204,204,9749,1,2,0:0:0:0:
196,204,10007,1,2,0:0:0:0:
208,204,10266,1,2,0:0:0:0:
208,208,10438,1,0,0:0:0:0:
200,208,10611,1,0,0:0:0:0:
208,204,10783,1,8,0:0:0:0:
216,208,10956,1,8,0:0:0:0:
216,200,11128,1,4,0:0:0:0:
204,204,11473,1,2,0:0:0:0:
208,196,11645,1,0,0:0:0:0:
216,200,11818,1,8,0:0:0:0:
204,192,12162,1,0,0:0:0:0:
212,200,12680,1,0,0:0:0:0:
208,200,13197,1,8,0:0:0:0:
208,200,13542,1,0,0:0:0:0:
212,200,13887,1,0,0:0:0:0:
208,196,14231,1,2,0:0:0:0:
224,200,14404,1,0,0:0:0:0:
220,212,14576,1,8,0:0:0:0:
208,208,14921,1,0,0:0:0:0:
216,216,15438,1,0,0:0:0:0:
204,216,15956,1,8,0:0:0:0:
220,216,16300,1,0,0:0:0:0:
220,220,16645,1,4,0:0:0:0:
224,212,16990,1,2,0:0:0:0:
240,216,17162,1,0,0:0:0:0:
236,216,17335,1,8,0:0:0:0:
236,224,17680,1,0,0:0:0:0:
236,212,18197,1,0,0:0:0:0:
252,216,18714,1,8,0:0:0:0:
236,216,19059,1,0,0:0:0:0:
272,216,19404,1,8,0:0:0:0:
272,228,19576,1,8,0:0:0:0:
268,224,19749,1,8,0:0:0:0:
276,232,19921,1,8,0:0:0:0:
284,192,20266,1,0,0:0:0:0:
320,252,20438,1,8,0:0:0:0:
296,232,20611,1,0,0:0:0:0:
276,228,20783,1,8,0:0:0:0:
284,224,20956,1,8,0:0:0:0:
316,224,21128,1,8,0:0:0:0:
84,116,21473,1,0,0:0:0:0:
284,224,21645,1,0,0:0:0:0:
268,192,21818,1,8,0:0:0:0:
252,220,21990,1,8,0:0:0:0:
304,168,22162,1,4,0:0:0:0:
256,188,22507,1,2,0:0:0:0:
272,212,22680,1,0,0:0:0:0:
272,192,22852,1,8,0:0:0:0:
268,184,23197,1,0,0:0:0:0:
260,184,23542,1,2,0:0:0:0:
268,184,23714,1,0,0:0:0:0:
272,196,24059,1,0,0:0:0:0:
280,184,24231,1,8,0:0:0:0:
268,188,24576,1,0,0:0:0:0:
268,192,24921,1,0,0:0:0:0:
272,192,25266,1,0,0:0:0:0:
268,184,25438,1,0,0:0:0:0:
272,176,25611,1,8,0:0:0:0:
252,180,25956,1,0,0:0:0:0:
256,152,26300,1,8,0:0:0:0:
212,164,26473,1,0,0:0:0:0:
212,164,26818,1,0,0:0:0:0:
304,188,26990,1,8,0:0:0:0:
260,180,27335,1,0,0:0:0:0:
272,192,27507,1,0,0:0:0:0:
208,176,27594,1,0,0:0:0:0:
204,188,27680,1,0,0:0:0:0:
252,180,28025,1,8,0:0:0:0:
240,192,28197,1,0,0:0:0:0:
244,204,28369,1,8,0:0:0:0:
240,192,28714,1,0,0:0:0:0:
252,184,29059,1,2,0:0:0:0:
280,196,29231,1,0,0:0:0:0:
236,232,29576,1,0,0:0:0:0:
264,196,29749,1,8,0:0:0:0:
204,192,30094,1,0,0:0:0:0:
224,204,30266,1,2,0:0:0:0:
240,208,30438,1,0,0:0:0:0:
256,200,30783,1,0,0:0:0:0:
264,228,30956,1,0,0:0:0:0:
256,176,31128,1,8,0:0:0:0:
236,208,31473,1,0,0:0:0:0:
280,212,31818,1,2,0:0:0:0:
272,180,31990,1,0,0:0:0:0:
248,204,32335,1,0,0:0:0:0:
268,164,32507,1,8,0:0:0:0:
292,172,32852,1,4,0:0:0:0:
256,168,33197,1,0,0:0:0:0:
220,184,33542,1,2,0:0:0:0:
244,188,33714,1,0,0:0:0:0:
264,172,33887,1,8,0:0:0:0:
280,176,34231,1,0,0:0:0:0:
232,184,34576,1,2,0:0:0:0:
240,192,34749,1,0,0:0:0:0:
224,204,35094,1,0,0:0:0:0:
256,188,35266,1,8,0:0:0:0:
272,188,35611,1,0,0:0:0:0:
244,192,35956,1,0,0:0:0:0:
232,184,36300,1,0,0:0:0:0:
244,200,36473,1,0,0:0:0:0:
240,204,36645,1,8,0:0:0:0:
260,204,36990,1,0,0:0:0:0:
256,208,37335,1,2,0:0:0:0:
240,200,37507,1,0,0:0:0:0:
220,180,37852,1,0,0:0:0:0:
248,192,38025,1,8,0:0:0:0:
224,188,38369,1,0,0:0:0:0:
236,192,38542,1,0,0:0:0:0:
224,192,38628,1,0,0:0:0:0:
232,188,38714,1,0,0:0:0:0:
232,192,39059,1,8,0:0:0:0:
232,184,39231,1,0,0:0:0:0:
232,192,39404,1,8,0:0:0:0:
252,192,39749,1,0,0:0:0:0:
216,200,40094,1,8,0:0:0:0:
244,204,40266,1,0,0:0:0:0:
248,204,40611,1,0,0:0:0:0:
224,204,40783,1,8,0:0:0:0:
256,208,41128,1,0,0:0:0:0:
232,196,41473,1,0,0:0:0:0:
248,200,41818,1,0,0:0:0:0:
264,208,41990,1,0,0:0:0:0:
240,160,42162,1,8,0:0:0:0:
272,188,42507,1,0,0:0:0:0:
240,188,42852,1,2,0:0:0:0:
276,184,43025,1,0,0:0:0:0:
260,196,43369,1,0,0:0:0:0:
300,184,43542,1,0,0:0:0:0:
284,200,43714,1,0,0:0:0:0:
264,180,43887,1,8,0:0:0:0:
304,208,44059,1,8,0:0:0:0:
296,176,44231,1,4,0:0:0:0:
272,176,44921,1,0,0:0:0:0:
300,184,45266,1,0,0:0:0:0:
280,180,45611,1,2,0:0:0:0:
320,192,45956,1,0,0:0:0:0:
352,244,46300,1,0,0:0:0:0:
352,240,46990,1,0,0:0:0:0:
256,164,47680,1,0,0:0:0:0:
232,188,48025,1,0,0:0:0:0:
240,200,48369,1,2,0:0:0:0:
332,280,49059,1,8,0:0:0:0:
332,280,49404,1,2,0:0:0:0:
264,192,50094,1,2,0:0:0:0:
340,292,50438,1,0,0:0:0:0:
336,292,50783,1,2,0:0:0:0:
408,368,51128,1,0,0:0:0:0:
252,216,51473,1,0,0:0:0:0:
180,136,51818,1,2,0:0:0:0:
24,136,52852,1,8,0:0:0:0:
168,132,53197,1,0,0:0:0:0:
160,156,53542,1,0,0:0:0:0:
164,140,53887,1,8,0:0:0:0:
164,120,54231,1,2,0:0:0:0:
160,144,54576,1,0,0:0:0:0:
172,144,54749,1,0,0:0:0:0:
228,144,54921,1,8,0:0:0:0:
224,152,55094,1,8,0:0:0:0:
204,152,55266,1,4,0:0:0:0:
228,160,55956,1,0,0:0:0:0:
240,108,56300,1,0,0:0:0:0:
216,152,56645,1,2,0:0:0:0:
228,140,57335,1,0,0:0:0:0:
252,152,57680,1,0,0:0:0:0:
240,120,57852,1,0,0:0:0:0:
236,148,58025,1,8,0:0:0:0:
224,144,58714,1,0,0:0:0:0:
220,92,59059,1,0,0:0:0:0:
208,136,59404,1,2,0:0:0:0:
224,144,60094,1,0,0:0:0:0:
248,156,60438,1,0,0:0:0:0:
232,148,60611,1,0,0:0:0:0:
252,156,60783,1,8,0:0:0:0:
224,172,60956,1,0,0:0:0:0:
152,168,61128,1,0,0:0:0:0:
340,236,61300,1,0,0:0:0:0:
304,200,61645,1,0,0:0:0:0:
232,140,61818,1,0,0:0:0:0:
176,168,61990,1,0,0:0:0:0:
256,176,62162,1,2,0:0:0:0:
272,176,62335,1,0,0:0:0:0:
272,188,62507,1,0,0:0:0:0:
272,188,62680,1,0,0:0:0:0:
272,188,63025,1,0,0:0:0:0:
272,188,63197,1,0,0:0:0:0:
272,188,63369,1,0,0:0:0:0:
272,188,63542,1,8,0:0:0:0:
212,216,63714,1,0,0:0:0:0:
220,220,63887,1,8,0:0:0:0:
224,192,64059,1,0,0:0:0:0:
272,188,64231,1,8,0:0:0:0:
212,216,64404,1,8,0:0:0:0:
220,220,64576,1,0,0:0:0:0:
240,220,64749,1,0,0:0:0:0:
116,112,64835,1,0,0:0:0:0:
232,296,64921,5,8,0:0:0:0:
312,188,65611,1,0,0:0:0:0:
240,204,65783,1,0,0:0:0:0:
280,124,65956,1,8,0:0:0:0:
280,124,66128,1,8,0:0:0:0:
220,160,66300,1,4,0:0:0:0:
228,184,66473,1,0,0:0:0:0:
312,208,66645,1,8,0:0:0:0:
276,272,66990,1,0,0:0:0:0:
308,276,67162,1,0,0:0:0:0:
328,152,67335,1,8,0:0:0:0:
412,208,67507,1,0,0:0:0:0:
164,200,67680,1,0,0:0:0:0:
364,208,68025,1,8,0:0:0:0:
284,144,68197,1,8,0:0:0:0:
332,32,68369,1,0,0:0:0:0:
372,204,68542,1,8,0:0:0:0:
304,168,68714,1,8,0:0:0:0:
332,224,68887,1,8,0:0:0:0:
256,248,69059,1,0,0:0:0:0:
256,192,69231,1,0,0:0:0:0:
248,200,69404,1,8,0:0:0:0:
228,208,69576,1,0,0:0:0:0:
268,216,69749,1,0,0:0:0:0:
296,220,69921,1,0,0:0:0:0:
280,168,70094,1,8,0:0:0:0:
264,184,70438,1,0,0:0:0:0:
256,212,70611,1,8,0:0:0:0:
212,160,70783,1,8,0:0:0:0:
296,192,70956,1,8,0:0:0:0:
276,172,71128,1,0,0:0:0:0:
232,204,71300,1,8,0:0:0:0:
248,208,71473,1,8,0:0:0:0:
292,224,71645,1,8,0:0:0:0:
268,192,71818,1,4,0:0:0:0:
272,244,71990,1,0,0:0:0:0:
272,232,72162,1,8,0:0:0:0:
240,192,72507,1,0,0:0:0:0:
276,228,72680,1,0,0:0:0:0:
248,220,72852,1,8,0:0:0:0:
240,224,73025,1,0,0:0:0:0:
256,224,73197,1,0,0:0:0:0:
248,228,73542,1,8,0:0:0:0:
184,232,73714,1,8,0:0:0:0:
224,264,73887,1,0,0:0:0:0:
224,256,74059,1,8,0:0:0:0:
232,176,74231,1,8,0:0:0:0:
248,208,74404,1,8,0:0:0:0:
272,224,74576,1,0,0:0:0:0:
200,220,74921,1,8,0:0:0:0:
272,208,75094,1,0,0:0:0:0:
268,192,75266,1,0,0:0:0:0:
236,240,75438,1,0,0:0:0:0:
224,208,75611,1,8,0:0:0:0:
232,204,75956,1,0,0:0:0:0:
280,240,76300,1,8,0:0:0:0:
252,104,76645,1,8,0:0:0:0:
188,216,76818,1,0,0:0:0:0:
188,232,76990,1,8,0:0:0:0:
180,204,77162,1,8,0:0:0:0:
240,208,77335,1,4,0:0:0:0:
228,236,77507,1,0,0:0:0:0:
248,200,77680,1,8,0:0:0:0:
192,192,78025,1,0,0:0:0:0:
256,248,78197,1,0,0:0:0:0:
224,212,78369,1,8,0:0:0:0:
248,224,78542,1,0,0:0:0:0:
236,188,78714,1,0,0:0:0:0:
184,200,79059,1,8,0:0:0:0:
208,208,79231,1,8,0:0:0:0:
272,208,79404,1,0,0:0:0:0:
240,180,79576,1,8,0:0:0:0:
216,164,79749,1,8,0:0:0:0:
232,192,79921,1,8,0:0:0:0:
104,128,80094,1,0,0:0:0:0:
248,168,80438,1,8,0:0:0:0:
256,160,80611,1,0,0:0:0:0:
184,156,80783,1,0,0:0:0:0:
276,240,80956,1,8,0:0:0:0:
180,136,81128,1,8,0:0:0:0:
284,192,81473,1,0,0:0:0:0:
248,176,81645,1,8,0:0:0:0:
264,212,81818,1,8,0:0:0:0:
288,140,81990,1,8,0:0:0:0:
240,180,82162,1,0,0:0:0:0:
192,164,82335,1,8,0:0:0:0:
240,164,82507,1,8,0:0:0:0:
252,160,82680,1,8,0:0:0:0:
204,108,82852,1,4,0:0:0:0:
200,180,83025,1,0,0:0:0:0:
272,192,83197,1,8,0:0:0:0:
240,160,83542,1,0,0:0:0:0:
248,200,83714,1,0,0:0:0:0:
312,172,83887,1,8,0:0:0:0:
228,196,84059,1,0,0:0:0:0:
272,176,84231,1,0,0:0:0:0:
248,120,84576,1,8,0:0:0:0:
196,140,84749,1,8,0:0:0:0:
248,168,84921,1,0,0:0:0:0:
240,160,85094,1,8,0:0:0:0:
224,116,85266,1,8,0:0:0:0:
288,204,85438,1,8,0:0:0:0:
300,156,85611,1,0,0:0:0:0:
312,196,85956,1,8,0:0:0:0:
320,196,86128,1,0,0:0:0:0:
304,172,86300,1,0,0:0:0:0:
280,136,86473,1,0,0:0:0:0:
312,160,86645,1,8,0:0:0:0:
204,200,86990,1,0,0:0:0:0:
256,152,87162,1,8,0:0:0:0:
264,172,87335,1,8,0:0:0:0:
268,164,87507,1,8,0:0:0:0:
256,156,87680,1,0,0:0:0:0:
312,84,87852,1,0,0:0:0:0:
256,208,88025,1,8,0:0:0:0:
208,136,88197,1,8,0:0:0:0:
212,200,88369,1,4,0:0:0:0:
224,200,88714,1,8,0:0:0:0:
196,196,88887,1,0,0:0:0:0:
232,176,89231,1,0,0:0:0:0:
248,172,89404,1,8,0:0:0:0:
248,168,89576,1,0,0:0:0:0:
204,176,89749,1,0,0:0:0:0:
208,136,89921,1,0,0:0:0:0:
240,184,90094,1,8,0:0:0:0:
244,192,90266,1,0,0:0:0:0:
300,192,90611,1,0,0:0:0:0:
240,184,90783,1,8,0:0:0:0:
196,156,91128,1,0,0:0:0:0:
224,184,91300,1,0,0:0:0:0:
252,152,91473,1,8,0:0:0:0:
252,180,91645,1,0,0:0:0:0:
200,192,91990,1,0,0:0:0:0:
204,164,92162,1,8,0:0:0:0:
224,164,92335,1,8,0:0:0:0:
148,188,92680,1,0,0:0:0:0:
212,148,92852,1,8,0:0:0:0:
212,160,93025,1,8,0:0:0:0:
224,144,93197,1,0,0:0:0:0:
232,176,93369,1,8,0:0:0:0:
224,132,93542,1,8,0:0:0:0:
176,152,93714,1,8,0:0:0:0:
188,156,93887,1,4,0:0:0:0:
228,168,94231,1,8,0:0:0:0:
240,184,94404,1,0,0:0:0:0:
200,148,94749,1,0,0:0:0:0:
248,140,94921,1,8,0:0:0:0:
280,160,95094,1,0,0:0:0:0:
236,152,95266,1,0,0:0:0:0:
252,192,95438,1,0,0:0:0:0:
280,176,95611,1,8,0:0:0:0:
248,180,95783,1,0,0:0:0:0:
168,176,96128,1,0,0:0:0:0:
204,180,96300,1,8,0:0:0:0:
224,184,96645,1,0,0:0:0:0:
272,216,96818,1,0,0:0:0:0:
192,200,96990,1,8,0:0:0:0:
172,192,97162,1,0,0:0:0:0:
204,180,97507,1,0,0:0:0:0:
248,180,97680,1,8,0:0:0:0:
260,160,97852,1,8,0:0:0:0:
216,256,98025,1,0,0:0:0:0:
240,220,98369,1,8,0:0:0:0:
144,204,98714,1,8,0:0:0:0:
160,216,98887,1,0,0:0:0:0:
188,176,99059,1,8,0:0:0:0:
224,216,99231,1,8,0:0:0:0:
128,216,99404,1,4,0:0:0:0:
144,204,99749,1,8,0:0:0:0:
192,200,99921,1,0,0:0:0:0:
212,196,100266,1,0,0:0:0:0:
224,184,100438,1,8,0:0:0:0:
188,176,100611,1,0,0:0:0:0:
188,156,100783,1,0,0:0:0:0:
216,200,100956,1,0,0:0:0:0:
176,184,101128,1,8,0:0:0:0:
224,188,101300,1,0,0:0:0:0:
228,164,101645,1,0,0:0:0:0:
252,168,101818,1,8,0:0:0:0:
164,148,102162,1,0,0:0:0:0:
184,140,102335,1,0,0:0:0:0:
212,176,102507,1,8,0:0:0:0:
252,152,102680,1,8,0:0:0:0:
264,188,103025,1,0,0:0:0:0:
256,164,103197,1,8,0:0:0:0:
240,168,103369,1,8,0:0:0:0:
188,112,103714,1,0,0:0:0:0:
232,160,103887,1,8,0:0:0:0:
244,168,104059,1,8,0:0:0:0:
204,164,104231,1,0,0:0:0:0:
264,196,104404,1,8,0:0:0:0:
252,172,104576,1,8,0:0:0:0:
240,152,104749,1,8,0:0:0:0:
212,200,104921,1,0,0:0:0:0:
224,200,105266,1,8,0:0:0:0:
196,196,105438,1,0,0:0:0:0:
232,176,105783,1,0,0:0:0:0:
248,172,105956,1,8,0:0:0:0:
248,168,106128,1,0,0:0:0:0:
204,176,106300,1,0,0:0:0:0:
208,136,106473,1,0,0:0:0:0:
240,184,106645,1,8,0:0:0:0:
244,192,106818,1,0,0:0:0:0:
300,192,107162,1,0,0:0:0:0:
240,184,107335,1,8,0:0:0:0:
196,156,107680,1,0,0:0:0:0:
224,184,107852,1,0,0:0:0:0:
252,152,108025,1,8,0:0:0:0:
252,180,108197,1,0,0:0:0:0:
200,192,108542,1,0,0:0:0:0:
204,164,108714,1,8,0:0:0:0:
224,164,108887,1,8,0:0:0:0:
148,188,109231,1,0,0:0:0:0:
212,148,109404,1,8,0:0:0:0:
212,160,109576,1,8,0:0:0:0:
224,144,109749,1,0,0:0:0:0:
232,176,109921,1,8,0:0:0:0:
224,132,110094,1,8,0:0:0:0:
176,152,110266,1,8,0:0:0:0:
188,156,110438,1,4,0:0:0:0:
224,176,111128,1,8,0:0:0:0:
224,176,111818,1,0,0:0:0:0:
172,156,112335,1,0,0:0:0:0:
224,176,112507,1,8,0:0:0:0:
264,232,113197,1,0,0:0:0:0:
212,196,113369,1,0,0:0:0:0:
224,192,113542,1,8,0:0:0:0:
220,200,113714,1,0,0:0:0:0:
168,188,114059,1,0,0:0:0:0:
256,188,114231,1,8,0:0:0:0:
120,200,114404,1,0,0:0:0:0:
168,172,114576,1,0,0:0:0:0:
140,192,114921,1,8,0:0:0:0:
212,196,115266,1,0,0:0:0:0:
232,168,115438,1,0,0:0:0:0:
216,188,115611,1,8,0:0:0:0:
248,236,115783,1,0,0:0:0:0:
200,200,115869,1,0,0:0:0:0:
256,188,115956,1,0,0:0:0:0:
256,176,116300,1,8,0:0:0:0:
268,184,116473,1,0,0:0:0:0:
232,192,116818,1,0,0:0:0:0:
256,188,116990,1,8,0:0:0:0:
264,212,117162,1,0,0:0:0:0:
236,208,117335,1,0,0:0:0:0:
272,216,117507,1,0,0:0:0:0:
236,176,117680,1,8,0:0:0:0:
232,184,117852,1,0,0:0:0:0:
184,176,118197,1,0,0:0:0:0:
304,172,118369,1,8,0:0:0:0:
228,176,118714,1,0,0:0:0:0:
280,192,118887,1,0,0:0:0:0:
216,160,119059,1,8,0:0:0:0:
240,148,119231,1,0,0:0:0:0:
216,184,119404,1,0,0:0:0:0:
280,160,119749,1,8,0:0:0:0:
252,164,119921,1,0,0:0:0:0:
340,176,120094,1,0,0:0:0:0:
288,188,120438,1,8,0:0:0:0:
384,156,120783,1,8,0:0:0:0:
256,136,120956,1,0,0:0:0:0:
292,160,121128,1,8,0:0:0:0:
356,168,121300,1,8,0:0:0:0:
127,205,121473,1,0,0:0:0:0:
363,236,121818,1,8,0:0:0:0:
80,183,121990,1,0,0:0:0:0:
52,179,122335,1,0,0:0:0:0:
363,236,122507,1,8,0:0:0:0:
224,176,122680,1,0,0:0:0:0:
127,183,122852,1,0,0:0:0:0:
280,236,123025,1,0,0:0:0:0:
373,273,123197,1,8,0:0:0:0:
288,280,123369,1,0,0:0:0:0:
224,176,123714,1,0,0:0:0:0:
337,236,123887,1,8,0:0:0:0:
264,232,124231,1,0,0:0:0:0:
212,196,124403,1,0,0:0:0:0:
224,192,124576,1,8,0:0:0:0:
220,200,124748,1,0,0:0:0:0:
120,200,125094,1,0,0:0:0:0:
256,188,125265,1,8,0:0:0:0:
140,160,125438,1,0,0:0:0:0:
168,172,125610,1,0,0:0:0:0:
140,192,125955,1,8,0:0:0:0:
212,196,126300,1,0,0:0:0:0:
232,168,126472,1,0,0:0:0:0:
216,188,126645,1,8,0:0:0:0:
248,236,126817,1,0,0:0:0:0:
200,200,126903,1,0,0:0:0:0:
256,188,126990,1,0,0:0:0:0:
256,176,127334,1,8,0:0:0:0:
268,184,127507,1,0,0:0:0:0:
232,192,127852,1,0,0:0:0:0:
256,188,128024,1,8,0:0:0:0:
264,212,128196,1,0,0:0:0:0:
236,208,128369,1,0,0:0:0:0:
272,216,128541,1,0,0:0:0:0:
236,176,128714,1,8,0:0:0:0:
232,184,128886,1,0,0:0:0:0:
184,176,129231,1,0,0:0:0:0:
304,172,129403,1,8,0:0:0:0:
228,176,129748,1,0,0:0:0:0:
280,192,129921,1,0,0:0:0:0:
216,160,130093,1,8,0:0:0:0:
240,148,130265,1,0,0:0:0:0:
136,168,130438,1,0,0:0:0:0:
280,160,130783,1,8,0:0:0:0:
252,164,130955,1,0,0:0:0:0:
340,176,131128,1,0,0:0:0:0:
288,188,131472,1,8,0:0:0:0:
192,168,131645,5,0,0:0:0:0:
384,192,131817,1,0,0:0:0:0:
184,164,131990,1,0,0:0:0:0:
292,160,132162,1,8,0:0:0:0:
356,168,132334,1,8,0:0:0:0:
256,192,132507,12,0,135266,0:0:0:0:
