osu file format v14

[General]
AudioFilename: dr xyu.mp3
AudioLeadIn: 0
PreviewTime: 21474
Countdown: 0
SampleSet: Soft
StackLeniency: 0.7
Mode: 0
LetterboxInBreaks: 1
WidescreenStoryboard: 1

[Editor]
Bookmarks: 11129,22163,33198,44232,55267,60784,66301,77336,88370,99405,110439,121474,132508
DistanceSpacing: 0.9
BeatDivisor: 4
GridSize: 4
TimelineZoom: 2.599999

[Metadata]
Title:Dr. Who! (Smooth Remix)
TitleUnicode:Dr. Who! (Smooth Remix)
Artist:Tujamo & Plastik Funk feat. Sneakbo
ArtistUnicode:Tujamo & Plastik Funk feat. Sneakbo
Creator:Natteke
Version:Extra
Source:
Tags:grime dnb drum and bass trap ticclick zare Aleks719 Zarerion Irreversible
BeatmapID:489533
BeatmapSetID:207806

[Difficulty]
HPDrainRate:7
CircleSize:4
OverallDifficulty:8
ApproachRate:9.2
SliderMultiplier:2
SliderTickRate:1

[Events]
//Background and Video events
0,0,"bg.jpg",0,0
//Break Periods
2,44439,54704
//Storyboard Layer 0 (Background)
//Storyboard Layer 1 (Fail)
//Storyboard Layer 2 (Pass)
//Storyboard Layer 3 (Foreground)
//Storyboard Sound Samples

[TimingPoints]
102,344.827586206897,4,2,1,70,1,0
102,-200,4,2,2,70,0,0
403,-200,4,2,0,70,0,0
489,-200,4,2,2,70,0,0
6739,-200,4,2,2,35,0,0
6998,-200,4,2,2,70,0,0
8119,-200,4,2,2,30,0,0
8334,-200,4,2,2,70,0,0
8550,-200,4,2,2,20,0,0
8679,-200,4,2,2,70,0,0
11438,-200,4,2,0,70,0,0
11524,-200,4,2,2,80,0,0
13636,-200,4,2,2,30,0,0
13852,-200,4,2,2,80,0,0
15015,-200,4,2,2,40,0,0
15231,-200,4,2,2,80,0,0
19239,-200,4,2,2,45,0,0
20015,-200,4,2,0,45,0,0
20705,-200,4,2,0,25,0,0
22084,-142.857142857143,4,2,2,80,0,0
30188,-142.857142857143,4,2,2,45,0,0
30360,-142.857142857143,4,2,2,80,0,0
32860,-100,4,2,0,80,0,0
32946,-100,4,2,0,5,0,0
33162,-100,4,2,0,80,0,0
33636,-100,4,2,2,80,0,0
55188,-100,4,2,2,60,0,0
66308,-100,4,2,1,100,0,1
67946,-100,4,2,1,70,0,1
68981,-100,4,2,1,100,0,1
70533,-100,4,2,1,60,0,1
71739,-100,4,2,1,100,0,1
71826,-83.3333333333333,4,2,1,100,0,1
72170,-100,4,2,1,100,0,1
73550,-100,4,2,1,60,0,1
74498,-100,4,2,1,100,0,1
75877,-83.3333333333333,4,2,1,100,0,1
76610,-83.3333333333333,4,2,0,100,0,1
76696,-83.3333333333333,4,2,1,100,0,1
77257,-100,4,2,1,100,0,0
77343,-100,4,2,1,100,0,1
78981,-100,4,2,1,60,0,1
80102,-100,4,2,1,100,0,1
81567,-100,4,2,1,60,0,1
82774,-100,4,2,1,100,0,1
84412,-100,4,2,1,60,0,1
85619,-100,4,2,1,100,0,0
87084,-100,4,2,1,70,0,0
87257,-100,4,2,1,60,0,0
87429,-100,4,2,1,50,0,0
87602,-100,4,2,1,40,0,0
88291,-100,4,2,1,100,0,0
92084,-100,4,2,1,60,0,0
93808,-100,4,2,1,100,0,0
97602,-100,4,2,1,60,0,0
98033,-100,4,2,1,100,0,0
98679,-100,4,2,0,100,0,0
98765,-100,4,2,1,100,0,0
103119,-100,4,2,1,60,0,0
104843,-100,4,2,1,100,0,0
109843,-100,4,2,1,55,0,0
110015,-100,4,2,1,75,0,0
110188,-100,4,2,1,85,0,0
110360,-200,4,2,1,100,0,0
113119,-100,4,2,1,100,0,0
120762,-100,4,2,0,100,0,0
120820,-100,4,2,1,100,0,0
131998,-100,4,2,1,5,0,0
132127,-100,4,2,1,60,0,0
132429,-100,4,2,1,40,0,0
132602,-100,4,2,1,5,0,0

[Colours]
Combo1 : 17,254,176
Combo2 : 173,255,95
Combo3 : 255,88,100
Combo4 : 255,94,55

[HitObjects]
200,128,102,6,0,L|120:124,1,75,4|0,1:0|0:0,0:0:0:0:
52,64,446,2,0,L|40:120,1,50,6|4,0:0|0:0,0:0:0:0:
272,172,791,2,0,L|384:168,1,100,8|4,0:0|0:0,0:0:0:0:
371,168,1481,6,0,L|375:104,1,50,2|4,0:0|0:0,0:0:0:0:
432,336,1826,2,0,L|436:280,1,50,2|0,0:0|0:0,0:0:0:0:
272,280,2170,2,0,L|216:276,1,50,8|0,0:0|0:0,0:0:0:0:
356,264,2515,1,2,0:0:0:0:
140,312,2860,6,0,P|108:268|119:220,1,100,4|2,0:0|0:0,0:0:0:0:
44,148,3377,1,4,0:0:0:0:
192,140,3550,2,0,L|256:148,1,50,8|0,0:0|0:0,0:0:0:0:
124,20,3895,2,0,L|120:76,1,50,4|0,0:0|0:0,0:0:0:0:
112,208,4239,6,0,P|128:224|138:259,1,50,2|4,0:0|0:0,0:0:0:0:
208,360,4584,2,0,P|230:326|230:301,1,50,2|0,0:0|0:0,0:0:0:0:
324,224,4929,2,0,L|444:228,1,100,8|2,0:0|0:0,0:0:0:0:
423,227,5619,5,4,1:0:0:0:
280,296,5964,2,0,L|276:368,1,50,2|4,0:0|0:0,0:0:0:0:
268,193,6308,2,0,L|280:305,1,100,8|4,0:0|0:0,0:0:0:0:
188,136,6826,1,0,0:0:0:0:
188,136,6912,1,0,0:0:0:0:
188,136,6998,6,0,P|160:133|136:138,1,50,2|4,0:0|0:0,0:0:0:0:
332,104,7343,2,0,P|348:81|356:57,1,50,2|0,0:0|0:0,0:0:0:0:
280,224,7688,2,0,L|296:336,1,100,8|2,0:0|0:0,0:0:0:0:
192,260,8205,1,0,0:0:0:0:
192,260,8291,1,0,0:0:0:0:
192,260,8377,6,0,L|100:256,1,75,4|0,0:0|0:0,0:0:0:0:
56,204,8722,2,0,P|41:241|41:267,1,50,2|4,0:0|0:0,0:0:0:0:
132,176,9067,2,0,L|136:64,1,100,8|4,0:0|0:0,0:0:0:0:
135,76,9757,6,0,P|97:60|52:68,2,75,2|2|2,1:2|0:0|0:0,0:0:0:0:
220,116,10446,2,0,L|316:112,1,75,8|0,0:0|0:0,0:0:0:0:
360,72,10791,1,2,0:0:0:0:
360,72,10964,1,2,0:0:0:0:
408,184,11136,6,0,L|404:278,1,75,4|0,1:0|0:0,0:0:0:0:
448,328,11481,1,6,0:0:0:0:
476,128,11653,1,4,0:0:0:0:
308,172,11826,2,0,L|312:64,1,100,8|4,0:0|0:0,0:0:0:0:
168,68,12515,6,0,L|172:136,1,50,2|4,0:0|0:0,0:0:0:0:
168,316,12860,2,0,L|172:248,1,50,2|0,0:0|0:0,0:0:0:0:
72,32,13205,2,0,L|80:136,1,100,8|2,0:0|0:0,0:0:0:0:
56,320,13722,1,0,0:0:0:0:
56,320,13808,1,0,0:0:0:0:
56,320,13895,6,0,L|60:253,1,50,4|2,0:0|0:0,0:0:0:0:
208,192,14239,2,0,L|140:188,1,50,2|4,0:0|0:0,0:0:0:0:
356,244,14584,2,0,B|309:266|274:252|274:252|293:233,1,100,8|4,0:0|0:0,0:0:0:0:
436,196,15102,1,0,0:0:0:0:
436,196,15188,1,0,0:0:0:0:
436,196,15274,6,0,P|445:156|442:129,1,50,2|4,0:0|0:0,0:0:0:0:
388,328,15619,2,0,P|359:344|335:348,1,50,2|0,0:0|0:0,0:0:0:0:
336,176,15964,2,0,P|341:230|293:258,1,100,8|2,0:0|0:0,0:0:0:0:
308,256,16653,5,4,1:0:0:0:
80,288,16998,2,0,L|144:284,1,50,2|4,0:0|0:0,0:0:0:0:
308,256,17343,1,8,0:0:0:0:
72,296,17688,1,4,0:0:0:0:
320,248,18033,6,0,L|252:264,1,50,2|4,0:0|0:0,0:0:0:0:
472,220,18377,2,0,L|411:242,1,50,2|0,0:0|0:0,0:0:0:0:
264,272,18722,2,0,L|248:160,1,100,8|2,0:0|0:0,0:0:0:0:
38,168,19412,5,2,0:0:0:0:
163,50,19584,1,2,0:0:0:0:
204,216,19757,1,2,0:0:0:0:
71,70,19929,5,2,0:0:0:0:
112,236,20102,1,8,0:0:0:0:
112,236,20188,1,2,0:0:0:0:
112,236,20274,1,2,0:0:0:0:
237,118,20446,1,2,0:0:0:0:
140,144,20619,1,2,0:0:0:0:
190,311,20791,5,8,0:0:0:0:
224,320,20877,1,8,0:0:0:0:
257,328,20964,1,8,0:0:0:0:
404,261,21136,5,8,0:0:0:0:
378,268,21222,1,8,0:0:0:0:
352,274,21308,1,8,0:0:0:0:
200,172,21481,5,8,0:0:0:0:
220,176,21567,1,8,0:0:0:0:
240,181,21653,1,8,0:0:0:0:
384,96,21826,5,8,0:0:0:0:
368,100,21912,1,8,0:0:0:0:
352,104,21998,1,8,0:0:0:0:
152,76,22170,6,0,L|40:64,1,104.999996795654,4|0,0:0|0:0,0:0:0:0:
56,144,22515,1,2,3:0:0:0:
208,248,22688,1,4,0:0:0:0:
232,56,22860,1,8,0:0:0:0:
104,224,23033,1,0,0:0:0:0:
104,224,23119,1,0,0:0:0:0:
104,224,23205,2,0,P|93:264|96:298,1,69.9999978637696,6|0,0:3|0:0,0:0:0:0:
224,360,23550,5,0,0:0:0:0:
340,268,23722,1,4,0:0:0:0:
248,184,23895,1,2,3:0:0:0:
248,184,23981,1,0,0:0:0:0:
248,184,24067,2,0,L|328:176,1,69.9999978637696,0|8,0:0|0:0,0:0:0:0:
64,132,24412,1,0,0:0:0:0:
156,184,24584,2,0,L|152:260,1,69.9999978637696,2|4,3:0|0:0,0:0:0:0:
140,56,24929,6,0,B|147:81|129:110|129:110|169:94|211:126,1,139.999995727539,4|2,0:0|3:0,0:0:0:0:
248,184,25360,1,0,0:0:0:0:
248,184,25446,2,0,L|300:184,1,34.9999989318848,4|0,0:0|0:0,0:0:0:0:
344,128,25619,2,0,P|367:181|355:222,1,69.9999978637696,8|0,0:0|0:0,0:0:0:0:
452,264,25964,2,0,L|340:272,1,104.999996795654,6|0,3:0|0:0,0:0:0:0:
280,316,26308,6,0,P|240:320|196:312,1,69.9999978637696,0|4,0:0|0:0,0:0:0:0:
144,280,26567,1,0,0:0:0:0:
144,280,26653,2,0,L|140:208,1,69.9999978637696,2|0,3:0|0:0,0:0:0:0:
100,76,26998,2,0,B|108:104|108:136|108:136|144:120|192:148,1,139.999995727539,8|2,0:0|3:0,0:0:0:0:
400,160,27688,6,0,L|396:240,1,69.9999978637696,4|0,1:0|0:0,0:0:0:0:
440,296,27946,1,0,0:0:0:0:
440,296,28033,1,2,3:0:0:0:
304,248,28205,1,4,0:0:0:0:
304,248,28291,1,0,0:0:0:0:
304,248,28377,2,0,P|260:256|219:237,1,69.9999978637696,8|2,0:0|0:0,0:0:0:0:
264,180,28636,2,0,P|241:176|216:180,1,34.9999989318848,2|6,0:0|3:0,0:0:0:0:
72,272,29067,5,0,0:0:0:0:
156,328,29239,1,4,0:0:0:0:
160,224,29412,1,2,3:0:0:0:
133,201,29498,1,0,0:0:0:0:
122,167,29584,1,2,0:0:0:0:
130,133,29670,1,0,0:0:0:0:
158,112,29757,1,8,0:0:0:0:
248,40,29929,1,0,0:0:0:0:
248,40,30015,1,0,0:0:0:0:
248,40,30102,2,0,L|332:44,1,69.9999978637696,2|2,3:0|1:0,0:0:0:0:
392,112,30446,5,4,0:0:0:0:
336,288,30619,1,2,0:0:0:0:
512,244,30791,1,2,3:0:0:0:
308,184,30964,2,0,L|230:175,1,69.9999978637696,4|8,0:0|0:0,0:0:0:0:
44,144,31308,2,0,L|88:152,1,34.9999989318848
144,188,31481,2,0,L|136:284,1,69.9999978637696,6|2,3:0|0:0,0:0:0:0:
88,340,31826,5,4,0:0:0:0:
152,176,31998,1,2,0:0:0:0:
272,312,32170,1,2,3:0:0:0:
64,240,32343,1,2,0:0:0:0:
176,356,32515,2,0,L|201:244,1,104.999996795654,8|0,0:0|0:0,0:0:0:0:
264,184,32860,2,0,P|341:173|390:242,1,150,6|0,0:0|0:0,0:0:0:0:
424,312,33205,5,4,1:0:0:0:
408,128,33377,1,0,0:0:0:0:
412,100,33464,1,0,0:0:0:0:
416,72,33550,1,4,0:0:0:0:
312,256,33722,2,0,L|196:248,1,100,4|8,0:0|0:0,0:0:0:0:
64,208,34067,1,2,0:0:0:0:
64,208,34153,1,2,0:0:0:0:
64,208,34239,1,2,3:0:0:0:
156,84,34412,2,0,L|150:192,1,100,2|2,0:0|0:0,0:0:0:0:
52,120,34757,5,4,0:0:0:0:
264,140,34929,1,2,3:0:0:0:
144,280,35102,1,0,0:0:0:0:
168,64,35274,2,0,L|321:61,1,150,8|0,0:0|0:0,0:0:0:0:
388,24,35619,2,0,P|429:67|420:164,1,150,2|0,3:0|0:0,0:0:0:0:
352,168,35964,5,4,0:0:0:0:
460,312,36136,1,0,0:0:0:0:
464,300,36222,1,0,0:0:0:0:
468,288,36308,1,2,3:0:0:0:
300,316,36481,1,4,0:0:0:0:
464,200,36653,2,0,P|416:216|386:264,1,100,8|0,0:0|0:0,0:0:0:0:
328,136,36998,1,6,3:0:0:0:
224,56,37170,1,2,0:0:0:0:
208,55,37257,1,0,0:0:0:0:
193,54,37343,5,2,0:0:0:0:
178,53,37429,1,0,0:0:0:0:
163,51,37515,2,0,P|148:80|148:112,1,50,4|0,0:0|0:0,0:0:0:0:
256,192,37688,2,0,P|238:164|210:148,1,50,2|0,3:0|0:0,0:0:0:0:
88,204,37860,2,0,P|120:202|148:186,1,50,2|0,0:0|0:0,0:0:0:0:
204,268,38033,2,0,L|216:324,1,50,8|0,0:0|0:0,0:0:0:0:
304,292,38205,2,0,L|316:352,1,50
400,288,38377,2,0,L|373:131,1,150,2|0,3:0|0:0,0:0:0:0:
416,76,38722,5,4,0:0:0:0:
292,184,38895,1,0,0:0:0:0:
472,228,39067,1,2,3:0:0:0:
312,92,39239,2,0,L|200:88,1,100,4|8,0:0|0:0,0:0:0:0:
56,96,39584,1,2,0:0:0:0:
56,96,39670,1,2,0:0:0:0:
56,96,39757,2,0,L|145:99,1,50,6|0,0:3|0:0,0:0:0:0:
180,188,39929,2,0,L|112:186,1,50,2|0,0:0|0:0,0:0:0:0:
48,256,40102,5,2,0:0:0:0:
61,298,40188,1,0,0:0:0:0:
101,317,40274,1,4,0:0:0:0:
145,318,40360,1,0,0:0:0:0:
186,302,40446,1,2,3:0:0:0:
312,344,40619,1,2,0:0:0:0:
312,344,40705,1,0,0:0:0:0:
312,344,40791,2,0,P|318:323|320:280,1,50,8|0,0:0|0:0,0:0:0:0:
280,208,40964,2,0,P|259:193|242:175,1,50,2|0,0:0|0:0,0:0:0:0:
376,208,41136,2,0,P|420:188|484:184,1,100,2|0,3:0|0:0,0:0:0:0:
324,284,41481,6,0,L|160:268,1,150,4|0,0:0|0:0,0:0:0:0:
120,216,41826,1,2,3:0:0:0:
208,352,41998,1,4,0:0:0:0:
208,352,42084,1,0,0:0:0:0:
208,352,42170,1,8,0:0:0:0:
280,208,42343,1,0,0:0:0:0:
136,304,42515,2,0,L|28:297,1,100,6|2,3:0|0:0,0:0:0:0:
24,224,42774,1,0,0:0:0:0:
24,224,42860,5,2,0:0:0:0:
36,44,43033,1,4,0:0:0:0:
20,232,43205,1,2,3:0:0:0:
16,240,43550,6,0,L|182:238,1,150,8|0,0:0|0:0,0:0:0:0:
232,196,43895,1,2,0:0:0:0:
120,320,44067,1,2,0:0:0:0:
80,164,44239,5,4,1:0:0:0:
92,280,55274,5,4,0:0:0:0:
152,160,55446,1,0,0:0:0:0:
152,160,55533,1,0,0:0:0:0:
152,160,55619,2,0,P|116:160|96:152,1,50,4|0,0:0|0:0,0:0:0:0:
120,64,55791,1,0,0:0:0:0:
120,64,55877,1,0,0:0:0:0:
120,64,55964,2,0,P|156:64|176:72,1,50,4|0,0:0|0:0,0:0:0:0:
248,132,56136,1,0,0:0:0:0:
248,132,56222,1,0,0:0:0:0:
248,132,56308,2,0,L|244:200,1,50,4|0,0:0|0:0,0:0:0:0:
304,288,56481,1,0,0:0:0:0:
304,288,56567,1,0,0:0:0:0:
304,288,56653,6,0,L|308:220,1,50,4|0,0:0|0:0,0:0:0:0:
336,160,56826,1,0,0:0:0:0:
336,160,56912,1,0,0:0:0:0:
336,160,56998,2,0,P|366:157|400:165,1,50,4|0,0:0|0:0,0:0:0:0:
472,232,57170,1,0,0:0:0:0:
472,232,57257,1,0,0:0:0:0:
472,232,57343,2,0,P|442:235|408:227,1,50,4|0,0:0|0:0,0:0:0:0:
468,148,57515,1,0,0:0:0:0:
468,148,57602,1,0,0:0:0:0:
468,148,57688,2,0,P|465:118|473:84,1,50,4|0,0:0|0:0,0:0:0:0:
412,32,57860,1,0,0:0:0:0:
412,32,57946,1,0,0:0:0:0:
412,32,58033,5,4,0:0:0:0:
216,152,58205,1,0,0:0:0:0:
204,136,58291,1,0,0:0:0:0:
192,120,58377,1,4,0:0:0:0:
310,177,58550,1,0,0:0:0:0:
330,174,58636,1,0,0:0:0:0:
350,172,58722,1,4,0:0:0:0:
241,246,58895,1,0,0:0:0:0:
233,265,58981,1,0,0:0:0:0:
225,283,59067,1,4,0:0:0:0:
320,256,59239,5,0,0:0:0:0:
339,282,59326,1,0,0:0:0:0:
359,307,59412,1,4,0:0:0:0:
168,215,59584,1,0,0:0:0:0:
136,219,59670,1,0,0:0:0:0:
104,223,59757,1,4,0:0:0:0:
279,104,59929,1,0,0:0:0:0:
292,74,60015,1,0,0:0:0:0:
304,44,60102,1,4,0:0:0:0:
256,188,60274,1,0,0:0:0:0:
256,188,60360,1,0,0:0:0:0:
256,188,60446,1,4,0:0:0:0:
64,56,60619,5,0,0:0:0:0:
64,56,60705,1,0,0:0:0:0:
64,56,60791,2,0,P|85:75|93:98,1,50,4|0,0:0|0:0,0:0:0:0:
32,232,60964,2,0,P|51:211|74:203,1,50,4|0,0:0|0:0,0:0:0:0:
216,192,61136,2,0,P|195:173|187:150,1,50,4|0,0:0|0:0,0:0:0:0:
244,60,61308,2,0,L|320:56,1,50,4|0,0:0|0:0,0:0:0:0:
448,104,61481,6,0,L|380:112,1,50,4|0,0:0|0:0,0:0:0:0:
256,188,61653,2,0,L|328:200,1,50,4|4,0:0|0:0,0:0:0:0:
472,228,61826,2,0,L|404:236,1,50,4|0,0:0|0:0,0:0:0:0:
280,312,61998,2,0,L|352:324,1,50,4|0,0:0|0:0,0:0:0:0:
152,272,62170,6,0,P|168:289|180:325,1,50,4|0,0:0|0:0,0:0:0:0:
48,188,62343,2,0,P|57:165|74:146,1,50,4|0,0:0|0:0,0:0:0:0:
184,64,62515,2,0,P|168:47|156:11,1,50,4|0,0:0|0:0,0:0:0:0:
288,148,62688,2,0,P|278:170|261:189,1,50,4|0,0:0|0:0,0:0:0:0:
352,48,62860,6,0,P|375:45|409:51,1,50,4|0,0:0|0:0,0:0:0:0:
404,164,63033,2,0,P|379:167|354:164,1,50,4|4,0:0|0:0,0:0:0:0:
472,108,63205,2,0,P|488:134|487:168,1,50,4|0,0:0|0:0,0:0:0:0:
276,100,63377,2,0,P|260:74|261:40,1,50,4|0,0:0|0:0,0:0:0:0:
174,32,63550,5,4,0:0:0:0:
142,58,63636,1,4,0:0:0:0:
126,97,63722,1,4,0:0:0:0:
130,138,63808,1,4,0:0:0:0:
152,173,63895,1,4,0:0:0:0:
188,194,63981,1,4,0:0:0:0:
230,196,64067,1,4,0:0:0:0:
267,178,64153,1,4,0:0:0:0:
292,144,64239,5,4,0:0:0:0:
329,126,64326,1,4,0:0:0:0:
371,128,64412,1,4,0:0:0:0:
407,149,64498,1,4,0:0:0:0:
429,184,64584,1,4,0:0:0:0:
433,225,64670,1,4,0:0:0:0:
417,264,64757,1,4,0:0:0:0:
385,290,64843,1,4,0:0:0:0:
343,296,64929,5,4,0:0:0:0:
420,60,65619,6,0,L|251:56,1,150,2|0,0:0|0:0,0:0:0:0:
192,32,65964,2,0,L|184:96,1,50,8|0,3:0|0:0,0:0:0:0:
244,192,66136,2,0,L|256:128,1,50,4|0,3:0|0:0,0:0:0:0:
128,136,66308,6,0,P|71:176|87:267,1,150,4|0,1:0|0:0,0:0:0:0:
160,216,66653,2,0,L|264:224,1,100,8|0,0:0|0:0,0:0:0:0:
408,352,66998,1,2,0:0:0:0:
448,172,67170,1,4,0:0:0:0:
236,232,67343,2,0,L|124:236,1,100,8|0,0:0|0:0,0:0:0:0:
60,268,67602,1,0,0:0:0:0:
60,268,67688,5,4,0:0:0:0:
88,88,67860,1,2,0:0:0:0:
64,272,68033,2,0,L|56:336,1,50,2|0,1:0|0:0,0:0:0:0:
144,248,68205,2,0,B|188:251|188:251|228:268|228:268|304:272,1,150,2|0,1:0|0:0,0:0:0:0:
376,308,68550,2,0,L|380:244,1,50,2|0,1:0|0:0,0:0:0:0:
456,148,68722,2,0,L|452:220,1,50,2|0,1:0|0:0,0:0:0:0:
488,328,68895,1,2,1:0:0:0:
488,328,69067,5,4,1:0:0:0:
348,116,69412,2,0,B|307:129|264:112|264:112|290:82|271:40,1,150,8|0,0:0|0:0,0:0:0:0:
208,28,69757,1,2,0:0:0:0:
392,48,69929,1,4,0:0:0:0:
272,196,70102,1,8,0:0:0:0:
304,20,70274,1,2,0:0:0:0:
92,120,70446,6,0,P|136:135|195:124,1,100,4|2,0:0|1:0,0:0:0:0:
404,136,70791,1,2,1:0:0:0:
204,196,70964,2,0,P|132:208|48:174,1,150,2|0,1:0|0:0,0:0:0:0:
32,280,71308,2,0,L|88:278,1,50,2|0,1:0|0:0,0:0:0:0:
184,296,71481,2,0,L|180:356,1,50,2|0,1:0|0:0,0:0:0:0:
284,300,71653,2,0,L|364:300,1,50,2|0,1:0|0:0,0:0:0:0:
440,308,71826,6,0,B|471:259|458:225|458:225|408:244|348:216,1,179.999994506836,4|0,1:0|0:0,0:0:0:0:
304,172,72170,1,8,0:0:0:0:
480,96,72343,2,0,L|364:92,1,100,0|2,0:0|0:0,0:0:0:0:
208,200,72688,1,4,0:0:0:0:
212,24,72860,1,8,0:0:0:0:
304,172,73033,1,2,0:0:0:0:
140,64,73205,6,0,B|88:80|48:52|48:52|61:121,1,150,4|0,0:0|0:0,0:0:0:0:
104,168,73550,2,0,P|73:181|42:176,1,50,2|0,1:0|0:0,0:0:0:0:
176,144,73722,2,0,P|259:146|268:63,1,150,2|0,1:0|0:0,0:0:0:0:
296,20,74067,1,2,1:0:0:0:
360,236,74239,1,2,1:0:0:0:
124,116,74412,1,2,1:0:0:0:
416,144,74584,6,0,L|256:128,1,150,4|0,1:0|0:0,0:0:0:0:
208,76,74929,1,8,0:0:0:0:
152,272,75102,1,2,0:0:0:0:
148,280,75188,1,0,0:0:0:0:
144,288,75274,1,2,0:0:0:0:
360,236,75446,1,4,0:0:0:0:
124,160,75619,1,8,0:0:0:0:
172,368,75791,1,2,0:0:0:0:
272,192,75964,6,0,L|464:202,1,179.999994506836,4|0,0:0|0:0,0:0:0:0:
208,116,76308,2,12,L|16:106,1,179.999994506836,4|4,0:0|0:0,0:0:0:0:
48,184,76653,1,4,0:0:0:0:
284,92,76826,2,0,L|288:12,2,59.9999981689454,2|4|8,0:0|0:0|0:0,0:0:0:0:
252,296,77170,1,2,0:0:0:0:
304,108,77343,6,0,L|459:114,1,150,4|0,1:0|0:0,0:0:0:0:
504,56,77688,1,8,0:0:0:0:
412,248,77860,1,2,0:0:0:0:
412,248,77946,1,0,0:0:0:0:
412,248,78033,2,0,L|408:352,1,100,2|4,0:0|0:0,0:0:0:0:
504,184,78377,1,8,0:0:0:0:
308,220,78550,1,2,0:0:0:0:
416,360,78722,6,0,L|298:346,1,100,4|2,0:0|0:0,0:0:0:0:
76,336,79067,2,0,L|148:344,1,50,2|0,1:0|0:0,0:0:0:0:
32,244,79239,2,0,L|188:264,1,150,2|0,1:0|0:0,0:0:0:0:
240,192,79584,2,0,P|210:177|180:174,1,50,2|0,1:0|0:0,0:0:0:0:
256,320,79757,2,0,P|280:314|301:302,1,50,2|0,1:0|0:0,0:0:0:0:
356,184,79929,2,0,P|358:210|369:240,1,50,2|0,1:0|0:0,0:0:0:0:
432,336,80102,6,0,L|440:180,1,150,4|0,1:0|0:0,0:0:0:0:
400,112,80446,1,8,0:0:0:0:
512,216,80619,1,2,0:0:0:0:
348,272,80791,1,2,0:0:0:0:
496,124,80964,1,4,0:0:0:0:
328,184,81136,2,0,L|220:176,1,100,8|2,0:0|0:0,0:0:0:0:
120,168,81481,5,4,0:0:0:0:
272,76,81653,1,2,1:0:0:0:
264,280,81826,1,2,1:0:0:0:
172,80,81998,2,0,P|212:140|191:228,1,150,2|0,1:0|0:0,0:0:0:0:
120,252,82343,2,0,L|52:260,1,50,2|0,1:0|0:0,0:0:0:0:
272,288,82515,2,0,L|321:282,1,50,2|0,1:0|0:0,0:0:0:0:
164,344,82688,1,2,1:0:0:0:
316,196,82860,6,0,L|468:176,1,150,4|0,1:0|0:0,0:0:0:0:
496,96,83205,2,0,P|440:88|392:116,1,100,8|0,0:0|0:0,0:0:0:0:
336,288,83550,1,2,0:0:0:0:
228,140,83722,1,4,0:0:0:0:
452,204,83895,2,0,L|340:197,1,100,8|2,0:0|0:0,0:0:0:0:
420,124,84239,6,0,B|344:120|344:120|304:136|304:136|216:132,1,200,4|2,0:0|1:0,0:0:0:0:
16,184,84757,2,0,L|166:191,1,150,2|0,1:0|0:0,0:0:0:0:
220,260,85102,1,2,1:0:0:0:
152,88,85274,1,2,1:0:0:0:
48,256,85446,1,2,1:0:0:0:
240,148,85619,6,0,L|348:140,1,100,4|0,1:0|0:0,0:0:0:0:
28,176,85964,2,0,L|128:168,1,100,8|2,0:0|0:0,0:0:0:0:
180,96,86222,1,0,0:0:0:0:
180,96,86308,6,0,L|188:252,1,150,4|0,0:0|0:0,0:0:0:0:
140,312,86653,1,8,0:0:0:0:
300,192,86826,1,2,0:0:0:0:
96,140,86998,5,2,0:0:0:0:
92,144,87170,1,2,0:0:0:0:
236,140,87343,1,2,0:0:0:0:
240,148,87515,1,2,0:0:0:0:
320,48,87688,1,2,0:0:0:0:
328,52,87774,1,2,0:0:0:0:
336,56,87860,1,2,0:0:0:0:
232,56,88033,1,2,0:0:0:0:
436,24,88205,1,2,0:0:0:0:
368,192,88377,6,0,L|356:354,1,150,4|0,1:0|0:0,0:0:0:0:
436,344,88722,2,0,B|451:297|451:297|437:243,1,100,8|0,0:0|0:0,0:0:0:0:
284,248,89067,2,0,B|269:295|269:295|281:344,1,100,2|4,0:0|0:0,0:0:0:0:
360,240,89412,2,0,L|352:84,1,150,8|0,0:0|0:0,0:0:0:0:
300,28,89757,5,4,0:0:0:0:
444,112,89929,1,2,0:0:0:0:
276,164,90102,1,8,0:0:0:0:
276,164,90274,2,0,L|64:160,1,200,2|4,0:0|0:0,0:0:0:0:
80,68,90791,1,8,0:0:0:0:
148,256,90964,1,2,0:0:0:0:
228,88,91136,5,4,0:0:0:0:
408,56,91308,2,0,L|305:50,1,100,0|8,0:0|0:0,0:0:0:0:
440,168,91653,1,0,0:0:0:0:
268,216,91826,2,0,L|367:210,1,100,2|4,0:0|0:0,0:0:0:0:
464,292,92170,2,0,P|468:319|468:359,1,50,2|0,1:0|0:0,0:0:0:0:
372,316,92343,2,0,L|228:320,1,100,2|4,1:0|0:0,0:0:0:0:
56,344,92688,5,2,0:0:0:0:
120,292,92860,2,0,P|144:284|168:285,1,50,2|0,1:0|0:0,0:0:0:0:
252,268,93033,2,0,B|216:200|216:200|236:128,1,150,2|0,1:0|0:0,0:0:0:0:
252,48,93377,1,2,1:0:0:0:
324,208,93550,1,2,1:0:0:0:
128,176,93722,1,2,1:0:0:0:
352,104,93895,6,0,P|404:100|448:124,1,100,4|0,1:0|0:0,0:0:0:0:
404,304,94239,2,0,P|352:308|308:284,1,100,8|0,0:0|0:0,0:0:0:0:
380,208,94584,1,2,0:0:0:0:
472,352,94757,1,4,0:0:0:0:
284,356,94929,2,0,P|239:333|190:338,1,100,8|2,0:0|0:0,0:0:0:0:
24,296,95274,6,0,P|100:308|151:240,1,150,4|0,0:0|0:0,0:0:0:0:
172,184,95619,1,8,0:0:0:0:
96,100,95791,1,2,0:0:0:0:
100,92,95877,1,0,0:0:0:0:
104,84,95964,1,2,0:0:0:0:
196,40,96136,2,0,L|252:44,1,50,4|0,0:0|0:0,0:0:0:0:
332,84,96308,2,0,L|381:80,1,50,8|0,0:0|0:0,0:0:0:0:
448,32,96481,1,2,0:0:0:0:
448,32,96653,5,4,0:0:0:0:
448,32,96998,2,0,L|444:136,1,100,8|0,0:0|0:0,0:0:0:0:
448,336,97343,2,0,L|444:236,1,100,2|4,0:0|0:0,0:0:0:0:
312,132,97688,2,0,L|368:144,1,50,2|0,1:0|0:0,0:0:0:0:
364,220,97860,2,0,L|308:232,1,50,2|0,1:0|0:0,0:0:0:0:
228,188,98033,6,0,L|68:184,1,150,4|0,1:0|0:0,0:0:0:0:
76,276,98377,2,0,L|236:272,1,150,8|4,0:0|0:0,0:0:0:0:
272,336,98722,1,4,0:2:0:0:
268,116,98895,2,0,L|264:60,2,50,2|0|8,0:0|0:0|0:0,0:0:0:0:
448,216,99239,1,2,0:0:0:0:
304,224,99412,6,0,L|146:216,1,150,4|0,1:0|0:0,0:0:0:0:
88,164,99757,1,8,0:0:0:0:
204,340,99929,1,2,0:0:0:0:
204,340,100015,1,0,0:0:0:0:
204,340,100102,1,2,0:0:0:0:
264,144,100274,1,4,0:0:0:0:
104,280,100446,2,0,L|4:268,1,100,8|2,0:0|0:0,0:0:0:0:
192,232,100791,5,4,0:0:0:0:
192,232,100964,2,0,L|300:244,1,100,0|8,0:0|0:0,0:0:0:0:
372,184,101308,2,0,P|399:247|369:333,1,150,2|0,0:0|0:0,0:0:0:0:
308,352,101653,1,4,0:0:0:0:
480,284,101826,1,8,0:0:0:0:
304,232,101998,1,2,0:0:0:0:
476,184,102170,6,0,L|480:84,2,100,4|2|8,0:0|0:0|0:0,0:0:0:0:
400,360,102688,1,2,0:0:0:0:
304,232,102860,2,0,P|225:207|165:250,1,150,2|0,0:0|0:0,0:0:0:0:
132,304,103205,1,2,1:0:0:0:
212,128,103377,1,2,1:0:0:0:
352,292,103550,6,0,L|466:285,1,100,4|0,0:0|0:0,0:0:0:0:
268,344,103895,2,0,L|208:348,1,50,2|0,1:0|0:0,0:0:0:0:
132,304,104067,2,0,P|96:248|140:168,1,150,2|0,1:0|0:0,0:0:0:0:
180,232,104412,1,2,1:0:0:0:
192,56,104584,1,2,1:0:0:0:
184,240,104757,1,2,1:0:0:0:
200,48,104929,6,0,L|360:48,1,150,4|0,1:0|0:0,0:0:0:0:
424,24,105274,1,8,0:0:0:0:
432,248,105446,1,2,0:0:0:0:
432,248,105533,1,0,0:0:0:0:
432,248,105619,1,2,0:0:0:0:
484,96,105791,1,4,0:0:0:0:
380,172,105964,2,0,L|272:168,1,100,8|0,0:0|0:0,0:0:0:0:
52,168,106308,5,4,0:0:0:0:
116,232,106481,1,2,0:0:0:0:
136,324,106653,1,8,0:0:0:0:
136,144,106826,1,2,0:0:0:0:
204,264,106998,1,2,0:0:0:0:
168,64,107170,1,4,0:0:0:0:
286,272,107343,1,8,0:0:0:0:
256,72,107515,1,2,0:0:0:0:
324,192,107688,6,0,B|376:188|401:155|401:155|368:108|367:44,1,200,4|8,0:0|0:0,0:0:0:0:
460,224,108205,1,0,0:0:0:0:
276,128,108377,2,0,L|92:120,1,150,4|0,0:0|0:0,0:0:0:0:
60,80,108722,1,10,0:0:0:0:
60,80,108895,1,2,0:0:0:0:
56,284,109067,5,4,0:0:0:0:
148,336,109239,1,0,0:0:0:0:
149,312,109326,1,0,0:0:0:0:
151,288,109412,1,10,0:0:0:0:
232,244,109584,2,0,B|303:246|303:246|340:232|340:232|432:235,1,200,2|2,0:0|0:0,0:0:0:0:
296,160,110102,1,2,0:0:0:0:
288,336,110274,1,2,0:0:0:0:
296,160,110446,6,0,B|328:120|305:84|305:84|236:112|172:72,1,200,4|10,1:0|0:2,0:0:0:0:
92,80,111308,1,2,0:0:0:0:
92,80,111395,1,2,0:0:0:0:
92,80,111481,2,0,L|96:24,1,50,2|2,0:0|0:0,0:0:0:0:
152,152,111826,2,0,L|148:260,1,100,2|2,0:0|0:0,0:0:0:0:
88,336,112343,1,4,0:0:0:0:
252,224,112515,2,0,P|287:249|356:232,1,100,8|4,0:0|3:0,0:0:0:0:
312,168,113033,1,4,0:0:0:0:
420,324,113205,5,4,1:0:0:0:
392,160,113377,2,0,L|396:104,2,50,2|2|8,0:0|0:0|0:0,0:0:0:0:
312,312,113722,1,2,0:0:0:0:
312,312,113808,1,0,0:0:0:0:
312,312,113895,2,0,L|200:308,1,100,2|4,0:0|0:0,0:0:0:0:
124,272,114239,2,0,L|120:328,1,50,8|0,0:0|0:0,0:0:0:0:
40,272,114412,2,0,L|44:212,1,50,2|0,0:0|0:0,0:0:0:0:
120,192,114584,6,0,L|280:200,1,150,4|0,0:0|0:0,0:0:0:0:
336,156,114929,1,8,0:0:0:0:
112,88,115102,2,0,L|60:84,2,50,2|2|2,0:0|0:0|0:0,0:0:0:0:
36,168,115446,1,4,0:0:0:0:
196,36,115619,2,0,L|296:40,1,100,8|2,0:0|0:0,0:0:0:0:
424,44,115964,6,0,P|463:100|410:211,1,200,4|8,0:0|0:0,0:0:0:0:
328,152,116481,1,2,0:0:0:0:
328,152,116567,1,2,0:0:0:0:
328,152,116653,2,0,L|220:144,1,100,2|4,0:0|0:0,0:0:0:0:
40,128,116998,2,0,L|100:132,1,50,8|0,0:0|0:0,0:0:0:0:
152,204,117170,2,0,L|148:260,1,50,2|0,0:0|0:0,0:0:0:0:
96,316,117343,5,4,0:0:0:0:
264,248,117515,1,2,0:0:0:0:
264,248,117602,1,0,0:0:0:0:
264,248,117688,2,0,L|368:270,1,100,8|0,0:0|0:0,0:0:0:0:
424,348,118033,1,2,0:0:0:0:
364,176,118205,1,4,0:0:0:0:
292,352,118377,1,8,0:0:0:0:
456,244,118550,1,2,0:0:0:0:
264,248,118722,6,0,L|272:80,1,150,4|0,0:0|0:0,0:0:0:0:
328,36,119067,1,8,0:0:0:0:
180,120,119239,1,2,0:0:0:0:
364,176,119412,1,2,0:0:0:0:
220,32,119584,1,4,0:0:0:0:
180,120,119757,2,0,L|72:112,1,100,8|0,0:0|0:0,0:0:0:0:
0,224,120102,6,0,L|176:236,1,150,4|0,0:0|0:0,0:0:0:0:
416,288,120446,2,0,L|240:276,1,150,8|4,0:0|0:0,0:0:0:0:
220,340,120791,2,0,P|191:270|236:200,1,150,4|4,0:0|0:0,0:0:0:0:
304,204,121136,1,8,0:0:0:0:
316,32,121308,1,4,3:0:0:0:
312,216,121481,6,0,B|347:174|342:125|342:125|288:140|236:120,1,200,4|8,1:0|0:0,0:0:0:0:
84,120,121998,1,2,0:0:0:0:
84,120,122084,1,0,0:0:0:0:
84,120,122170,2,0,P|60:72|86:17,1,100,2|4,0:0|0:0,0:0:0:0:
160,232,122515,2,0,P|172:279|148:321,1,100,8|2,0:0|0:0,0:0:0:0:
88,188,122860,6,0,L|272:196,1,150,4|0,0:0|0:0,0:0:0:0:
312,180,123205,1,8,0:0:0:0:
188,296,123377,2,0,L|184:356,2,50,2|0|2,0:0|0:0|0:0,0:0:0:0:
164,104,123722,1,4,0:0:0:0:
292,288,123895,2,0,L|392:284,1,100,8|0,0:0|0:0,0:0:0:0:
464,352,124239,6,0,P|493:299|457:199,1,150,4|0,0:0|0:0,0:0:0:0:
392,200,124584,1,8,0:0:0:0:
356,32,124757,1,2,0:0:0:0:
356,32,124843,1,0,0:0:0:0:
356,32,124929,2,0,L|460:28,1,100,2|4,0:0|0:0,0:0:0:0:
492,136,125274,1,8,0:0:0:0:
316,124,125446,1,2,0:0:0:0:
392,200,125619,6,0,P|424:249|414:296,1,100,4|2,0:0|0:0,0:0:0:0:
232,344,125964,2,0,P|200:295|210:248,1,100,8|0,0:0|0:0,0:0:0:0:
312,268,126308,1,2,0:0:0:0:
312,268,126395,1,0,0:0:0:0:
312,268,126481,1,4,0:0:0:0:
112,276,126653,1,8,0:0:0:0:
216,124,126826,1,2,0:0:0:0:
232,344,126998,6,0,L|200:192,1,150,4|0,0:0|0:0,0:0:0:0:
144,148,127343,1,8,0:0:0:0:
288,56,127515,2,0,L|352:48,2,50,2|2|2,0:0|0:0|0:0,0:0:0:0:
120,44,127860,1,0,0:0:0:0:
312,152,128033,2,0,L|428:144,1,100,8|2,0:0|0:0,0:0:0:0:
144,148,128377,5,4,0:0:0:0:
120,352,128550,1,2,0:0:0:0:
160,132,128722,2,0,L|48:128,1,100,8|0,0:0|0:0,0:0:0:0:
28,248,129067,2,0,L|24:312,2,50,2|0|4,0:0|0:0|0:0,0:0:0:0:
160,240,129412,2,0,L|268:244,1,100,8|2,0:0|0:0,0:0:0:0:
368,184,129757,6,0,B|400:132|366:90|366:90|316:112|244:72,1,200,4|8,0:0|0:0,0:0:0:0:
164,48,130274,1,0,0:0:0:0:
328,20,130446,1,2,0:0:0:0:
256,188,130619,1,4,0:0:0:0:
246,35,130791,2,0,P|234:108|120:120,1,200,8|4,0:0|0:0,0:0:0:0:
40,40,131308,5,2,0:0:0:0:
40,40,131395,1,0,0:0:0:0:
40,40,131481,1,8,0:0:0:0:
84,212,131653,1,2,0:0:0:0:
164,48,131826,6,0,L|320:40,1,150,2|0,0:0|0:0,0:0:0:0:
420,28,132170,2,0,L|412:136,1,100,2|2,0:0|0:0,0:0:0:0:
464,204,132515,5,4,1:0:0:0:
256,192,132602,12,0,135274,0:0:0:0:
