osu file format v6

[General]
AudioFilename: My brother is in the GuangDian.mp3
AudioLeadIn: 0
PreviewTime: -1
Countdown: 1
SampleSet: Soft
StackLeniency: 0.7
Mode: 0
LetterboxInBreaks: 1

[Editor]
DistanceSpacing: 0.800000011920929
BeatDivisor: 1
GridSize: 32

[Metadata]
Title:Wo ge zai guang dian
Artist:TuTuWan
Creator:SOSUKE
Version:Hard
Source:
Tags:

[Difficulty]
HPDrainRate:5
CircleSize:5
OverallDifficulty:5
SliderMultiplier:0.8
SliderTickRate:1

[Events]
//Background and Video events
0,0,"我哥在光淀.jpg"
//Break Periods
2,36080,38580
2,55639,58080
2,87260,89880
2,95240,96060
2,116420,118620
//Storyboard Layer 0 (Background)
//Storyboard Layer 1 (Fail)
//Storyboard Layer 2 (Pass)
//Storyboard Layer 3 (Foreground)
//Storyboard Sound Samples
//Background Colour Transformations
3,100,163,162,255

[TimingPoints]
0,240,4,2,0,100,1,0

[HitObjects]
111,72,14520,2,0,B|183:72,1,60
226,72,14820,1,0
285,74,15060,2,0,B|369:93|371:142|310:156,1,140
286,146,15840,1,0
286,146,16140,2,0,B|217:146|217:146|218:146,4,60
286,146,17040,1,0
226,151,17700,6,0,B|164:147|129:177|126:220,1,120
122,257,18240,1,0
137,281,18660,2,0,B|161:309|194:307,2,60
69,264,19440,1,0
83,226,19620,1,0
126,209,19800,1,0
168,209,19980,1,0
201,237,20220,1,0
234,266,20820,6,0,B|241:304|271:324,1,60
288,308,21120,1,0
321,298,21240,2,0,B|320:262|282:231,1,60
353,235,21900,1,0
296,234,22260,2,0,B|265:246|227:261|192:251|188:247,1,100
164,285,22680,1,0
161,240,22860,1,0
166,186,23100,1,0
183,146,23460,2,0,B|227:124|302:135|347:162,1,160
339,217,24120,5,0
339,217,24360,2,0,B|357:265|351:291|309:318,1,100
258,313,24840,1,0
198,314,25080,2,0,B|133:314|133:314|135:231,1,140
139,177,25860,1,0
139,177,26280,1,0
132,112,26700,6,0,B|176:62,1,60
202,60,27060,2,0,B|222:45|264:126,1,80
256,111,27480,2,0,B|252:158|189:157|169:199,1,120
109,209,28320,2,0,B|111:242|155:242,2,60
44,210,28860,1,0
70,255,29100,1,0
122,266,29280,1,0
177,252,29400,1,0
107,204,29820,5,0
111,143,30060,1,0
154,103,30240,1,0
212,91,30420,1,0
270,92,30660,1,0
323,116,30840,1,0
344,163,31080,1,0
339,216,31380,5,0
303,252,31620,1,0
252,262,31800,1,0
198,263,32100,1,0
144,256,32220,1,0
112,233,32400,1,0
101,184,32640,1,0
95,119,33300,6,0,B|117:97|161:99,1,60
192,106,33660,2,0,B|207:116|199:168,1,60
176,186,34080,2,0,B|156:177|108:204,1,60
96,199,34680,5,0
117,249,34860,1,0
175,245,35040,1,0
154,176,35220,1,0
117,249,35460,1,0
175,245,35640,1,0
96,199,35880,1,0
89,138,39780,5,0
138,99,40080,5,0
203,85,40260,2,0,B|236:64|267:65|311:109|307:154,1,140
238,194,41100,6,0,B|171:195|171:195|170:195,2,60
266,194,41640,1,0
222,146,41760,1,0
175,194,42060,1,0
223,246,42240,1,0
115,173,42600,5,0
149,152,42840,1,0
149,152,43080,1,0
214,147,43260,1,0
248,147,43440,1,0
277,148,43620,1,0
315,151,43860,1,0
316,215,44220,5,0
262,215,44400,1,0
282,264,44640,1,0
351,268,44820,1,0
378,326,45060,1,0
317,329,45240,1,0
252,326,45420,1,0
172,96,46080,6,0,B|97:99|97:99|97:151|97:151|97:179|164:197,1,200
209,183,46800,1,0
184,237,47040,1,0
147,187,47460,5,0
239,189,47640,1,0
194,139,47820,1,0
239,189,48060,1,0
147,187,48240,1,0
239,189,48480,1,0
194,139,48660,1,0
124,116,48960,5,0
124,116,49080,1,0
206,78,49500,5,0
243,78,49680,1,0
272,86,49860,1,0
309,100,50040,1,0
331,131,50220,1,0
332,164,50460,1,0
311,197,50580,1,0
257,149,51060,5,0
236,175,51240,1,0
238,226,51480,1,0
264,252,51660,1,0
304,273,51840,1,0
349,275,52020,1,0
392,268,52200,1,0
162,174,52860,5,0
202,174,53040,1,0
234,174,53220,1,0
276,174,53400,2,0,B|336:194|368:164|368:117|343:98,1,140
285,101,54240,5,0
219,102,54540,1,0
219,102,54660,1,0
173,143,54840,1,0
167,196,55020,2,0,B|227:221|277:207|281:142,1,140
157,182,59280,5,0
206,161,59460,1,0
246,159,59640,1,0
311,162,59820,1,0
341,184,60240,1,0
339,217,60660,1,0
339,217,60960,1,0
302,231,61140,1,0
302,231,61260,1,0
274,231,61440,1,0
239,231,61860,1,0
179,201,62460,5,0
172,151,62880,1,0
172,151,63060,1,0
200,147,63180,1,0
200,147,63420,1,0
254,148,63600,1,0
281,148,63840,1,0
324,147,64260,1,0
356,147,64620,1,0
388,148,65040,1,0
389,216,65640,5,0
335,216,65880,1,0
293,218,66060,1,0
264,219,66240,1,0
227,219,66600,1,0
174,219,67020,1,0
132,218,67320,1,0
132,218,67500,1,0
132,218,67680,1,0
132,218,67860,1,0
124,172,68220,1,0
137,146,68880,5,0
184,142,69240,1,0
214,142,69420,1,0
214,142,69840,1,0
242,142,70020,1,0
242,142,70260,1,0
281,142,70620,1,0
281,142,71040,1,0
342,144,71400,1,0
342,186,72000,5,0
276,204,72300,1,0
276,204,72480,1,0
209,206,72660,1,0
157,206,73020,1,0
106,216,73440,1,0
116,241,73740,1,0
116,241,73920,1,0
164,243,74040,1,0
192,243,74280,1,0
229,243,74640,1,0
274,243,75300,5,0
309,242,75660,1,0
309,242,75840,1,0
315,213,76020,1,0
296,184,76260,1,0
234,183,76440,1,0
176,196,76620,1,0
135,139,77100,1,0
224,122,77520,1,0
266,157,77940,5,0
266,157,78060,1,0
266,157,78240,1,0
266,157,78420,1,0
266,157,78600,1,0
266,157,78780,1,0
266,157,79020,1,0
205,185,79500,5,0
205,185,79620,1,0
205,185,79800,1,0
205,185,80040,1,0
205,185,80220,1,0
205,185,80460,1,0
205,185,80640,1,0
264,220,81060,5,0
264,220,81180,1,0
306,219,81420,1,0
306,219,81660,1,0
306,219,81840,1,0
306,219,81960,1,0
306,219,82200,1,0
306,219,82620,5,0
306,219,82800,1,0
306,219,83100,1,0
276,221,83340,1,0
276,221,83520,1,0
247,222,83700,1,0
247,222,83880,1,0
123,210,84480,5,0
139,172,84660,1,0
139,172,84840,1,0
172,163,85080,1,0
205,162,85200,1,0
205,162,85440,1,0
237,171,85920,5,0
237,171,86100,1,0
237,171,86280,1,0
237,171,86580,1,0
270,181,86760,1,0
270,181,86880,1,0
299,186,87060,1,0
152,167,91080,5,0
214,163,91260,1,0
214,163,91440,1,0
267,163,91680,1,0
267,163,91860,1,0
319,243,92280,1,0
277,246,92460,1,0
239,246,92640,1,0
212,246,92940,1,0
212,246,93120,1,0
177,246,93300,1,0
177,246,93480,1,0
102,179,93900,5,0
102,179,94140,1,0
140,179,94260,1,0
140,179,94440,1,0
140,179,94680,1,0
201,179,94860,1,0
201,179,95040,1,0
183,141,97260,5,0
228,141,97440,1,0
302,145,97620,1,0
302,145,97860,1,0
302,191,98040,1,0
302,191,98220,1,0
266,204,98700,1,0
229,202,98880,1,0
195,203,99120,1,0
195,203,99300,1,0
195,203,99480,1,0
195,203,99660,1,0
195,203,99780,1,0
133,221,100680,5,0
141,269,100860,1,0
192,269,101040,1,0
227,269,101220,1,0
291,265,101400,1,0
326,253,101580,1,0
314,229,101760,1,0
277,209,102180,1,0
229,209,102360,1,0
174,209,102600,1,0
119,202,102780,1,0
126,167,102960,1,0
169,162,103200,1,0
236,161,103380,1,0
298,161,104040,5,0
298,161,104280,1,0
303,196,104460,1,0
304,227,104640,1,0
267,254,105060,1,0
227,254,105420,1,0
175,254,105720,1,0
175,254,105900,1,0
175,254,106020,1,0
175,254,106200,1,0
175,254,106620,1,0
147,163,107160,5,0
191,162,107580,1,0
217,162,107820,1,0
262,162,108180,1,0
262,162,108360,1,0
289,164,108600,1,0
329,175,109020,1,0
329,224,109380,1,0
281,226,109800,1,0
229,225,110460,5,0
199,225,110640,1,0
168,225,110820,1,0
134,224,111000,1,0
128,182,111420,1,0
188,173,111840,1,0
180,233,112140,1,0
180,233,112260,1,0
180,233,112440,1,0
181,267,112680,1,0
196,296,113040,1,0
239,299,113700,5,0
274,301,114060,1,0
301,300,114240,1,0
301,300,114420,1,0
336,300,114540,1,0
336,300,114840,1,0
347,255,115020,1,0
347,255,115380,1,0
273,242,115800,1,0
311,193,116220,1,0
256,208,119820,12,0,122640
