osu file format v7

[General]
AudioFilename: 13.mp3
AudioLeadIn: 0
PreviewTime: 52647
Countdown: 0
SampleSet: Soft
StackLeniency: 0.7
Mode: 0
LetterboxInBreaks: 1

[Editor]
DistanceSpacing: 0.800000011920929
BeatDivisor: 2
GridSize: 8

[Metadata]
Title:Wo Ge Zai Guang Dian
Artist:TuTuWan
Creator:v2b
Version:Normal
Source:
Tags:AcFun SARFT Qiong Kai Xin ignorethis

[Difficulty]
HPDrainRate:3
CircleSize:4
OverallDifficulty:3
SliderMultiplier:1.3
SliderTickRate:0.5

[Events]
//Background and Video events
0,0,"2-6.jpg"
//Break Periods
2,78447,83207
//Storyboard Layer 0 (Background)
//Storyboard Layer 1 (Fail)
//Storyboard Layer 2 (Pass)
//Storyboard Layer 3 (Foreground)
//Storyboard Sound Samples
//Background Colour Transformations
3,100,163,162,255

[TimingPoints]
11047,400,4,2,0,40,1,0
14147,-100,4,1,0,40,0,0

[Colours]
Combo1 : 0,255,0
Combo2 : 255,0,0
Combo3 : 5,5,240

[HitObjects]
128,96,11047,1,0
208,160,11447,2,0,B|296:160,1,65,0|2
408,232,12247,2,0,B|312:232,1,65,0|2
208,312,13047,2,0,B|288:312,1,65,0|2
432,312,13847,6,0,B|432:152,1,130,0|4
432,80,14647,5,8
336,112,15047,1,0
240,80,15447,1,8
144,112,15847,2,0,B|64:112,2,65,0|0|8
208,192,16647,2,0,B|296:192,2,65,0|0|8
104,192,17447,6,0,B|48:272|128:328,1,130,0|8
200,344,18247,2,0,B|336:344,1,130,0|8
432,312,19047,5,0
488,224,19447,1,8
376,224,19847,1,0
432,128,20247,1,8
352,56,20647,6,0,B|208:56,1,130,4|8
168,144,21447,2,0,B|320:144,1,130,0|8
384,200,22247,1,0
384,200,22447,1,0
384,200,22647,1,8
312,272,23047,1,0
312,272,23247,1,0
312,272,23447,1,8
216,232,23847,6,0,B|128:232|128:144,1,130,0|8
232,136,24647,2,0,B|320:136|320:48,1,130,0|8
256,192,25447,12,0,26647
256,160,27047,6,0,B|96:160,3,130,4|8|0|8
176,248,28647,2,0,B|336:248,3,130,0|8|0|8
336,144,30247,5,0
336,144,30447,1,0
336,144,30647,2,0,B|304:80|208:104,2,130,8|0|8
360,248,31847,5,0
360,248,32047,1,0
360,248,32247,2,0,B|392:312|488:288,2,130,8|0|8
320,152,33447,5,0
216,152,33847,1,8
112,152,34247,1,0
8,152,34647,1,8
72,232,35047,1,0
176,232,35447,1,8
280,232,35847,1,0
384,232,36247,1,8
448,152,36647,6,0,B|496:96|400:48,1,130,0|8
320,104,37447,1,0
320,104,37647,1,0
320,104,37847,1,8
232,152,38247,6,0,B|184:208|280:256,1,130,0|8
360,200,39047,1,0
360,200,39247,1,0
360,200,39447,1,8
320,104,39847,6,0,B|184:104,1,130,4|8
88,104,40647,1,0
88,104,41047,1,8
48,200,41447,2,0,B|184:200,1,130,0|8
280,200,42247,1,0
280,200,42647,1,8
376,240,43047,5,0
376,240,43247,1,0
376,240,43447,2,0,B|432:304|384:360,1,130,8|0
296,304,44247,1,8
200,264,44647,6,0,B|152:200|200:128,1,130,0|8
296,160,45447,2,0,B|344:96|288:24,1,130,0|8
192,56,46247,5,0
96,88,46647,1,8
192,128,47047,1,0
96,160,47447,1,8
192,192,47847,2,0,B|264:224|336:184,3,130,0|8|0|8
376,104,49447,5,0
328,104,49647,1,0
280,104,49847,2,0,B|144:104,1,130,8|0
104,104,50447,1,0
56,104,50647,1,8
96,200,51047,1,0
144,200,51247,1,0
192,200,51447,2,0,B|328:200,1,130,8|0
368,200,52047,1,0
416,200,52247,1,8
400,304,52647,5,4
352,320,52847,1,0
304,336,53047,2,0,B|144:336,1,130,8|0
72,312,53847,1,8
40,216,54247,6,0,B|40:56,3,130,0|8|0|8
192,104,56047,5,0
296,104,56447,1,0
296,104,56647,2,0,B|480:104,2,130,0|8|0
344,200,57847,2,0,B|208:200,2,130,8|0|8
400,288,59047,5,4
312,336,59447,1,8
312,336,59647,1,0
312,336,59847,2,0,B|168:336,1,130,0|8
96,272,60647,5,0
120,168,61047,1,8
200,104,61447,1,0
304,120,61847,1,8
432,208,62447,5,0
376,296,62847,1,0
336,328,63047,2,0,B|272:352|192:328,1,130,0|8
168,296,63647,1,0
192,248,63847,6,0,B|328:248,3,130,0|8|0|8
344,144,65447,5,4
304,112,65647,1,0
264,80,65847,2,0,B|120:80,1,130,8|0
32,80,66647,1,8
80,176,67047,6,0,B|144:208|216:176,1,130,0|8
312,176,67847,2,0,B|376:208|440:176,1,130,0|8
400,328,68847,5,0
296,328,69247,1,0
248,328,69447,1,0
144,328,69847,1,8
64,256,70247,6,0,B|64:112,1,130,0|8
160,88,71047,2,0,B|160:232,1,130,0|8
312,232,72047,5,0
312,232,72247,2,0,B|392:264|448:224,2,130,8|0|8
208,232,73447,2,0,B|144:264|80:232,3,130,0|8|0|8
56,80,75247,5,0
152,120,75647,1,0
200,144,75847,2,0,B|352:144,1,130,0|8
256,192,76647,12,4,78247
400,96,84647,6,0,B|232:96,1,130,4|8
336,176,85447,2,0,B|176:176,1,130,0|8
272,256,86247,2,0,B|112:256,1,130,0|8
208,336,87047,2,0,B|48:336,1,130,0|8
40,240,87847,5,0
80,144,88247,1,8
160,72,88647,1,0
160,72,88847,1,0
160,72,89047,1,8
240,144,89447,1,0
288,240,89847,1,8
368,304,90247,1,0
368,304,90447,1,0
368,304,90647,1,8
448,240,91047,5,4
496,144,91447,1,8
448,48,91847,2,0,B|312:0|168:56,1,260
136,136,93047,1,8
184,224,93447,1,0
64,144,94247,5,0
16,240,94647,1,8
64,336,95047,2,0,B|200:384|344:328,1,260
376,248,96247,1,8
328,160,96647,1,0
176,24,97447,6,0,B|96:48|88:128,1,130,0|8
192,120,98247,1,0
192,120,98647,1,8
208,216,99047,2,0,B|288:192|296:112,1,130,0|8
192,120,99847,1,0
192,120,100247,1,8
256,40,100647,6,0,B|320:128|168:216|272:304,2,260
336,112,102647,5,8
400,192,103047,1,0
400,192,103447,1,8
400,192,103847,6,0,B|400:336,1,130,4|8
304,288,104647,2,0,B|304:112,1,130,0|8
232,80,105447,5,0
128,80,105847,1,8
80,104,106047,1,0
32,128,106247,1,0
128,176,106647,1,8
272,232,107247,6,0,B|408:232,1,130
456,232,107847,1,0
424,328,108247,2,0,B|264:328,1,130,8|0
192,328,109047,1,8
120,256,109447,1,0
48,184,109847,1,8
48,80,110247,5,4
144,112,110647,2,0,B|304:112,1,130,8|0
376,136,111447,1,8
384,240,111847,6,0,B|384:312|304:336,1,130,0|8
202,334,112647,2,0,B|128:312|128:240,1,130,0|8
256,152,113647,5,0
256,48,114047,1,0
256,48,114247,1,0
256,152,114647,1,8
200,240,115047,1,0
312,240,115447,1,8
256,336,115847,1,0
256,336,116247,1,8
160,296,116647,6,0,B|24:296,1,130,4|8
80,200,117447,2,0,B|240:200,1,130,0|8
312,200,118247,1,0
416,200,118647,1,8
448,104,119047,1,0
344,104,119447,1,8
200,48,120047,6,0,B|56:48,1,130
80,96,120647,2,0,B|216:96,1,130,0|8
296,160,121447,1,0
216,232,121847,1,8
296,296,122247,1,0
296,296,122447,1,0
296,296,122647,1,8
376,232,123047,5,4
448,152,123447,1,8
376,72,123847,1,0
304,152,124247,1,8
232,232,124647,1,0
160,152,125047,1,8
232,72,125447,1,0
232,72,125647,1,0
232,72,125847,1,8
256,176,126247,5,4
256,192,126447,12,4,128647
