osu file format v7

[General]
AudioFilename: 13.mp3
AudioLeadIn: 0
PreviewTime: 52647
Countdown: 0
SampleSet: Normal
StackLeniency: 0.7
Mode: 0
LetterboxInBreaks: 1

[Editor]
Bookmarks: 84647
DistanceSpacing: 0.800000011920929
BeatDivisor: 2
GridSize: 8

[Metadata]
Title:Wo Ge Zai Guang Dian
Artist:TuTuWan
Creator:v2b
Version:Easy
Source:
Tags:AcFun SARFT Qiong Kai Xin ignorethis

[Difficulty]
HPDrainRate:1
CircleSize:3
OverallDifficulty:1
SliderMultiplier:1
SliderTickRate:0.5

[Events]
//Background and Video events
0,0,"2-6.jpg"
//Break Periods
2,77647,82967
//Storyboard Layer 0 (Background)
//Storyboard Layer 1 (Fail)
//Storyboard Layer 2 (Pass)
//Storyboard Layer 3 (Foreground)
//Storyboard Sound Samples
//Background Colour Transformations
3,100,163,162,255

[TimingPoints]
11047,400,4,1,0,40,1,0

[Colours]
Combo1 : 0,255,0
Combo2 : 255,0,0
Combo3 : 5,5,240

[HitObjects]
256,80,14247,1,4
328,176,14847,2,0,B|168:176,1,150,0|8
160,256,15847,6,0,B|264:304|400:240,1,200
354,258,17047,1,8
296,200,17447,6,0,B|448:200,2,150,0|0|8
216,200,19047,2,0,B|64:200,2,150,0|0|8
256,272,20647,5,4
256,152,21247,1,0
256,32,21847,1,8
192,88,22247,5,0
320,88,22847,1,0
256,192,23447,1,8
256,192,23847,12,0,26247
424,96,27047,6,0,B|112:96,1,300,4|8
96,176,28647,2,0,B|416:176,1,300,0|8
416,256,30247,2,0,B|104:256,1,300,0|8
96,336,31847,2,0,B|416:336,1,300,0|8
456,280,33447,5,0
456,120,34247,1,8
336,232,35047,1,0
336,72,35847,1,8
328,232,36647,6,0,B|304:312|200:312|176:224,3,200,0|8|0|8
120,88,39847,6,0,B|360:88,1,200,4|8
400,112,41047,1,0
352,176,41447,2,0,B|136:176,1,200,0|8
392,296,43047,6,0,B|152:296,1,200,0|8
112,272,44247,1,0
160,208,44647,2,0,B|376:208,1,200,0|8
256,80,46247,6,0,B|256:296,1,200,0|8
256,280,47447,1,0
176,304,47847,2,0,B|216:376|304:376|344:288,1,200,0|8
416,168,49447,6,0,B|72:168,1,300,0|8
112,88,51047,2,0,B|424:88,1,300
480,136,52647,6,0,B|480:352,1,200,4|8
336,264,54247,2,0,B|336:56,1,200,0|8
176,64,55847,2,0,B|176:264,1,200,0|8
32,336,57447,2,0,B|32:136,1,200,0|8
168,56,59047,6,0,B|264:128|384:40,1,200,4|8
336,216,60647,1,0
176,216,61447,1,8
256,352,62247,6,0,B|432:256|72:128|280:-8,1,400
256,192,64647,1,0
32,248,65447,6,0,B|32:32,1,200,4|8
176,120,67047,2,0,B|176:328,1,200,0|8
336,320,68647,2,0,B|336:120,1,200,0|8
480,48,70247,2,0,B|480:248,1,200,0|8
344,328,71847,6,0,B|248:256|128:344,1,200,4|8
176,168,73447,1,0
336,168,74247,1,8
256,32,75047,6,0,B|80:128|440:256|232:392,1,400
256,192,77447,1,4
56,104,84647,5,4
56,264,85447,1,8
176,152,86247,1,0
176,312,87047,1,8
184,152,87847,6,0,B|208:72|312:72|336:160,3,200,0|8|0|8
392,296,91047,6,0,B|152:296,1,200,4|8
112,272,92247,1,0
160,208,92647,2,0,B|376:208,1,200,0|8
120,88,94247,6,0,B|360:88,1,200,0|8
400,112,95447,1,0
352,176,95847,2,0,B|136:176,1,200,0|8
256,304,97447,6,0,B|256:88,1,200,0|8
256,104,98647,1,0
336,80,99047,2,0,B|296:8|208:8|168:96,1,200,0|8
96,216,100647,6,0,B|440:216,1,300,0|8
400,296,102247,2,0,B|88:296,1,300
32,248,103847,6,0,B|32:32,1,200,4|8
176,120,105447,2,0,B|176:328,1,200,0|8
336,320,107047,2,0,B|336:120,1,200,0|8
480,48,108647,2,0,B|480:248,1,200,0|8
344,328,110247,6,0,B|248:256|128:344,1,200,4|8
176,168,111847,1,0
336,168,112647,1,8
256,32,113447,6,0,B|80:128|440:256|232:392,1,400
256,192,115847,1,0
480,136,116647,6,0,B|480:352,1,200,4|8
336,264,118247,2,0,B|336:56,1,200,0|8
176,64,119847,2,0,B|176:264,1,200,0|8
32,336,121447,2,0,B|32:136,1,200,0|8
168,56,123047,6,0,B|264:128|384:40,1,200,4|8
336,216,124647,1,0
176,216,125447,1,8
256,192,126247,12,4,128647
