osu file format v10

[General]
AudioFilename: smile.mp3
AudioLeadIn: 1500
PreviewTime: -1
Countdown: 0
SampleSet: Normal
StackLeniency: 0.4
Mode: 0
LetterboxInBreaks: 0

[Editor]
DistanceSpacing: 1.1
BeatDivisor: 4
GridSize: 8

[Metadata]
Title:Mou Koi Nante Shinai
TitleUnicode:Mou Koi Nante Shinai
Artist:Tsuruya san
ArtistUnicode:Tsuruya san
Creator:Tonoko
Version:Hard
Source:
Tags:touhou makihara takayuki
BeatmapID:194401
BeatmapSetID:66700

[Difficulty]
HPDrainRate:6
CircleSize:5
OverallDifficulty:7
ApproachRate:7
SliderMultiplier:1.59999990463257
SliderTickRate:1

[Events]
//Background and Video events
0,0,"remisaku.jpg"
Video,0,"smile.flv"
//Break Periods
2,92832,104384
//Storyboard Layer 0 (Background)
//Storyboard Layer 1 (Fail)
//Storyboard Layer 2 (Pass)
//Storyboard Layer 3 (Foreground)
//Storyboard Sound Samples
//Background Colour Transformations
3,100,163,162,255

[TimingPoints]
2318,436.30017452007,4,1,0,30,1,0

[Colours]
Combo1 : 255,177,62
Combo2 : 3,141,3
Combo3 : 72,72,251
Combo4 : 252,95,95

[HitObjects]
384,96,2318,2,0,B|352:168|416:256,1,159.999990463257
304,272,3190,2,0,B|240:336|144:304,1,159.999990463257
156,307,3845,1,0,0:0:0
96,248,4063,1,0,0:0:0
96,248,4281,1,0,0:0:0
96,248,4390,1,0,0:0:0
96,248,4499,1,0,0:0:0
144,176,4717,1,0,0:0:0
176,96,4935,1,0,0:0:0
232,160,5153,1,0,0:0:0
304,216,5372,1,0,0:0:0
344,224,5481,1,0,0:0:0
368,256,5590,1,0,0:0:0
376,80,6026,6,0,B|488:56,2,79.9999952316285
416,160,6681,2,0,B|504:152,2,79.9999952316285
384,240,7335,1,0,0:0:0
352,264,7444,1,0,0:0:0
344,304,7553,1,0,0:0:0
264,264,7771,1,0,0:0:0
232,288,7880,1,0,0:0:0
224,328,7989,1,0,0:0:0
120,360,8208,1,0,0:0:0
128,320,8317,1,0,0:0:0
112,288,8426,1,0,0:0:0
120,248,8535,1,0,0:0:0
104,208,8644,1,0,0:0:0
104,208,8862,1,0,0:0:0
16,56,9298,6,0,B|96:80|184:48,1,159.999990463257
256,16,9953,1,0,0:0:0
256,16,10171,2,0,B|280:176,1,159.999990463257
304,256,10825,1,0,0:0:0
216,232,11044,1,0,0:0:0
136,264,11262,1,0,0:0:0
136,264,11371,1,0,0:0:0
136,264,11480,1,0,0:0:0
64,216,11698,1,0,0:0:0
32,296,11916,1,0,0:0:0
64,328,12025,1,0,0:0:0
80,368,12134,1,0,0:0:0
160,336,12352,1,0,0:0:0
200,320,12461,1,0,0:0:0
240,328,12571,1,0,0:0:0
320,288,12789,5,0,0:0:0
320,288,13007,2,0,B|432:304,2,79.9999952316285
408,208,13661,2,0,B|496:240,2,79.9999952316285
376,128,14316,1,0,0:0:0
376,128,14534,1,0,0:0:0
376,128,14643,1,0,0:0:0
376,128,14752,1,0,0:0:0
336,48,14970,1,0,0:0:0
336,48,15079,1,0,0:0:0
336,48,15188,1,0,0:0:0
248,24,15407,1,0,0:0:0
224,64,15516,1,0,0:0:0
240,104,15625,1,0,0:0:0
216,144,15734,1,0,0:0:0
232,184,15843,1,0,0:0:0
232,184,16061,1,0,0:0:0
144,168,16279,6,0,B|112:240|-16:232,1,159.999990463257
328,192,17152,2,0,B|360:264|488:256,1,159.999990463257
144,168,18024,2,0,B|232:128,1,79.9999952316285
328,192,18461,2,0,B|240:240,1,79.9999952316285
184,272,18897,1,0,0:0:0
184,272,19115,1,0,0:0:0
184,272,19224,1,0,0:0:0
184,272,19333,1,0,0:0:0
280,128,19770,5,0,0:0:0
368,128,19988,1,0,0:0:0
368,128,20097,1,0,0:0:0
368,128,20206,1,0,0:0:0
432,192,20424,1,0,0:0:0
232,256,20642,1,0,0:0:0
144,256,20860,1,0,0:0:0
144,256,20969,1,0,0:0:0
144,256,21078,1,0,0:0:0
80,192,21297,1,0,0:0:0
256,192,21515,1,0,0:0:0
256,192,22169,1,0,0:0:0
256,192,22387,1,0,0:0:0
440,96,22824,5,0,0:0:0
440,96,23042,1,0,0:0:0
440,96,23151,1,0,0:0:0
440,96,23260,2,0,B|416:264,1,159.999990463257
432,344,23914,1,0,0:0:0
432,344,24133,2,0,B|352:304|264:352,1,159.999990463257
200,296,24787,1,0,0:0:0
200,296,25005,2,0,P|32:280,1,159.999990463257
96,216,25660,1,0,0:0:0
72,128,25878,2,0,B|184:120,1,79.9999952316285
136,40,26314,2,0,B|224:56,1,79.9999952316285
304,40,26750,5,0,0:0:0
304,40,26968,1,0,0:0:0
304,40,27078,1,0,0:0:0
304,40,27187,1,0,0:0:0
392,64,27405,1,0,0:0:0
480,40,27623,2,0,B|456:128,1,79.9999952316285
496,200,28059,2,0,B|472:288,1,79.9999952316285
384,264,28496,1,0,0:0:0
344,280,28605,1,0,0:0:0
336,320,28714,1,0,0:0:0
256,352,28932,1,0,0:0:0
104,248,29368,1,0,0:0:0
192,216,29586,1,0,0:0:0
232,200,29695,1,0,0:0:0
256,160,29804,1,0,0:0:0
472,32,30023,5,0,0:0:0
432,48,30132,1,0,0:0:0
408,88,30241,2,0,B|312:80,1,79.9999952316285
240,64,30677,1,0,0:0:0
152,56,30895,1,0,0:0:0
64,48,31113,2,0,B|104:120|72:216,2,159.999990463257
24,136,32204,1,0,0:0:0
128,152,32422,1,0,0:0:0
208,192,32640,1,0,0:0:0
296,200,32859,1,0,0:0:0
320,240,32968,1,0,0:0:0
360,256,33077,1,0,0:0:0
448,256,33295,1,0,0:0:0
392,160,33513,5,0,0:0:0
392,160,33622,1,0,0:0:0
392,160,33731,1,0,0:0:0
368,80,33949,1,0,0:0:0
288,48,34167,1,0,0:0:0
120,224,34386,1,0,0:0:0
120,224,34495,1,0,0:0:0
120,224,34604,1,0,0:0:0
144,304,34822,1,0,0:0:0
224,336,35040,1,0,0:0:0
256,256,35258,6,0,B|360:296,1,79.9999952316285
256,128,35694,2,0,B|152:88,1,79.9999952316285
112,40,36131,1,0,0:0:0
88,80,36240,1,0,0:0:0
104,120,36349,1,0,0:0:0
80,152,36458,1,0,0:0:0
96,192,36567,1,0,0:0:0
72,224,36676,1,0,0:0:0
88,264,36785,1,0,0:0:0
88,264,37003,5,0,0:0:0
40,336,37222,2,0,B|216:360,1,159.999990463257
424,288,37876,1,0,0:0:0
424,288,38094,2,0,B|264:304,1,159.999990463257
152,256,38749,1,0,0:0:0
152,256,38967,2,0,B|96:168|0:176,1,159.999990463257
232,160,39621,1,0,0:0:0
232,160,39839,2,0,B|328:176,1,79.9999952316285
160,40,40276,2,0,B|144:120,1,79.9999952316285
256,56,40712,5,0,0:0:0
312,120,40930,1,0,0:0:0
376,64,41148,1,0,0:0:0
432,128,41366,1,0,0:0:0
488,200,41585,2,0,B|464:288,1,79.9999952316285
320,216,42021,2,0,B|416:240,1,79.9999952316285
376,304,42457,1,0,0:0:0
344,328,42566,1,0,0:0:0
304,344,42675,1,0,0:0:0
264,336,42784,1,0,0:0:0
224,312,42893,1,0,0:0:0
224,312,43112,1,0,0:0:0
136,264,43330,1,0,0:0:0
168,240,43439,1,0,0:0:0
208,224,43548,1,0,0:0:0
248,232,43657,1,0,0:0:0
288,256,43766,1,0,0:0:0
360,200,43984,5,0,0:0:0
360,200,44093,1,0,0:0:0
360,200,44202,2,0,B|382:123,1,79.9999952316285
352,40,44639,1,0,0:0:0
280,96,44857,1,0,0:0:0
152,32,45075,2,0,B|200:120,1,79.9999952316285
128,192,45511,1,0,0:0:0
128,192,45620,1,0,0:0:0
128,192,45729,1,0,0:0:0
32,304,45948,2,0,B|120:328|192:256,1,159.999990463257
240,200,46602,1,0,0:0:0
336,352,46820,1,0,0:0:0
336,352,46929,1,0,0:0:0
336,352,47038,1,0,0:0:0
272,288,47256,1,0,0:0:0
368,272,47475,5,0,0:0:0
368,272,47584,1,0,0:0:0
368,272,47693,2,0,B|472:288,2,79.9999952316285
168,344,48347,1,0,0:0:0
168,344,48456,1,0,0:0:0
168,344,48565,2,0,B|64:360,2,79.9999952316285
72,216,49438,2,0,P|96:48,1,159.999990463257
160,120,50092,1,0,0:0:0
224,64,50311,2,0,P|240:256,1,159.999990463257
440,168,51183,6,0,P|416:336,1,159.999990463257
352,264,51837,1,0,0:0:0
288,320,52056,2,0,P|272:128,1,159.999990463257
360,128,52710,1,0,0:0:0
360,128,52928,2,0,B|304:40|208:48,1,159.999990463257
152,80,53583,1,0,0:0:0
72,80,53801,6,0,B|176:80,1,79.9999952316285
136,168,54237,2,0,B|112:280,1,79.9999952316285
152,328,54674,1,0,0:0:0
152,328,54892,1,0,0:0:0
152,328,55001,1,0,0:0:0
152,328,55110,1,0,0:0:0
232,288,55328,1,0,0:0:0
328,176,55546,2,0,B|304:264,1,79.9999952316285
360,360,55982,2,0,B|384:272,1,79.9999952316285
464,248,56419,1,0,0:0:0
464,248,56637,1,0,0:0:0
464,248,57073,6,0,P|424:80,1,159.999990463257
352,48,57728,1,0,0:0:0
288,104,57946,1,0,0:0:0
208,64,58164,2,0,B|184:144,1,79.9999952316285
96,128,58600,1,0,0:0:0
96,128,58818,1,0,0:0:0
96,128,59037,2,0,B|136:208|72:296,2,159.999990463257
168,176,60127,1,0,0:0:0
216,248,60345,1,0,0:0:0
184,328,60564,1,0,0:0:0
272,352,60782,5,0,0:0:0
272,352,60891,1,0,0:0:0
272,352,61000,1,0,0:0:0
352,320,61218,1,0,0:0:0
432,288,61436,2,0,P|408:256|408:144,2,119.999992847443
488,152,62309,1,0,0:0:0
488,152,62527,2,0,P|320:200,2,159.999990463257
440,80,63618,5,0,0:0:0
440,80,63836,2,0,P|320:48,1,119.999992847443
336,88,64272,2,0,P|216:56,1,119.999992847443
232,96,64708,2,0,P|112:64,1,119.999992847443
88,56,65145,5,0,0:0:0
96,80,65254,1,0,0:0:0
104,104,65363,1,0,0:0:0
112,128,65472,1,0,0:0:0
120,152,65581,1,0,0:0:0
40,192,65799,1,0,0:0:0
40,192,66017,2,0,B|104:272,2,79.9999952316285
208,192,66672,5,0,0:0:0
200,216,66781,1,0,0:0:0
192,240,66890,1,0,0:0:0
184,264,66999,1,0,0:0:0
176,288,67108,1,0,0:0:0
80,312,67326,1,0,0:0:0
80,312,67544,1,0,0:0:0
80,312,67763,2,0,B|-32:336,2,79.9999952316285
168,328,68417,5,0,0:0:0
208,344,68526,1,0,0:0:0
248,360,68635,1,0,0:0:0
280,280,68853,1,0,0:0:0
320,296,68962,1,0,0:0:0
360,312,69071,1,0,0:0:0
440,272,69290,1,0,0:0:0
424,184,69508,1,0,0:0:0
384,168,69617,1,0,0:0:0
344,152,69726,1,0,0:0:0
312,72,69944,1,0,0:0:0
272,56,70053,1,0,0:0:0
232,40,70162,1,0,0:0:0
144,24,70380,6,0,B|192:168,1,119.999992847443
200,152,70817,1,0,0:0:0
192,248,71035,1,0,0:0:0
296,352,71253,2,0,B|280:208,1,119.999992847443
296,216,71689,1,0,0:0:0
256,136,71907,1,0,0:0:0
256,136,72126,6,0,B|448:96,1,159.999990463257
256,248,72780,1,0,0:0:0
256,248,72998,2,0,B|64:288,1,159.999990463257
216,360,73653,1,0,0:0:0
296,312,73871,1,0,0:0:0
312,272,73980,1,0,0:0:0
296,232,74089,1,0,0:0:0
216,272,74307,1,0,0:0:0
200,232,74416,1,0,0:0:0
216,192,74525,1,0,0:0:0
256,32,74743,1,0,0:0:0
280,72,74852,1,0,0:0:0
288,112,74961,1,0,0:0:0
280,152,75071,1,0,0:0:0
256,192,75180,1,0,0:0:0
192,112,75398,5,0,0:0:0
192,112,75616,2,0,B|8:96,1,159.999990463257
376,136,76270,2,0,B|480:144,2,79.9999952316285
304,224,76925,5,0,0:0:0
304,224,77034,1,0,0:0:0
304,224,77143,1,0,0:0:0
304,224,77252,1,0,0:0:0
304,224,77361,2,0,B|280:136,2,79.9999952316285
216,256,78016,1,0,0:0:0
216,256,78125,1,0,0:0:0
216,256,78234,2,0,B|192:368,3,79.9999952316285
288,320,79106,6,0,B|402:284,1,119.999992847443
416,296,79543,2,0,B|432:184,1,79.9999952316285
464,136,79979,1,0,0:0:0
440,96,80088,1,0,0:0:0
416,56,80197,1,0,0:0:0
344,112,80415,1,0,0:0:0
344,112,80633,6,0,B|200:72,1,119.999992847443
240,96,81070,2,0,B|194:161,1,79.9999952316285
112,144,81506,1,0,0:0:0
112,144,81615,1,0,0:0:0
112,144,81724,1,0,0:0:0
24,136,81942,1,0,0:0:0
24,136,82160,1,0,0:0:0
144,240,82379,6,0,B|32:224,2,79.9999952316285
192,312,83033,1,0,0:0:0
280,320,83251,1,0,0:0:0
360,360,83469,2,0,B|360:288|400:224,1,119.999992847443
344,248,83906,2,0,B|360:184|416:136,1,119.999992847443
432,144,84342,1,0,0:0:0
432,56,84560,2,0,B|336:96,1,79.9999952316285
280,48,84996,2,0,B|200:32,2,79.9999952316285
248,128,85651,1,0,0:0:0
248,128,85760,1,0,0:0:0
248,128,85869,1,0,0:0:0
184,192,86087,6,0,B|24:224,1,159.999990463257
256,216,86742,1,0,0:0:0
328,240,86960,2,0,B|488:272,1,159.999990463257
256,256,87614,1,0,0:0:0
184,272,87832,2,0,B|80:296,1,79.9999952316285
328,312,88269,2,0,B|440:336,1,79.9999952316285
256,328,88705,1,0,0:0:0
256,328,88814,1,0,0:0:0
256,328,88923,1,0,0:0:0
256,152,89359,5,0,0:0:0
176,112,89578,1,0,0:0:0
256,152,89796,1,0,0:0:0
336,112,90014,1,0,0:0:0
256,152,90232,1,0,0:0:0
256,192,90450,12,0,91759,0:0:0
256,192,91977,5,0,0:0:0
256,192,92195,1,0,0:0:0
256,192,92632,1,0,0:0:0
256,80,105284,5,0,0:0:0
256,80,105939,1,0,0:0:0
256,80,106157,1,0,0:0:0
424,32,106593,5,0,0:0:0
424,32,106811,1,0,0:0:0
424,32,106920,1,0,0:0:0
424,32,107030,2,0,B|400:200,1,159.999990463257
320,160,107684,1,0,0:0:0
240,128,107902,2,0,B|256:304,1,159.999990463257
472,336,108557,1,0,0:0:0
472,336,108775,2,0,B|416:248|320:256,1,159.999990463257
104,304,109429,1,0,0:0:0
104,304,109647,2,0,B|208:304,1,79.9999952316285
152,224,110084,2,0,B|264:240,1,79.9999952316285
56,160,110520,5,0,0:0:0
120,104,110738,1,0,0:0:0
136,64,110847,1,0,0:0:0
176,56,110956,1,0,0:0:0
264,56,111174,1,0,0:0:0
264,56,111393,2,0,B|240:144,1,79.9999952316285
296,256,111829,2,0,B|320:168,1,79.9999952316285
264,336,112265,1,0,0:0:0
264,336,112374,1,0,0:0:0
264,336,112483,1,0,0:0:0
352,352,112701,1,0,0:0:0
176,320,113138,1,0,0:0:0
88,304,113356,1,0,0:0:0
88,304,113465,1,0,0:0:0
88,304,113574,1,0,0:0:0
32,136,113792,5,0,0:0:0
32,136,113901,1,0,0:0:0
32,136,114010,2,0,B|128:168,1,79.9999952316285
160,88,114447,1,0,0:0:0
248,112,114665,1,0,0:0:0
328,72,114883,2,0,B|424:96|504:24,2,159.999990463257
328,72,115974,1,0,0:0:0
336,160,116192,1,0,0:0:0
336,160,116410,1,0,0:0:0
416,192,116628,1,0,0:0:0
416,192,116737,1,0,0:0:0
416,192,116846,1,0,0:0:0
424,280,117064,1,0,0:0:0
360,336,117283,5,0,0:0:0
320,344,117392,1,0,0:0:0
280,352,117501,1,0,0:0:0
216,296,117719,1,0,0:0:0
128,312,117937,1,0,0:0:0
72,256,118155,1,0,0:0:0
112,248,118264,1,0,0:0:0
152,240,118373,1,0,0:0:0
216,296,118591,1,0,0:0:0
304,280,118809,1,0,0:0:0
328,192,119028,6,0,B|352:88,1,79.9999952316285,0|0,0:0|0:0,0:0:0
232,40,119464,2,0,B|256:128,1,79.9999952316285
176,272,119900,1,0,0:0:0
152,232,120009,1,0,0:0:0
168,192,120119,1,0,0:0:0
144,160,120228,1,0,0:0:0
160,120,120337,1,0,0:0:0
136,80,120446,1,0,0:0:0
152,40,120555,1,0,0:0:0
152,40,120773,5,0,0:0:0
32,24,120991,2,0,B|16:192,1,159.999990463257
104,192,121646,1,0,0:0:0
192,200,121864,2,0,B|216:368,1,159.999990463257
272,160,122518,1,0,0:0:0
272,160,122736,2,0,B|240:80|128:80,1,159.999990463257
48,192,123391,1,0,0:0:0
48,192,123609,2,0,B|152:192,1,79.9999952316285
264,272,124045,2,0,B|152:272,1,79.9999952316285
112,320,124482,5,0,0:0:0
200,344,124700,1,0,0:0:0
288,328,124918,1,0,0:0:0
376,344,125136,1,0,0:0:0
456,312,125354,2,0,P|432:168,1,119.999992847443
416,184,125790,1,0,0:0:0
400,96,126009,5,0,0:0:0
368,64,126118,1,0,0:0:0
328,56,126227,1,0,0:0:0
288,56,126336,1,0,0:0:0
248,56,126445,1,0,0:0:0
160,56,126663,1,0,0:0:0
160,56,126881,1,0,0:0:0
112,136,127099,1,0,0:0:0
144,168,127208,1,0,0:0:0
184,176,127317,1,0,0:0:0
224,176,127426,1,0,0:0:0
264,176,127535,1,0,0:0:0
352,184,127754,5,0,0:0:0
352,184,127863,1,0,0:0:0
352,184,127972,2,0,B|328:264,1,79.9999952316285
240,264,128408,1,0,0:0:0
152,264,128626,1,0,0:0:0
64,264,128845,2,0,B|40:168,1,79.9999952316285
80,104,129281,1,0,0:0:0
80,104,129390,1,0,0:0:0
80,104,129499,1,0,0:0:0
112,24,129717,6,0,B|160:104|256:112,1,159.999990463257
312,160,130372,1,0,0:0:0
392,192,130590,1,0,0:0:0
432,216,130699,1,0,0:0:0
456,248,130808,1,0,0:0:0
480,336,131026,1,0,0:0:0
360,288,131244,5,0,0:0:0
360,288,131353,1,0,0:0:0
360,288,131462,2,0,B|296:352,2,79.9999952316285
144,344,132117,1,0,0:0:0
144,344,132226,1,0,0:0:0
144,344,132335,2,0,B|208:280,2,79.9999952316285
48,192,133208,6,0,P|54:120|112:48,1,159.999990463257
176,160,133862,1,0,0:0:0
288,136,134080,2,0,P|281:208|224:280,1,159.999990463257
472,264,134953,6,0,B|432:88,1,159.999990463257
352,192,135607,1,0,0:0:0
352,192,135825,2,0,B|280:232|184:200,1,159.999990463257
152,296,136480,1,0,0:0:0
152,296,136698,2,0,B|96:208|0:216,1,159.999990463257
56,136,137352,1,0,0:0:0
56,136,137571,6,0,B|32:48,1,79.9999952316285
160,24,138007,2,0,B|136:136,1,79.9999952316285
232,96,138443,1,0,0:0:0
216,184,138661,1,0,0:0:0
224,224,138770,1,0,0:0:0
232,264,138879,1,0,0:0:0
256,352,139098,1,0,0:0:0
320,296,139316,2,0,B|408:320,1,79.9999952316285
168,328,139752,2,0,B|80:352,1,79.9999952316285
40,272,140188,1,0,0:0:0
40,272,140407,1,0,0:0:0
384,112,140843,6,0,P|408:200,2,79.9999952316285
304,144,141497,1,0,0:0:0
264,64,141715,1,0,0:0:0
208,128,141934,2,0,B|184:208,1,79.9999952316285
112,160,142370,1,0,0:0:0
64,80,142588,1,0,0:0:0
24,176,142806,2,0,B|80:248|64:344,2,159.999990463257
8,264,143897,5,0,0:0:0
96,272,144115,1,0,0:0:0
184,296,144333,1,0,0:0:0
272,304,144551,1,0,0:0:0
272,304,144660,1,0,0:0:0
272,304,144770,1,0,0:0:0
360,312,144988,2,0,P|448:320,2,79.9999952316285
272,160,145860,5,0,0:0:0
248,192,145969,1,0,0:0:0
224,224,146078,1,0,0:0:0
160,288,146297,1,0,0:0:0
144,248,146406,1,0,0:0:0
128,208,146515,1,0,0:0:0
104,120,146733,2,0,B|216:144,2,79.9999952316285
256,40,147605,6,0,P|400:16,1,119.999992847443
360,64,148042,2,0,P|312:176,1,119.999992847443
288,144,148478,2,0,P|208:32,1,119.999992847443
200,56,148914,5,0,0:0:0
184,64,149023,1,0,0:0:0
168,72,149133,1,0,0:0:0
152,80,149242,1,0,0:0:0
136,88,149351,1,0,0:0:0
48,96,149569,1,0,0:0:0
48,96,149787,2,0,B|112:160,2,79.9999952316285
160,288,150441,5,0,0:0:0
176,280,150550,1,0,0:0:0
192,272,150660,1,0,0:0:0
208,264,150769,1,0,0:0:0
224,256,150878,1,0,0:0:0
312,248,151096,1,0,0:0:0
312,248,151314,2,0,B|248:184,1,79.9999952316285
344,176,151750,2,0,P|432:168,1,79.9999952316285
376,104,152187,5,0,0:0:0
336,88,152296,1,0,0:0:0
296,72,152405,1,0,0:0:0
216,112,152623,1,0,0:0:0
176,104,152732,1,0,0:0:0
136,96,152841,1,0,0:0:0
56,136,153059,1,0,0:0:0
120,192,153277,1,0,0:0:0
160,216,153386,1,0,0:0:0
200,232,153496,1,0,0:0:0
152,304,153714,1,0,0:0:0
184,328,153823,1,0,0:0:0
216,352,153932,1,0,0:0:0
432,272,154150,6,0,B|296:288,1,119.999992847443
296,264,154586,1,0,0:0:0
208,272,154804,1,0,0:0:0
104,192,155023,2,0,B|240:176,1,119.999992847443
240,200,155459,1,0,0:0:0
360,72,155895,6,0,B|368:232,1,159.999990463257
448,120,156550,1,0,0:0:0
448,120,156768,2,0,B|464:304,1,159.999990463257
472,368,157422,1,0,0:0:0
384,256,157640,5,0,0:0:0
376,296,157749,1,0,0:0:0
368,336,157859,1,0,0:0:0
312,272,158077,1,0,0:0:0
304,312,158186,1,0,0:0:0
296,352,158295,1,0,0:0:0
240,288,158513,1,0,0:0:0
200,296,158622,1,0,0:0:0
160,304,158731,1,0,0:0:0
120,312,158840,1,0,0:0:0
80,320,158949,1,0,0:0:0
96,232,159167,5,0,0:0:0
112,144,159386,1,0,0:0:0
24,120,159604,1,0,0:0:0
112,144,159822,1,0,0:0:0
200,120,160040,1,0,0:0:0
288,96,160258,2,0,B|400:64,2,79.9999952316285
280,136,160804,1,0,0:0:0
272,176,160913,1,0,0:0:0
264,216,161022,1,0,0:0:0
224,224,161131,2,0,P|136:240,2,79.9999952316285
264,216,161676,1,0,0:0:0
304,208,161785,1,0,0:0:0
344,200,161894,1,0,0:0:0
384,192,162003,2,0,B|360:304,3,79.9999952316285
296,320,162876,6,0,B|152:360,1,119.999992847443
144,328,163312,2,0,B|32:360,1,79.9999952316285
88,264,163749,1,0,0:0:0
128,248,163858,1,0,0:0:0
168,232,163967,1,0,0:0:0
176,192,164076,1,0,0:0:0
184,152,164185,1,0,0:0:0
104,176,164403,6,0,B|120:48,1,119.999992847443
152,88,164839,2,0,B|232:64,1,79.9999952316285
264,88,165167,1,0,0:0:0
304,80,165276,1,0,0:0:0
368,136,165494,1,0,0:0:0
408,128,165603,1,0,0:0:0
440,160,165712,1,0,0:0:0
464,192,165821,1,0,0:0:0
488,224,165930,1,0,0:0:0
384,280,166148,6,0,B|368:392,2,79.9999952316285
296,304,166803,1,0,0:0:0
216,328,167021,1,0,0:0:0
128,352,167239,2,0,B|96:296|8:288,1,119.999992847443
64,264,167675,2,0,B|72:200|24:144,1,119.999992847443
64,120,168112,1,0,0:0:0
32,40,168330,2,0,B|136:56,1,79.9999952316285
200,48,168766,2,0,B|304:64,2,79.9999952316285
240,128,169420,5,0,0:0:0
328,136,169639,1,0,0:0:0
368,144,169748,1,0,0:0:0
408,152,169857,2,0,B|496:296,1,159.999990463257
368,232,170511,1,0,0:0:0
368,232,170729,2,0,B|456:376,1,159.999990463257
328,312,171384,1,0,0:0:0
328,312,171602,2,0,B|264:216,1,79.9999952316285
160,200,172038,2,0,B|224:288,1,79.9999952316285
120,288,172475,1,0,0:0:0
120,288,172584,1,0,0:0:0
120,288,172693,1,0,0:0:0
64,216,172911,1,0,0:0:0
96,128,173129,5,0,0:0:0
184,128,173347,1,0,0:0:0
184,128,173456,1,0,0:0:0
184,128,173565,1,0,0:0:0
256,80,173783,1,0,0:0:0
256,80,173893,1,0,0:0:0
256,80,174002,1,0,0:0:0
328,128,174220,2,0,P|440:128,1,79.9999952316285
184,256,174656,2,0,P|72:256,1,79.9999952316285
328,256,175092,6,0,P|496:256,1,159.999990463257
256,192,175747,1,0,0:0:0
184,128,175965,2,0,P|16:128,1,159.999990463257
96,288,176838,6,0,P|280:288,1,159.999990463257
416,288,177710,2,0,P|232:288,1,159.999990463257
256,192,178583,2,0,P|416:192,1,159.999990463257
256,192,179455,2,0,P|96:192,1,159.999990463257
48,120,180110,5,0,0:0:0
96,48,180328,1,0,0:0:0
184,48,180546,1,0,0:0:0
272,48,180764,2,0,P|456:48,1,159.999990463257
392,128,181419,1,0,0:0:0
448,192,181637,1,0,0:0:0
504,256,181855,1,0,0:0:0
448,320,182073,2,0,P|288:320,1,159.999990463257
64,320,182946,2,0,P|224:320,1,159.999990463257
208,32,183818,6,0,P|208:208,1,159.999990463257
304,352,184691,2,0,P|304:176,1,159.999990463257
96,240,185564,2,0,P|272:240,1,159.999990463257
416,144,186437,2,0,P|240:144,1,159.999990463257
168,144,187091,5,0,0:0:0
80,144,187309,1,0,0:0:0
32,216,187527,1,0,0:0:0
80,288,187745,1,0,0:0:0
168,288,187963,1,0,0:0:0
256,288,188181,1,0,0:0:0
304,360,188400,1,0,0:0:0
392,360,188618,1,0,0:0:0
416,328,188727,1,0,0:0:0
440,296,188836,1,0,0:0:0
464,264,188945,1,0,0:0:0
488,232,189054,6,0,B|488:72,1,159.999990463257
400,72,189708,1,0,0:0:0
312,72,189927,2,0,B|240:112|136:72,1,159.999990463257
80,40,190581,1,0,0:0:0
104,128,190799,1,0,0:0:0
128,216,191017,1,0,0:0:0
112,256,191126,1,0,0:0:0
96,296,191235,1,0,0:0:0
184,288,191454,1,0,0:0:0
264,272,191672,1,0,0:0:0
256,312,191781,1,0,0:0:0
248,352,191890,1,0,0:0:0
344,280,192108,1,0,0:0:0
344,320,192217,1,0,0:0:0
344,360,192326,1,0,0:0:0
432,256,192544,5,0,0:0:0
432,256,192763,2,0,B|448:344,2,79.9999952316285
456,168,193417,2,0,B|432:64,2,79.9999952316285
368,144,194071,1,0,0:0:0
280,120,194290,1,0,0:0:0
288,160,194399,1,0,0:0:0
296,200,194508,1,0,0:0:0
208,184,194726,1,0,0:0:0
200,144,194835,1,0,0:0:0
192,104,194944,1,0,0:0:0
104,80,195162,1,0,0:0:0
112,120,195271,1,0,0:0:0
120,160,195380,1,0,0:0:0
128,200,195489,1,0,0:0:0
136,240,195598,1,0,0:0:0
48,216,195817,5,0,0:0:0
136,240,196035,2,0,P|208:272|248:360,1,159.999990463257
416,152,196907,2,0,B|376:224|264:224,1,159.999990463257
112,168,197780,2,0,B|136:72,1,79.9999952316285
216,64,198216,2,0,B|224:144,1,79.9999952316285
288,200,198653,1,0,0:0:0
304,288,198871,1,0,0:0:0
304,288,198980,1,0,0:0:0
304,288,199089,1,0,0:0:0
280,128,199525,5,0,0:0:0
368,128,199743,1,0,0:0:0
368,128,199852,1,0,0:0:0
368,128,199961,1,0,0:0:0
432,192,200179,1,0,0:0:0
232,256,200397,1,0,0:0:0
144,256,200615,1,0,0:0:0
144,256,200724,1,0,0:0:0
144,256,200833,1,0,0:0:0
80,192,201052,1,0,0:0:0
256,192,201270,5,0,0:0:0
256,192,201925,1,0,0:0:0
256,192,202143,1,0,0:0:0
