osu file format v5

[General]
AudioFilename: 213 - Ping-Pong.mp3
AudioLeadIn: 3000
PreviewTime: -1
Countdown: 3
SampleSet: Normal
StackLeniency: 0.7
Mode: 0
LetterboxInBreaks: 1
SkinPreference:Default
EditorBookmarks: 52637
EditorDistanceSpacing: 0.800000011920929

[Metadata]
Title:Ping-Pong
Artist:Tsunku
Creator:Rawrgasmitron
Version:Rhythm Professional
Source:Rhythm Tengoku Gold
Tags:Nintendo rhythm heaven table tennis ping pong

[Difficulty]
HPDrainRate:8
CircleSize:5
OverallDifficulty:7
SliderMultiplier:1.4
SliderTickRate:0.5

[Events]
//Background and Video events
0,0,"table copy.jpg"
//Break Periods
//Storyboard Layer 0 (Background)
//Storyboard Layer 1 (Failing)
//Storyboard Layer 2 (Passing)
//Storyboard Layer 3 (Foreground)
//Storyboard Sound Samples
//Background Colour Transformations
3,100,163,162,255

[TimingPoints]
2869,329.67032967033,4,1,1,100,1,0
63021,-100,4,1,1,100,0,1
78998,-100,4,2,1,100,0,0
79340,-100,4,2,1,100,0,1

[Colours]
Combo1 : 255,128,255
Combo2 : 128,255,128
Combo3 : 255,128,64
Combo4 : 255,255,128

[HitObjects]
176,192,219,6,0,B|256:-16|352:192,1,280,0|8
352,192,1538,6,0,B|256:-16|176:192,1,280,0|8
48,48,2869,5,0
152,48,3198,5,8
152,152,3528,5,0
48,152,3858,5,8
48,256,4187,5,0
152,256,4517,5,8
152,360,4847,5,0
256,360,5176,5,8
360,360,5506,5,0
360,256,5836,5,8
464,256,6165,5,0
464,152,6495,5,8
464,48,6825,6,0,B|464:0|416:0,2,70,0|8|0
464,152,7484,5,8
464,328,8143,5,0
360,328,8473,5,8
360,224,8803,5,0
464,224,9132,5,8
464,120,9462,5,0
360,120,9792,5,8
360,16,10121,5,0
256,16,10451,5,8
152,16,10781,5,0
152,120,11110,5,8
48,120,11440,5,0
48,224,11770,5,8
48,328,12099,6,0,B|48:376|96:376,2,70,0|8|0
48,224,12759,5,8
456,360,13418,5,0
432,256,13748,5,8
400,152,14077,5,0
344,64,14407,5,8
256,8,14737,5,0
168,64,15066,5,8
112,152,15396,5,0
72,248,15726,5,8
168,192,16055,6,0,B|256:-16|352:208,1,280,0|8
344,192,17374,6,0,B|256:-16|160:208,1,280,0|8
168,192,18693,6,0,B|256:-16|352:208,1,280,0|8
344,192,20011,6,0,B|256:-16|160:208,1,280,0|8
256,0,21330,5,0
360,24,21660,5,8
440,88,21989,5,0
472,192,22319,5,8
440,288,22649,5,0
352,344,22978,5,8
256,384,23308,5,0
152,360,23638,5,8
72,296,23967,5,0
40,192,24297,5,8
72,88,24627,5,0
160,24,24956,5,8
256,0,25286,5,0
360,24,25616,5,8
440,88,25945,5,0
472,192,26275,5,8
440,288,26605,5,0
352,344,26934,5,8
256,384,27264,5,0
152,360,27594,5,8
72,296,27923,5,0
40,192,28253,5,8
72,96,28583,5,0
160,40,28912,5,8
248,96,29242,5,0
336,160,29572,5,8
424,224,29901,5,0
336,288,30231,5,8
248,352,30561,6,0,B|248:272,2,70,0|8|0
144,352,31220,5,8
64,48,31879,5,0
128,136,32209,5,8
192,224,32539,5,0
256,136,32868,5,8
328,56,33198,5,0
400,136,33528,5,8
472,216,33858,5,0
400,296,34187,5,8
328,376,34517,5,0
256,296,34847,5,8
184,216,35176,5,0
112,136,35506,5,8
184,56,35836,6,0,B|264:56,2,70,0|8|0
80,56,36495,5,8
496,192,37154,5,0
440,96,37484,5,8
344,48,37814,5,0
248,96,38143,5,8
184,184,38473,5,0
128,88,38803,5,8
32,40,39133,5,0
32,144,39462,5,8
32,248,39792,5,0
32,352,40121,5,8
128,304,40451,5,0
184,216,40780,5,8
248,304,41110,5,0
344,352,41440,5,8
440,304,41770,5,0
496,216,42099,5,8
496,112,42429,5,0
496,8,42759,5,8
408,64,43088,5,0
320,128,43418,5,8
232,192,43748,5,0
144,256,44077,5,8
56,320,44407,5,0
56,216,44737,5,8
56,112,45066,5,0
136,48,45396,5,8
240,24,45726,5,0
344,48,46055,5,8
424,112,46385,6,0,B|424:192,2,70,0|8|0
424,8,47044,5,8
472,328,47704,5,0
416,240,48033,5,8
352,152,48363,5,0
288,64,48693,5,8
184,64,49022,5,0
120,152,49352,5,8
64,240,49682,5,0
8,328,50011,5,8
112,328,50341,5,0
216,328,50671,5,8
320,328,51000,5,0
424,328,51330,5,8
424,224,51660,6,0,B|520:224,2,70,0|8|0
320,224,52319,5,8
464,160,52978,5,0
400,256,53308,5,8
336,160,53638,5,0
272,256,53967,5,8
208,160,54297,6,0,L|112:64|0:176,1,280,0|8
208,256,55616,6,0,L|304:160|192:48,1,280,0|8
304,256,56934,6,0,L|208:352|96:240,1,280,0|8
208,48,58253,6,0,L|112:144|224:256,1,280,0|8
416,144,59572,6,0,L|320:48|208:160,1,280,0|8
256,368,60890,6,0,L|216:336|288:336|216:296|304:296,1,280,0|8
256,48,62209,5,0
256,104,62374,5,8
256,160,62539,5,0
256,264,62869,5,8
464,32,63528,5,0
376,96,63858,5,8
288,160,64187,5,0
200,224,64517,5,8
120,296,64847,5,0
40,368,65176,5,8
0,264,65506,5,0
72,184,65836,5,8
160,128,66165,5,0
264,104,66495,5,8
368,128,66825,5,0
456,184,67154,5,8
456,288,67484,6,0,B|416:352,2,70,0|8|0
352,280,68143,5,8
48,32,68803,5,0
152,32,69132,5,8
256,32,69462,5,0
360,32,69792,5,8
360,136,70121,5,0
464,136,70451,5,8
360,136,70781,5,0
360,240,71110,5,8
360,344,71440,5,0
360,240,71770,5,8
256,240,72099,5,0
152,240,72429,5,8
152,136,72759,6,0,B|152:56,2,70,0|8|0
40,136,73418,5,8
256,296,74077,5,0
88,296,74407,5,8
88,128,74737,5,0
256,128,75066,5,8
424,128,75396,5,0
424,296,75726,5,8
256,296,76055,5,0
256,128,76385,5,8
424,128,76715,6,0,B|256:360,1,280,0|8
88,128,78033,6,0,B|256:360,1,280,0|8
