osu file format v5

[General]
AudioFilename: 213 - Ping-Pong.mp3
AudioLeadIn: 3000
PreviewTime: -1
Countdown: 3
SampleSet: Normal
StackLeniency: 0.7
Mode: 0
LetterboxInBreaks: 1
SkinPreference:Default
EditorBookmarks: 9895,21014
EditorDistanceSpacing: 0.600000023841858

[Metadata]
Title:Ping-Pong
Artist:Tsunku
Creator:Rawrgasmitron
Version:Rhythm Adept
Source:Rhythm Tengoku Gold
Tags:Nintendo rhythm heaven table tennis ping pong

[Difficulty]
HPDrainRate:6
CircleSize:5
OverallDifficulty:7
SliderMultiplier:1.6
SliderTickRate:1

[Events]
//Background and Video events
0,0,"table copy.jpg"
//Break Periods
//Storyboard Layer 0 (Background)
//Storyboard Layer 1 (Failing)
//Storyboard Layer 2 (Passing)
//Storyboard Layer 3 (Foreground)
//Storyboard Sound Samples
//Background Colour Transformations
3,100,163,162,255

[TimingPoints]
2869,329.67032967033,4,1,1,100,1,0
63021,-100,4,1,1,100,0,1
78998,-100,4,1,1,100,0,0
79340,-100,4,1,1,100,0,1

[Colours]
Combo1 : 255,128,255
Combo2 : 128,255,128
Combo3 : 255,128,64
Combo4 : 255,255,128

[HitObjects]
176,192,219,6,0,B|256:-64|352:192,1,320,0|8
288,192,1538,5,0
288,192,1703,5,0
256,152,1867,6,8,B|256:240,1,80
224,192,2196,5,0
160,112,2527,5,8
80,48,2869,5,0
80,96,3033,5,8
80,144,3198,5,0
80,192,3363,5,8
80,240,3528,5,0
80,288,3693,5,8
80,336,3858,5,0
128,336,4022,5,8
176,336,4187,5,0
224,336,4352,5,8
272,336,4517,5,0
320,336,4682,5,8
368,336,4847,5,0
416,336,5011,5,8
464,336,5176,5,0
464,288,5341,5,8
464,240,5506,5,0
464,192,5671,5,8
464,144,5836,5,0
464,96,6000,5,8
464,48,6165,5,0
416,48,6330,5,8
368,48,6495,5,0
320,48,6660,5,8
320,96,6825,6,0,B|320:152,8,40,0|8|0|8|0|8|0|8|0
224,96,7814,5,8
224,192,8143,5,0
224,240,8308,5,8
224,288,8473,5,0
224,336,8638,5,8
272,336,8803,5,0
320,336,8967,5,8
368,336,9132,5,0
416,336,9297,5,8
416,288,9462,5,0
416,240,9627,5,8
416,192,9792,5,0
368,192,9956,5,8
320,192,10121,5,0
272,192,10286,5,8
224,192,10451,5,0
176,192,10616,5,8
128,192,10781,5,0
80,192,10945,5,8
80,144,11110,5,0
80,96,11275,5,8
80,48,11440,5,0
128,48,11605,5,8
176,48,11770,5,0
224,48,11934,5,8
272,48,12099,6,0,B|272:104,8,40,0|8|0|8|0|8|0|8|0
368,48,13088,5,8
368,144,13418,6,0,B|432:208,1,80,0|8
424,248,13748,6,0,B|352:320,1,80,0|8
320,304,14077,6,0,B|256:232,1,80,0|8
264,192,14407,6,0,B|352:120,1,80,0|8
376,144,14737,6,0,B|448:216,1,80,0|8
424,248,15066,6,0,B|344:320,1,80,0|8
312,304,15396,6,0,B|224:304,1,80,0|8
184,304,15726,6,0,B|184:208,1,80,0|8
184,176,16055,6,0,B|88:-88|8:176,1,320,0|8
208,176,17374,6,0,B|288:-88|384:176,1,320,0|8
184,176,18693,6,0,B|88:-80|8:176,1,320,0|8
176,192,20011,5,0
176,192,20175,5,0
208,152,20340,6,8,B|208:240,1,80
240,192,20669,5,0
312,120,21000,5,8
384,48,21330,5,0
432,48,21495,6,0,B|432:144,1,80,8|0
432,176,21825,5,8
432,224,21989,6,0,B|432:320,1,80,0|8
384,304,22319,5,0
344,304,22484,6,0,B|240:304,1,80,8|0
216,304,22814,5,8
168,304,22978,6,0,B|168:192,1,80,0|8
216,224,23308,5,0
264,224,23473,6,0,B|360:224,1,80,8|0
344,176,23803,5,8
344,128,23967,6,0,B|344:32,1,80,0|8
296,48,24297,5,0
248,48,24462,6,0,B|144:48,1,80,8|0
120,48,24792,5,8
72,48,24956,6,0,B|72:152,1,80,0|8
72,176,25286,5,0
120,176,25451,6,0,B|216:176,1,80,8|0
248,176,25781,5,8
96,112,26605,5,0
96,64,26770,6,0,B|104:24|168:24,1,80,8|0
208,24,27099,5,8
256,24,27264,6,0,B|320:24|328:96,1,80,0|8
320,112,27594,5,0
320,160,27759,6,0,B|320:216|400:200,1,80,8|0
424,200,28088,5,8
424,248,28253,6,0,B|424:296|368:288,1,80,0|8
320,288,28583,5,0
272,288,28748,6,0,B|208:288|208:224,1,80,8|0
208,200,29077,5,8
208,152,29242,6,0,B|208:96|160:96,1,80,0|8
112,96,29572,5,0
64,96,29737,6,0,B|16:96|16:152,1,80,8|0
16,192,30066,5,8
16,240,30231,6,0,B|16:336,1,80,0|8
64,320,30561,6,0,B|240:320,1,160,0|8
224,272,31055,5,8
72,32,31879,6,0,B|72:128,1,80,0|8
120,112,32209,6,0,B|120:16,1,80,0|8
168,32,32539,6,0,B|168:128,1,80,0|8
216,112,32868,6,0,B|216:16,1,80,0|8
264,32,33198,6,0,B|264:128,1,80,0|8
312,112,33528,6,0,B|312:16,1,80,0|8
360,32,33858,6,0,B|360:128,1,80,0|8
408,112,34187,6,0,B|408:16,1,80,0|8
464,112,34682,6,0,B|528:192|456:272,1,160
416,256,35176,5,8
320,256,35506,6,0,B|320:160,1,80,0|8
320,128,35836,6,0,B|320:56|240:24|200:24,1,160
168,24,36330,5,8
24,192,37154,6,0,B|40:152|88:128,3,80,0|8|0|8
128,136,37814,6,0,B|168:160|184:200,3,80,0|8|0|8
232,192,38473,6,0,B|248:152|296:128,3,80,0|8|0|8
336,136,39132,6,0,B|376:160|392:200,3,80,0|8|0|8
440,192,39792,6,0,B|456:152|504:128,3,80,0|8|0|8
488,80,40451,6,0,B|448:56|432:16,3,80,0|8|0|8
384,24,41110,6,8,B|384:104|288:152,1,160
248,152,41605,5,8
496,128,42429,6,0,B|456:152|440:192,3,80,0|8|0|8
392,184,43088,6,0,B|376:144|328:120,3,80,0|8|0|8
288,128,43747,6,0,B|248:152|232:192,3,80,0|8|0|8
184,184,44407,6,0,B|168:144|120:120,3,80,0|8|0|8
80,128,45066,6,0,B|40:152|24:192,3,80,0|8|0|8
24,232,45725,6,0,B|24:320,1,80,0|8
72,312,46055,6,0,B|168:312,1,80,0|8
200,312,46385,6,8,B|296:312|296:208,1,160,0|8
296,160,46879,5,8
0,136,47704,5,8
40,160,47869,5,0
72,200,48033,5,8
88,248,48198,5,0
104,200,48363,5,8
136,160,48528,5,0
176,136,48693,5,8
216,160,48858,5,0
248,200,49022,5,8
264,248,49187,5,0
280,200,49352,5,8
312,160,49517,5,0
352,136,49682,5,8
392,160,49847,5,0
424,200,50011,5,8
440,248,50176,5,0
456,200,50341,5,8
488,160,50506,5,0
496,112,50671,5,8
456,80,50836,5,0
408,64,51000,5,8
360,56,51165,5,0
312,56,51330,5,8
264,72,51495,5,0
224,96,51660,5,8
192,128,51825,5,0
168,168,51989,5,8
160,216,52154,5,8
288,192,52978,5,0
288,192,53142,5,0
256,152,53307,6,8,B|256:240,1,80
216,192,53636,5,0
280,264,53967,5,8
360,192,54297,6,8,B|304:88|248:200,1,160,0|8
152,192,54956,6,8,B|96:88|40:200,1,160,0|8
168,192,55616,5,0
168,192,55780,5,0
208,144,55945,6,8,B|208:232,1,80,8|8
248,192,56274,5,0
248,96,56605,5,8
192,176,56934,6,8,B|248:72|304:184,1,160,0|8
400,184,57594,6,8,B|456:80|512:192,1,160,0|8
504,88,58253,5,0
424,24,58583,5,8
328,24,58912,5,0
240,72,59242,5,8
200,160,59572,5,0
184,256,59901,5,8
176,352,60231,5,0
144,256,60561,5,8
104,168,60890,6,0,B|232:8|408:80,1,320,0|8
256,48,62209,5,0
304,48,62374,5,8
304,96,62539,5,0
304,144,62704,5,8
304,240,63033,5,0
304,240,63198,5,8
464,32,63528,5,0
416,32,63693,5,8
416,80,63858,5,0
416,128,64022,5,8
368,104,64187,5,0
320,88,64352,5,8
272,104,64517,5,0
232,136,64682,5,8
232,184,64847,5,0
272,216,65011,5,8
320,232,65176,5,0
368,216,65341,5,8
416,200,65506,5,0
416,248,65671,5,8
416,296,65836,5,0
416,344,66000,5,8
368,344,66165,5,0
320,344,66330,5,8
272,344,66495,5,0
224,344,66660,5,8
176,344,66825,5,0
128,344,66989,5,8
80,344,67154,5,0
32,344,67319,5,8
32,296,67484,6,0,B|32:208,2,80,0|8|0
128,296,68143,5,8
48,32,68803,5,0
48,80,68967,5,8
48,128,69132,5,0
48,176,69297,5,8
96,176,69462,5,0
128,136,69627,5,8
160,96,69792,5,0
192,56,69956,5,8
224,16,70121,5,0
248,56,70286,5,8
272,96,70451,5,0
296,136,70616,5,8
320,176,70781,5,0
344,216,70945,5,8
368,256,71110,5,0
392,296,71275,5,8
344,320,71440,5,0
296,296,71605,5,8
256,272,71770,5,0
208,264,71934,5,8
160,272,72099,5,0
112,296,72264,5,8
64,320,72429,5,0
16,320,72594,5,8
16,272,72759,6,0,B|16:184,2,80,0|8|0
16,176,73418,5,8
128,360,74077,6,0,B|32:360,1,80,0|8
176,312,74407,6,0,B|80:312,1,80
224,264,74737,6,0,B|120:264,1,80,0|8
272,216,75066,6,0,B|176:216,1,80
320,168,75396,6,0,B|224:168,1,80
368,120,75726,6,0,B|264:120,1,80,0|8
408,72,76055,6,0,B|312:72,1,80,0|8
448,24,76385,6,0,B|344:24,1,80,0|8
288,24,76715,6,0,B|-80:0|-144:424|456:424|616:272|432:-32|248:16|-80:184|328:192,1,1120,0|0
192,224,79352,5,14
