osu file format v5

[General]
AudioFilename: 213 - Ping-Pong.mp3
AudioLeadIn: 3000
PreviewTime: -1
Countdown: 1
SampleSet: Normal
StackLeniency: 0.7
Mode: 0
LetterboxInBreaks: 1
SkinPreference:Default
EditorDistanceSpacing: 0.699999988079071

[Metadata]
Title:Ping-Pong
Artist:Tsunku
Creator:Rawrgasmitron
Version:Melody Master
Source:Rhythm Tengoku Gold
Tags:Nintendo rhythm heaven table tennis ping pong

[Difficulty]
HPDrainRate:7
CircleSize:6
OverallDifficulty:8
SliderMultiplier:0.5
SliderTickRate:1

[Events]
//Background and Video events
0,0,"table copy.jpg"
//Break Periods
//Storyboard Layer 0 (Background)
//Storyboard Layer 1 (Failing)
//Storyboard Layer 2 (Passing)
//Storyboard Layer 3 (Foreground)
//Storyboard Sound Samples
//Background Colour Transformations
3,100,163,162,255

[TimingPoints]
2869,329.67032967033,4,1,1,100,1,0
63021,-100,4,1,1,100,0,1
78998,-100,4,1,1,100,0,0
79340,-100,4,1,1,100,0,1

[Colours]
Combo1 : 255,128,255
Combo2 : 128,255,128
Combo3 : 255,128,64
Combo4 : 255,255,128

[HitObjects]
256,192,219,1,0
256,192,878,1,8
256,192,1538,5,0
256,192,1867,5,0
256,192,2197,5,8
256,104,3033,5,0
312,104,3363,1,0
336,104,3528,1,0
392,104,3858,1,8
392,160,4187,2,0,B|392:192|352:192,1,50,0|8
304,192,4847,1,0
248,192,5176,2,0,B|248:224,1,25
248,272,5671,1,8
192,272,6000,2,0,B|160:272,1,25
112,272,6495,1,8
112,216,6825,2,0,B|112:160,1,50
112,112,7484,2,0,B|168:112,1,50,0|8
360,64,8308,5,0
360,120,8638,2,0,B|336:144,1,25
296,176,9132,1,8
336,216,9462,2,0,B|368:216|384:248,1,50,0|8
376,296,10121,2,0,B|352:320|320:304,1,50,0|8
330,308,10616,1,0
272,304,10945,1,0
272,248,11275,1,0
272,248,11440,1,0
216,248,11770,1,8
216,192,12099,2,0,B|216:160|192:144,1,50
196,147,12594,1,8
256,296,13583,5,0
256,240,13912,6,0,B|288:240,1,25
280,184,14407,5,8
224,184,14737,5,0
168,184,15066,5,8
168,184,15231,1,8
88,184,15726,5,0
256,192,16055,12,8,20671
80,56,21330,5,0
136,56,21660,1,8
136,112,21989,1,0
192,112,22319,1,8
248,112,22649,1,0
304,112,22978,1,8
304,56,23308,1,0
360,56,23638,1,8
280,56,24132,1,0
224,56,24462,2,0,B|224:88,1,25
224,136,24956,1,8
224,192,25286,1,0
280,192,25616,1,0
280,192,25781,1,8
392,112,26605,5,0
352,72,26934,1,8
312,112,27264,2,0,B|296:144|264:136,1,50,0|8
192,136,28088,1,0
136,136,28418,2,0,B|112:136|112:152,1,25
112,200,28912,1,8
112,280,29407,1,0
168,280,29737,2,0,B|192:280|192:296,1,25
248,288,30231,1,0
272,288,30396,1,8
296,288,30561,1,0
352,288,30890,2,0,B|368:272|360:256,1,25,0|8
352,128,31879,5,0
296,128,32209,5,8
296,72,32539,5,0
240,72,32869,5,8
240,128,33198,5,0
296,128,33528,5,8
296,72,33858,5,0
240,72,34187,5,8
160,72,34682,5,0
160,128,35011,5,0
160,128,35176,1,8
160,184,35506,5,0
160,184,35671,1,0
160,184,35836,2,0,B|160:240,1,50
160,234,36330,5,8
256,136,37154,5,0
256,192,37484,1,8
256,248,37814,1,0
256,192,38143,1,8
256,136,38473,1,0
256,192,38803,1,8
256,248,39132,1,0
256,304,39462,1,8
336,304,39956,1,0
392,304,40286,2,0,B|424:304,1,25
456,264,40781,1,8
416,224,41110,1,0
456,184,41440,1,0
456,184,41605,1,8
104,56,42429,5,0
144,88,42759,1,8
184,120,43088,1,0
224,152,43418,1,8
280,208,43912,1,0
320,248,44242,1,0
320,248,44407,1,0
360,288,44737,1,8
440,288,45231,1,0
440,232,45561,1,0
440,200,45726,1,0
440,144,46055,1,0
416,128,46220,1,0
392,144,46385,1,8
392,88,46715,1,0
392,88,46879,1,8
104,192,47704,5,0
160,192,48033,1,8
216,192,48363,1,0
272,192,48693,1,8
192,192,49187,5,0
248,192,49517,1,0
272,192,49682,1,0
328,192,50011,1,8
248,192,50506,5,0
304,192,50836,1,0
328,192,51000,1,0
384,192,51330,5,0
384,192,51495,1,8
384,192,51660,1,0
440,192,51989,2,0,B|472:192,1,25,0|8
320,56,52978,5,0
264,56,53308,1,8
208,56,53638,1,0
152,56,53967,1,8
152,112,54297,2,0,B|160:136|192:144,1,50,0|8
136,136,54956,2,0,B|144:160|176:168,1,50,0|8
192,56,55616,5,0
248,56,55946,1,8
304,56,56276,1,0
360,56,56605,1,8
360,112,56935,2,0,B|352:136|320:144,1,50,0|8
376,136,57594,2,0,B|368:160|336:168,1,50,0|8
328,272,58253,5,0
184,272,58583,5,8
184,128,58912,5,0
328,128,59242,5,8
184,128,59572,5,0
184,272,59901,5,8
328,272,60231,5,0
328,128,60561,5,8
184,128,60890,6,0,B|344:128,1,150,0|8
256,208,62209,5,0
256,208,62374,5,0
256,208,62539,5,0
256,208,62704,5,8
256,152,63033,5,0
256,152,63198,5,8
256,72,63693,5,0
312,80,64022,2,0,B|328:80|344:96,1,25
384,120,64517,1,8
424,160,64847,2,0,B|448:184|440:216,1,50
440,256,65506,1,0
424,312,65836,2,0,B|416:328|400:328,1,25
352,344,66330,1,8
296,352,66660,2,0,B|280:352|264:352,1,25
216,344,67154,1,8
160,320,67484,2,0,B|136:304|128:280,1,50,0|8
104,232,68143,2,0,B|88:208|88:176,1,50,0|8
64,24,68967,5,0
120,24,69297,1,0
136,48,69462,1,0
168,96,69792,1,8
208,64,70121,1,0
248,96,70451,1,8
288,128,70781,1,0
328,96,71110,1,0
352,96,71275,1,0
408,96,71605,1,8
408,152,71934,1,0
408,176,72099,1,0
408,232,72429,1,8
368,272,72759,1,0
320,304,73088,1,0
320,328,73253,1,8
256,144,74242,5,0
256,200,74572,2,0,B|264:216|280:216,1,25
328,216,75066,1,8
368,176,75396,5,0
368,120,75726,1,0
368,120,75890,1,0
304,64,76385,1,0
256,40,76715,6,0,B|160:104|240:168|344:144|360:208|296:280|200:184|184:328|264:352,1,400,0|14
