osu file format v14

[General]
AudioFilename: [Rhythm Heaven Fever] - Karate Man (Perfect).mp3
AudioLeadIn: 0
PreviewTime: 53906
Countdown: 1
SampleSet: Normal
StackLeniency: 0.7
Mode: 0
LetterboxInBreaks: 1
StoryFireInFront: 0
WidescreenStoryboard: 1

[Editor]
DistanceSpacing: 0.7
BeatDivisor: 4
GridSize: 32
TimelineZoom: 1

[Metadata]
Title:Lonely Storm
TitleUnicode:Lonely Storm
Artist:Tsunku
ArtistUnicode:Tsunku
Creator:Cuppacker
Version:Normal
Source:Rhythm Heaven Fever
Tags:English Nintendo Rhythm Heaven
BeatmapID:751585
BeatmapSetID:332377

[Difficulty]
HPDrainRate:3
CircleSize:4
OverallDifficulty:3
ApproachRate:4
SliderMultiplier:1
SliderTickRate:1

[Events]
//Background and Video events
Video,0,"ds1.avi"
0,0,"Karate Man.jpg",0,0
//Break Periods
//Storyboard Layer 0 (Background)
//Storyboard Layer 1 (Fail)
//Storyboard Layer 2 (Pass)
//Storyboard Layer 3 (Foreground)
//Storyboard Sound Samples

[TimingPoints]
10890,333.333333333333,4,1,0,100,1,0
78889,-100,4,1,0,100,0,1
94223,-100,4,1,0,100,0,0

[Colours]
Combo1 : 0,64,0
Combo2 : 128,64,0
Combo3 : 0,0,160
Combo4 : 255,0,0

[HitObjects]
128,96,15223,6,0,L|288:96,1,150
256,192,16223,6,4,L|160:160,1,100
96,96,16890,5,0,0:0:0:0:
224,96,17556,1,0,0:0:0:0:
192,256,18306,2,2,L|256:256,3,50,0|2|2|2,0:0|0:0|0:0|0:0,0:0:0:0:
160,96,19889,1,0,0:0:0:0:
224,32,20223,1,0,0:0:0:0:
288,96,20556,1,0,0:0:0:0:
256,256,21223,5,0,0:0:0:0:
128,256,21889,1,4,0:0:0:0:
160,64,22556,2,0,P|224:32|288:128,1,175
224,128,23556,1,0,0:0:0:0:
128,96,24889,5,0,0:0:0:0:
224,128,25556,1,0,0:0:0:0:
96,96,26223,1,0,0:0:0:0:
352,96,26556,1,0,0:0:0:0:
352,224,26889,1,0,0:0:0:0:
224,256,27556,5,0,0:0:0:0:
160,224,27889,1,0,0:0:0:0:
128,96,28556,6,0,P|256:160|224:192,1,250
96,192,29890,1,8,0:0:0:0:
352,288,30556,1,8,0:0:0:0:
352,224,30889,1,8,0:0:0:0:
288,96,31556,1,0,0:0:0:0:
192,192,31889,1,0,0:0:0:0:
320,192,32556,1,0,0:0:0:0:
64,96,32890,5,0,0:0:0:0:
192,96,33556,1,0,0:0:0:0:
320,288,33890,5,0,0:0:0:0:
384,160,34223,1,0,0:0:0:0:
288,160,34890,1,0,0:0:0:0:
224,96,35223,1,0,0:0:0:0:
416,64,36223,5,0,0:0:0:0:
320,64,36556,1,0,0:0:0:0:
160,192,37556,5,0,0:0:0:0:
352,192,37890,1,0,0:0:0:0:
352,256,38223,1,0,0:0:0:0:
224,64,39223,5,0,0:0:0:0:
160,160,39556,2,0,L|288:224,2,125
128,256,40890,1,0,0:0:0:0:
128,96,41223,5,0,0:0:0:0:
224,160,41556,1,0,0:0:0:0:
320,64,41890,1,0,0:0:0:0:
224,64,42223,1,0,0:0:0:0:
128,64,42556,5,0,0:0:0:0:
256,192,42890,1,0,0:0:0:0:
160,288,43223,1,0,0:0:0:0:
160,96,43890,1,0,0:0:0:0:
288,128,44223,1,0,0:0:0:0:
384,128,44556,1,0,0:0:0:0:
320,288,44890,5,0,0:0:0:0:
224,224,45223,1,0,0:0:0:0:
320,128,45556,5,0,0:0:0:0:
352,224,45890,1,0,0:0:0:0:
160,96,46223,1,0,0:0:0:0:
192,160,46556,5,0,0:0:0:0:
320,256,46889,1,0,0:0:0:0:
384,128,47223,5,0,0:0:0:0:
288,64,47556,1,0,0:0:0:0:
256,192,48223,1,0,0:0:0:0:
128,192,48473,2,0,L|128:96,2,75
384,96,49556,5,0,0:0:0:0:
288,64,49890,1,0,0:0:0:0:
192,96,50223,1,0,0:0:0:0:
224,224,50556,5,0,0:0:0:0:
352,128,50890,1,0,0:0:0:0:
224,128,51223,1,0,0:0:0:0:
224,256,51889,2,0,B|384:256|384:256|416:224,1,200
416,128,53056,2,0,B|160:128|160:128|128:224,1,350
192,96,54889,1,0,0:0:0:0:
160,160,55223,2,0,P|160:224|192:256,1,100
288,224,55890,1,0,0:0:0:0:
320,128,56223,1,0,0:0:0:0:
384,288,57223,5,0,0:0:0:0:
192,288,57556,1,0,0:0:0:0:
128,160,57890,1,0,0:0:0:0:
128,224,58223,2,0,P|128:288|160:320,1,100
192,288,58890,5,0,0:0:0:0:
192,128,59223,1,0,0:0:0:0:
288,128,59556,1,0,0:0:0:0:
288,64,59890,1,0,0:0:0:0:
64,224,60223,1,0,0:0:0:0:
160,224,60556,6,0,L|320:224,1,150
288,96,61223,1,0,0:0:0:0:
224,128,61556,1,0,0:0:0:0:
192,224,61890,1,0,0:0:0:0:
96,192,62223,1,0,0:0:0:0:
128,96,62556,5,0,0:0:0:0:
256,128,62890,1,0,0:0:0:0:
288,256,63556,1,0,0:0:0:0:
192,128,64223,1,4,0:0:0:0:
352,192,64889,5,0,0:0:0:0:
224,224,65223,1,0,0:0:0:0:
160,128,65556,1,0,0:0:0:0:
32,192,66223,5,0,0:0:0:0:
224,224,66556,1,0,0:0:0:0:
160,96,66890,1,0,0:0:0:0:
288,160,67556,1,0,0:0:0:0:
256,224,67890,1,0,0:0:0:0:
192,192,68223,1,0,0:0:0:0:
128,64,68889,1,0,0:0:0:0:
256,64,69556,1,0,0:0:0:0:
352,160,70556,6,0,L|288:160,2,50
160,160,71890,1,0,0:0:0:0:
384,160,72556,1,0,0:0:0:0:
160,160,73223,1,0,0:0:0:0:
384,160,73890,1,0,0:0:0:0:
320,128,74223,6,0,B|224:160|224:160|128:128,1,200
130,128,75556,1,0,0:0:0:0:
256,128,76223,1,0,0:0:0:0:
256,192,76889,12,0,81223,0:0:0:0:
128,96,81889,5,0,0:0:0:0:
256,96,82556,1,0,0:0:0:0:
256,192,83223,1,0,0:0:0:0:
384,192,83889,1,0,0:0:0:0:
384,64,84556,2,0,B|224:64|224:64|192:96,1,200
192,224,85889,2,0,B|224:256|224:256|288:224|288:224,1,100
160,160,86889,5,0,0:0:0:0:
288,160,87556,1,0,0:0:0:0:
224,288,88223,1,0,0:0:0:0:
224,160,88889,1,0,0:0:0:0:
160,160,89223,1,0,0:0:0:0:
160,96,89556,1,0,0:0:0:0:
224,96,89889,5,0,0:0:0:0:
288,96,90223,1,0,0:0:0:0:
288,224,90889,1,0,0:0:0:0:
192,128,91556,1,0,0:0:0:0:
192,64,91889,1,0,0:0:0:0:
256,64,92223,2,0,P|352:128|320:192,1,200
160,128,93223,5,0,0:0:0:0:
224,128,93556,1,0,0:0:0:0:
224,192,93889,1,0,0:0:0:0:
160,192,94223,1,0,0:0:0:0:
416,128,94889,5,0,0:0:0:0:
416,192,95223,1,0,0:0:0:0:
352,128,95556,1,0,0:0:0:0:
352,192,95889,1,0,0:0:0:0:
224,128,96556,2,0,B|352:128|352:128|352:320|352:320,1,300
256,320,98056,6,0,B|256:192|256:192|192:192|192:192|192:128,1,250
128,128,99889,1,0,0:0:0:0:
256,128,100556,1,0,0:0:0:0:
256,224,101223,1,0,0:0:0:0:
128,224,101889,5,0,0:0:0:0:
224,128,102556,1,0,0:0:0:0:
320,160,103056,1,0,0:0:0:0:
320,224,103223,1,0,0:0:0:0:
416,128,103889,5,0,0:0:0:0:
320,224,104556,1,0,0:0:0:0:
224,128,105223,5,0,0:0:0:0:
128,224,105889,1,0,0:0:0:0:
352,224,106889,2,0,P|352:64|224:64,1,300
288,160,108389,1,0,0:0:0:0:
288,256,108889,6,0,L|192:192,2,100
288,128,110223,1,0,0:0:0:0:
160,128,110889,1,0,0:0:0:0:
160,256,111556,1,0,0:0:0:0:
288,192,112223,5,0,0:0:0:0:
288,64,112889,2,0,P|128:64|128:192,1,300
192,192,114223,1,0,0:0:0:0:
320,192,114889,1,0,0:0:0:0:
192,128,115556,5,0,0:0:0:0:
320,96,116223,1,0,0:0:0:0:
192,64,116889,1,0,0:0:0:0:
480,64,118223,1,0,0:0:0:0:
128,64,119556,5,0,0:0:0:0:
384,192,120889,1,0,0:0:0:0:
96,192,122223,1,0,0:0:0:0:
384,128,123556,1,0,0:0:0:0:
96,128,124889,5,0,0:0:0:0:
256,352,126223,1,0,0:0:0:0:
448,160,127556,1,0,0:0:0:0:
224,160,128556,1,0,0:0:0:0:
224,96,128889,1,0,0:0:0:0:
288,128,129223,1,0,0:0:0:0:
416,96,129889,5,0,0:0:0:0:
416,160,130223,1,0,0:0:0:0:
352,128,130556,1,0,0:0:0:0:
224,128,131223,1,0,0:0:0:0:
96,128,131889,1,0,0:0:0:0:
192,224,132556,5,0,0:0:0:0:
256,224,132890,1,0,0:0:0:0:
224,160,133223,1,0,0:0:0:0:
96,128,133889,1,0,0:0:0:0:
224,128,134556,5,0,0:0:0:0:
352,128,135223,1,0,0:0:0:0:
352,192,135556,1,0,0:0:0:0:
352,256,135889,1,0,0:0:0:0:
192,128,136889,6,0,P|256:128|256:160,1,100
192,256,137889,2,0,L|256:256,2,50
192,192,138389,1,0,0:0:0:0:
256,192,140223,12,0,143556,0:0:0:0:
