osu file format v14

[General]
AudioFilename: [Rhythm Heaven Fever] - Karate Man (Perfect).mp3
AudioLeadIn: 0
PreviewTime: 53917
Countdown: 1
SampleSet: Normal
StackLeniency: 0.7
Mode: 0
LetterboxInBreaks: 1
StoryFireInFront: 0
WidescreenStoryboard: 0

[Editor]
DistanceSpacing: 0.7
BeatDivisor: 4
GridSize: 32
TimelineZoom: 1

[Metadata]
Title:Lonely Storm
TitleUnicode:Lonely Storm
Artist:Tsunku
ArtistUnicode:Tsunku
Creator:Cuppacker
Version:Easy
Source:Rhythm Heaven Fever
Tags:English Nintendo Rhythm Heaven
BeatmapID:752060
BeatmapSetID:332377

[Difficulty]
HPDrainRate:2
CircleSize:4
OverallDifficulty:2
ApproachRate:2
SliderMultiplier:1
SliderTickRate:1

[Events]
//Background and Video events
Video,0,"ds1.avi"
0,0,"Karate Man.jpg",0,0
//Break Periods
//Storyboard Layer 0 (Background)
//Storyboard Layer 1 (Fail)
//Storyboard Layer 2 (Pass)
//Storyboard Layer 3 (Foreground)
//Storyboard Sound Samples

[TimingPoints]
10890,333.333333333333,4,1,0,100,1,0
75556,-100,4,1,0,100,0,1
90889,-100,4,1,0,100,0,0

[HitObjects]
224,128,10890,5,0,0:0:0:0:
224,192,12223,1,0,0:0:0:0:
384,64,13556,1,0,0:0:0:0:
128,64,14890,1,0,0:0:0:0:
96,96,16556,5,0,0:0:0:0:
192,192,16890,1,0,0:0:0:0:
128,128,18223,1,0,0:0:0:0:
192,192,18556,1,0,0:0:0:0:
160,96,19556,1,0,0:0:0:0:
288,96,20223,1,0,0:0:0:0:
256,256,20890,5,0,0:0:0:0:
224,192,21556,1,4,0:0:0:0:
224,128,22556,6,0,L|320:192,1,100
160,128,23223,6,0,L|416:128,1,250
448,224,24556,2,0,L|160:224|128:224,1,300
128,96,25889,5,0,0:0:0:0:
224,128,26556,1,0,0:0:0:0:
352,96,27223,1,0,0:0:0:0:
320,288,27890,1,0,0:0:0:0:
96,96,28556,2,0,P|256:64|256:128,1,275
192,128,29890,1,0,0:0:0:0:
416,128,30556,1,0,0:0:0:0:
192,192,31223,1,0,0:0:0:0:
128,64,31556,5,0,0:0:0:0:
256,128,32223,2,0,L|384:128,2,125
224,96,35223,5,0,0:0:0:0:
320,192,35556,1,0,0:0:0:0:
224,192,35890,2,0,P|128:96|224:32,1,275
192,96,37556,5,0,0:0:0:0:
192,96,38223,1,0,0:0:0:0:
288,96,38556,2,0,L|352:96,2,50
224,64,39556,5,0,0:0:0:0:
256,160,39890,1,0,0:0:0:0:
288,256,40556,1,0,0:0:0:0:
128,256,40890,1,0,0:0:0:0:
128,96,41223,5,0,0:0:0:0:
320,64,41890,1,0,0:0:0:0:
352,224,42556,1,0,0:0:0:0:
256,192,42890,1,0,0:0:0:0:
160,288,43223,1,0,0:0:0:0:
288,128,44223,5,0,0:0:0:0:
384,128,44556,1,0,0:0:0:0:
224,224,45223,1,0,0:0:0:0:
320,128,45556,5,0,0:0:0:0:
160,96,46223,1,0,0:0:0:0:
256,224,46556,1,0,0:0:0:0:
384,128,47223,1,0,0:0:0:0:
160,224,48223,5,0,0:0:0:0:
288,256,48556,1,0,0:0:0:0:
224,128,48890,1,0,0:0:0:0:
384,96,49556,1,0,0:0:0:0:
224,224,50556,1,0,0:0:0:0:
224,128,51223,5,0,0:0:0:0:
160,256,51890,1,0,0:0:0:0:
256,256,52223,1,0,0:0:0:0:
288,192,52556,1,0,0:0:0:0:
256,192,52973,12,0,55473,0:0:0:0:
64,128,55889,5,0,0:0:0:0:
192,96,56223,1,0,0:0:0:0:
320,128,56889,1,0,0:0:0:0:
384,128,57223,5,0,0:0:0:0:
192,288,57556,1,0,0:0:0:0:
256,96,58223,1,0,0:0:0:0:
224,224,58889,5,0,0:0:0:0:
128,128,59223,1,0,0:0:0:0:
224,128,59556,1,0,0:0:0:0:
288,128,60223,1,0,0:0:0:0:
288,96,61223,5,0,0:0:0:0:
224,128,61556,1,0,0:0:0:0:
192,224,61890,1,0,0:0:0:0:
96,192,62223,1,0,0:0:0:0:
128,96,62556,1,0,0:0:0:0:
256,128,62890,1,0,0:0:0:0:
288,256,63556,1,0,0:0:0:0:
192,128,64223,1,0,0:0:0:0:
288,96,64556,1,0,0:0:0:0:
352,192,64889,5,0,0:0:0:0:
224,224,65223,1,0,0:0:0:0:
160,128,65556,1,0,0:0:0:0:
32,192,66223,5,0,0:0:0:0:
224,224,66556,1,0,0:0:0:0:
160,96,66890,1,0,0:0:0:0:
288,160,67556,1,0,0:0:0:0:
64,96,69556,6,0,L|320:256,1,300
192,96,70890,2,0,L|256:96,3,50
160,160,71890,1,0,0:0:0:0:
384,160,72556,1,0,0:0:0:0:
160,160,73223,1,0,0:0:0:0:
384,160,73890,1,0,0:0:0:0:
96,96,74556,1,0,0:0:0:0:
256,192,75556,12,0,80223,0:0:0:0:
160,96,80889,5,0,0:0:0:0:
288,96,81556,1,0,0:0:0:0:
352,288,82223,2,0,L|160:224,1,200
96,96,84223,1,0,0:0:0:0:
224,96,84889,1,0,0:0:0:0:
224,224,85556,1,0,0:0:0:0:
352,224,86223,1,0,0:0:0:0:
352,96,86889,1,0,0:0:0:0:
224,96,87556,5,0,0:0:0:0:
224,224,88223,1,0,0:0:0:0:
352,224,88889,2,0,P|384:128|320:64,1,200
192,96,90223,2,0,B|192:224|224:224|288:256,1,200
384,160,91556,1,0,0:0:0:0:
256,160,92223,5,0,0:0:0:0:
288,288,92889,1,0,0:0:0:0:
416,288,93556,1,0,0:0:0:0:
416,160,94223,5,0,0:0:0:0:
192,160,95223,1,0,0:0:0:0:
384,64,96223,1,0,0:0:0:0:
192,128,97223,1,0,0:0:0:0:
384,224,98223,1,0,0:0:0:0:
160,288,99223,1,0,0:0:0:0:
160,96,100223,2,0,P|384:96|384:224,1,400
256,192,102223,1,0,0:0:0:0:
256,320,102889,2,0,L|96:192,1,200
224,160,104223,5,0,0:0:0:0:
448,160,105223,1,0,0:0:0:0:
160,160,106556,5,0,0:0:0:0:
192,96,106889,1,0,0:0:0:0:
224,160,108223,1,0,0:0:0:0:
256,96,109556,1,0,0:0:0:0:
160,96,110889,1,0,0:0:0:0:
448,96,112223,1,0,0:0:0:0:
256,288,113556,5,0,0:0:0:0:
96,64,114889,1,0,0:0:0:0:
384,64,116223,1,0,0:0:0:0:
256,320,117556,1,0,0:0:0:0:
416,96,118889,1,0,0:0:0:0:
256,192,119806,1,0,0:0:0:0:
128,128,121556,1,0,0:0:0:0:
128,128,122889,2,0,B|448:128|448:128|448:224,1,400
320,224,124889,2,0,B|32:224|32:224|32:192|32:96,1,425
128,160,126889,5,0,0:0:0:0:
128,96,128223,1,0,0:0:0:0:
416,96,129556,1,0,0:0:0:0:
352,288,130556,1,0,0:0:0:0:
96,160,131889,1,0,0:0:0:0:
160,160,132223,1,0,0:0:0:0:
448,160,133556,1,0,0:0:0:0:
224,128,134889,5,0,0:0:0:0:
224,192,136222,1,0,0:0:0:0:
384,64,137555,1,0,0:0:0:0:
128,64,138723,1,0,0:0:0:0:
256,192,139556,12,0,142556,0:0:0:0:
