osu file format v9

[General]
AudioFilename: 03 - Green Construction.mp3
AudioLeadIn: 0
PreviewTime: 79656
Countdown: 0
SampleSet: Soft
StackLeniency: 0.7
Mode: 0
LetterboxInBreaks: 1

[Editor]
DistanceSpacing: 0.8
BeatDivisor: 8
GridSize: 4

[Metadata]
Title:Green Construction
Artist:Tsunku
Creator:Bass-chan
Version:Hard
Source:Rhythm Tengoku Gold
Tags:masami yome backfire ozzyozrock rhythm paradise rhythm heaven built to scale hyguys

[Difficulty]
HPDrainRate:5
CircleSize:4
OverallDifficulty:6
ApproachRate:7
SliderMultiplier:1.9
SliderTickRate:2

[Events]
//Background and Video events
0,0,"greenconstruction.png"
//Break Periods
2,44507,47364
//Storyboard Layer 0 (Background)
//Storyboard Layer 1 (Fail)
//Storyboard Layer 2 (Pass)
//Storyboard Layer 3 (Foreground)
Sprite,Foreground,Centre,"hard.PNG",320,240 F,0,-4165,-3859,0,1 F,0,-3859,-798,1 F,0,-798,-186,1,0
Sprite,Foreground,Centre,"spotlight.png",320,240 S,0,79258,,1,2.55584 M,0,79258,79713,311,238,454,257 M,0,79713,79940,454,257,451,332 M,0,79940,80054,451,332,414,356 M,0,80054,80167,414,356,380,374 M,0,80167,80281,380,374,351,411 M,0,80281,80394,351,411,319,419 M,0,80394,80508,319,419,268,411 M,0,80508,80622,268,411,239,370 M,0,80622,80735,239,370,211,356 M,0,80735,80849,211,356,175,325 M,0,80849,80963,175,325,153,288 M,0,80963,81076,153,288,151,241 M,0,81076,81531,151,241,168,87 M,0,81531,81872,168,87,225,178 M,0,81872,82213,225,178,298,108 M,0,82213,82554,298,108,372,176 M,0,82554,82894,372,176,433,91 M,0,82894,,433,91 M,0,82894,83349,433,91,476,237 M,0,83349,,476,237 M,0,83349,83463,476,237,447,261 M,0,83463,,447,261 M,0,83463,83576,447,261,409,301 M,0,83576,83690,409,301,377,305 M,0,83690,,377,305 M,0,83690,83804,377,305,379,350 M,0,83804,,379,350 M,0,83804,84258,379,350,210,338 M,0,84258,,210,338 M,0,84258,84372,210,338,204,303 M,0,84372,84485,204,303,167,280 M,0,84485,84599,167,280,133,256 M,0,84599,84713,133,256,107,226 M,0,84713,85167,107,226,300,187 M,0,85167,,300,187 M,0,85167,85622,300,187,191,92 M,0,85622,85849,191,92,207,167 M,0,85849,86076,207,167,143,181 M,0,86076,86304,143,181,179,243 M,0,86304,86531,179,243 M,0,86531,86985,179,243,208,373 M,0,86985,87099,208,373,166,353 M,0,87099,87213,166,353,133,346 M,0,87213,87326,133,346,98,322 M,0,87326,87440,98,322,124,353 M,0,87440,87554,124,353,173,363 M,0,87554,87667,173,363,202,388 M,0,87667,87781,202,388,170,351 M,0,87781,87894,170,351,129,342 M,0,87894,88008,129,342,96,327 M,0,88008,88349,96,327 M,0,88349,88463,96,311,171,340 M,0,88463,88804,171,340,388,376 M,0,88804,88917,388,376,424,354 M,0,88917,89031,424,354,469,330 M,0,89031,89144,469,330,500,307 M,0,89144,89258,500,307,469,335 M,0,89258,89372,469,335,427,358 M,0,89372,89485,427,358,387,383 M,0,89485,89599,387,383,420,362 M,0,89599,89713,420,362,466,351 M,0,89713,89826,466,351,496,320 M,0,89826,90167,496,320 M,0,90167,90622,496,320,309,297 M,0,90622,90735,309,297,301,257 M,0,90735,90849,301,257,297,203 M,0,90849,90963,297,203,297,162 M,0,90963,91076,297,162,304,206 M,0,91076,91190,304,206,308,255 M,0,91190,91304,308,255,309,310 M,0,91304,91417,309,310,300,255 M,0,91417,91531,300,255,301,211 M,0,91531,91644,301,211,301,162 M,0,91644,91985,301,162 M,0,91985,92213,301,162,295,92 M,0,92213,93008,295,92,304,390 M,0,93008,94031,304,390,297,93 M,0,94031,94940,297,93,302,230 M,0,94940,95849,302,230,293,407 F,0,95849,95963,1
//Storyboard Sound Samples
//Background Colour Transformations
3,100,163,162,255

[TimingPoints]
426,612.244897959184,4,2,1,70,1,0
44507,600,4,2,0,70,1,0
46907,474.308300395257,4,2,0,70,1,0
48804,454.545454545455,4,2,0,70,1,0
48860,-100,4,2,1,70,0,0
72781,-100,4,2,0,70,0,0
73917,-100,4,2,1,70,0,0
77326,-100,4,2,0,70,0,0
77554,-100,4,2,1,70,0,0
79713,-100,4,2,0,100,0,1
79769,-100,4,2,1,100,0,1
92213,454.545454545455,4,2,0,100,1,1
95849,-100,4,2,1,100,0,0

[Colours]
Combo1 : 128,255,0
Combo2 : 129,252,129

[HitObjects]
128,192,5323,5,0
192,96,5783,1,2
320,96,6242,1,0
384,192,6701,1,2
256,192,7160,1,4
336,336,7772,6,0,B|256:285|256:285|179:338,1,190,0|8
200,224,8844,2,0,B|120:280,1,95,0|8
88,280,9303,1,0
40,224,9609,1,8
176,156,10221,2,0,B|196:116|256:96|316:116|336:156,3,190,0|8|0|0
256,280,12670,1,4
400,232,13283,5,8
424,344,13742,2,0,B|496:320|512:280,1,95,0|8
504,256,14201,1,0
464,192,14507,1,8
400,56,15119,6,0,B|352:80|344:128|296:176,1,142.5,0|2
203,162,16038,2,0,B|168:128|160:80|112:56,1,142.5,0|2
40,144,16956,1,4
56,296,17568,6,0,B|56:352,2,47.5,2|2|0
120,248,18181,2,4,B|160:208|216:256|272:240,1,142.5,8|0
336,240,18946,1,8
336,280,19099,1,0
408,256,19405,1,8
328,128,20017,6,0,B|360:168|440:168|464:120,1,142.5,0|2
368,56,20936,2,0,B|320:32|252:56|248:132,1,142.5,0|2
256,224,21854,1,4
360,264,22313,5,0
328,336,22619,1,2
256,312,22926,1,0
184,336,23232,1,2
152,264,23538,1,4
432,72,24915,6,0,B|328:176,1,142.5,0|2
256,88,25834,1,0
180,172,26293,2,0,B|80:72,1,142.5,2|4
40,216,27364,6,0,B|8:264,2,47.5,2|2|0
112,240,27977,2,0,B|48:336,1,95,8|0
56,360,28436,1,0
128,360,28742,1,8
152,328,28895,2,0,B|208:232,1,95,0|8
112,120,29813,5,0
256,72,30426,1,8
400,120,31038,1,0
400,264,31650,1,8
256,312,32262,5,4
112,264,32874,1,8
24,192,33334,1,0
24,120,33640,2,0,B|64:88,1,47.5,8|0
136,88,34099,1,8
192,224,34711,2,0,B|160:256|144:312|176:368,1,142.5,0|2
342,355,35630,2,0,B|368:312|352:256|320:224,1,142.5,0|2
256,136,36548,5,4
128,56,37160,2,2,B|128:152,2,95,0|2|8
16,56,38232,2,0,B|16:160,1,95,0|8
16,192,38691,1,0
64,248,38997,1,8
208,192,39609,6,0,B|168:192|120:176|104:128|104:104,1,142.5,0|2
216,96,40528,1,0
320,144,40987,1,2
320,144,41446,1,4
344,256,41905,5,0
296,320,42211,1,2
216,320,42517,1,0
168,256,42823,1,2
168,256,43130,1,4
128,192,43436,2,0,B|128:128,1,47.5,8|0
168,80,43895,1,8
32,192,48804,5,4
64,120,49031,2,0,B|192:56,1,142.5,0|2
304,80,49713,1,0
336,192,50054,1,2
304,304,50394,1,4
208,80,50849,5,0
176,192,51190,1,2
208,304,51531,1,0
304,304,51872,1,2
336,192,52213,1,4
440,304,52667,6,0,B|488:272|504:224|496:176,1,142.5,0|2
384,216,53349,2,0,B|336:236|312:304|332:344,1,142.5,0|2
440,304,54031,1,4
328,336,54258,6,0,B|278:309|246:373|190:333,3,142.5,0|2|0|2
96,272,55622,2,8,B|32:272,4,47.5,4|8|8|8|8
96,192,56303,6,0,B|64:128|88:80|128:56,1,142.5,0|2
184,152,56985,2,0,B|256:192|336:144,1,142.5,0|2
416,96,57667,1,4
472,144,57894,1,0
416,192,58122,5,0
360,288,58463,1,2
256,328,58803,1,0
152,288,59144,1,2
152,288,59485,1,4
112,144,59940,6,0,B|96:80|136:40|224:40,1,142.5,0|2
328,43,60622,2,0,B|376:40|416:80|400:144,1,142.5,0|2
400,256,61303,1,4
328,224,61531,5,0
256,256,61758,1,2
184,232,61985,1,8
112,256,62213,1,0
112,256,62440,1,4
256,120,62894,6,2,B|256:64,2,47.5
336,120,63349,6,0,B|392:80|424:136|488:88,1,142.5,0|2
408,192,64031,1,0
376,304,64372,1,2
296,224,64713,1,4
176,312,65167,6,0,B|120:328|56:304,1,95,0|2
128,248,65622,2,0,B|104:216|88:176|104:112,1,142.5,8|0
168,80,66190,1,8
168,80,66303,1,0
216,136,66531,1,8
368,112,66985,6,0,B|400:120|440:192|400:272|360:272,4,190,0|8|0|8|4
256,216,69258,1,8
200,264,69485,1,2
128,248,69713,2,0,B|80:232,2,47.5,8|8|0
152,176,70167,1,8
256,64,70622,5,0
368,64,70963,1,2
424,160,71303,1,0
312,160,71644,1,2
312,160,71985,1,4
320,312,72440,5,0
256,264,72667,1,2
192,312,72894,1,4
104,192,73349,1,4
192,64,73803,1,4
320,64,74258,6,0,B|384:120|424:48|472:80,2,142.5,0|2|0
256,160,75281,1,2
320,256,75622,2,0,B|384:200|424:272|472:240,1,142.5,4|0
424,320,76190,5,2
360,360,76417,1,0
288,344,76644,1,2
240,280,76872,1,4
168,280,77099,2,0,B|120:280,1,47.5,8|0
144,208,77440,1,4
256,192,79258,5,8
408,192,79713,2,4,B|432:248|408:312|320:312|320:312|336:352|296:376|256:376|216:376|176:352|192:312|192:312|104:312|80:248|112:176,1,570,4|4
120,40,81531,5,0
176,136,81872,1,2
256,56,82213,1,0
336,136,82554,1,2
392,40,82894,1,4
456,176,83349,6,0,B|416:240|336:240|336:240|336:312,1,190,0|8
176,289,84258,2,0,B|176:240|176:240|96:240|56:176,1,190,0|8
256,136,85167,1,4
144,32,85622,6,0,B|176:128,1,95,8|2
96,128,86076,1,0
136,192,86304,1,2
136,192,86531,1,4
168,336,86985,6,0,B|128:304|128:304|64:296|64:296|48:248,3,142.5,0|2|0|2
55,270,88349,1,4
344,336,88804,6,0,B|384:304|384:304|448:296|448:296|464:248,3,142.5,0|2|0|2
456,270,90167,1,4
256,256,90622,6,0,B|256:96,3,142.5,0|2|0|2
256,113,91985,1,4
256,40,92213,5,0
256,344,93122,1,2
256,40,94031,1,2
256,192,94940,1,2
256,344,95849,1,4
