osu file format v14

[General]
AudioFilename: ghost.mp3
AudioLeadIn: 0
PreviewTime: 5215
Countdown: 0
SampleSet: Soft
StackLeniency: 0.7
Mode: 0
LetterboxInBreaks: 1
WidescreenStoryboard: 0

[Editor]
DistanceSpacing: 1.6
BeatDivisor: 3
GridSize: 4
TimelineZoom: 1

[Metadata]
Title:Ghost
TitleUnicode:Ghost
Artist:Tsunku
ArtistUnicode:Tsunku
Creator:Smug-
Version:Really Spooky
Source:Rhythm Heaven
Tags:
BeatmapID:721794
BeatmapSetID:324934

[Difficulty]
HPDrainRate:7
CircleSize:4
OverallDifficulty:7.5
ApproachRate:8.3
SliderMultiplier:1.5
SliderTickRate:1

[Events]
//Background and Video events
0,0,"bg.png",0,0
//Break Periods
//Storyboard Layer 0 (Background)
//Storyboard Layer 1 (Fail)
//Storyboard Layer 2 (Pass)
//Storyboard Layer 3 (Foreground)
//Storyboard Sound Samples

[TimingPoints]
1215,500,4,2,1,100,1,0
13215,375,4,2,1,100,1,1
16215,500,4,2,1,100,1,0
24215,750,4,2,1,100,1,0
30215,375,4,2,1,100,1,1
36215,750,4,2,1,100,1,0
54215,500,4,2,1,100,1,0

[HitObjects]
152,168,1215,6,0,L|280:156,1,100
312,212,1715,1,0,0:0:0:0:
428,40,2048,1,0,0:0:0:0:
468,108,2215,2,0,L|464:224,1,100
432,280,2715,1,0,0:0:0:0:
260,136,3048,1,0,0:0:0:0:
192,176,3215,6,0,P|140:188|100:160,1,100
76,88,3715,1,0,0:0:0:0:
268,32,4048,2,0,L|424:40,1,150
392,116,4715,1,0,0:0:0:0:
268,272,5048,1,0,0:0:0:0:
268,272,5215,5,0,0:0:0:0:
412,200,5548,1,0,0:0:0:0:
444,124,5715,1,0,0:0:0:0:
288,88,6048,1,0,0:0:0:0:
212,108,6215,1,0,0:0:0:0:
308,320,6548,1,0,0:0:0:0:
288,244,6715,1,0,0:0:0:0:
152,360,7048,1,0,0:0:0:0:
100,300,7215,6,0,L|0:312,1,100
0,311,7715,1,0,0:0:0:0:
192,184,8048,2,0,P|248:184|292:96,1,150
236,56,8715,1,0,0:0:0:0:
412,160,9048,1,0,0:0:0:0:
412,160,9215,6,0,P|468:172|520:168,1,100
500,248,9715,1,0,0:0:0:0:
360,228,10048,1,0,0:0:0:0:
349,306,10215,1,0,0:0:0:0:
272,108,10548,1,0,0:0:0:0:
261,186,10715,1,0,0:0:0:0:
368,68,11048,1,0,0:0:0:0:
216,40,11215,6,0,L|88:44,1,100
60,100,11715,1,0,0:0:0:0:
180,264,12048,1,0,0:0:0:0:
180,264,12215,2,0,P|232:292|288:252,1,100
396,216,12715,2,0,L|392:148,1,50
472,44,13048,1,0,0:0:0:0:
304,100,13215,6,0,L|307:199,1,100
376,244,13590,1,0,0:0:0:0:
196,200,13840,1,0,0:0:0:0:
176,288,13965,1,0,0:0:0:0:
288,144,14215,1,0,0:0:0:0:
269,16,14340,1,0,0:0:0:0:
8,80,14590,1,0,0:0:0:0:
48,188,14715,6,0,P|44:252|60:308,1,100
156,360,15090,1,0,0:0:0:0:
421,241,15340,2,0,L|272:252,1,150
176,324,15840,1,0,0:0:0:0:
384,148,16090,1,0,0:0:0:0:
284,176,16215,6,0,L|179:185,1,100
324,100,16715,1,0,0:0:0:0:
408,256,17048,1,0,0:0:0:0:
408,256,17215,2,0,P|424:312|424:360,1,100
496,224,17715,1,0,0:0:0:0:
424,44,18048,1,0,0:0:0:0:
304,80,18215,6,0,P|232:76|192:88,1,100
32,276,18715,2,0,L|140:268,1,100
308,188,19215,2,0,P|326:208|336:232,1,50
336,340,19548,1,0,0:0:0:0:
408,144,19715,2,0,P|415:170|413:195,1,50
336,340,20048,1,0,0:0:0:0:
168,280,20215,6,0,P|112:276|44:300,1,100
24,352,20715,1,0,0:0:0:0:
24,132,21048,1,0,0:0:0:0:
8,28,21215,1,0,0:0:0:0:
164,168,21548,1,0,0:0:0:0:
304,132,21715,1,0,0:0:0:0:
152,192,22048,1,0,0:0:0:0:
188,332,22215,6,0,L|300:324,1,100
368,268,22715,1,0,0:0:0:0:
448,44,23048,2,0,P|424:112|448:212,1,150
488,248,23715,1,0,0:0:0:0:
276,96,24048,1,0,0:0:0:0:
256,112,24215,6,0,L|184:116,1,50
128,120,24715,1,0,0:0:0:0:
88,188,24965,2,0,P|77:245|106:290,1,100
259,221,25715,2,0,L|160:228,1,100
280,312,26465,2,0,P|304:320|336:320,1,50
404,292,26965,1,0,0:0:0:0:
460,236,27215,6,0,L|456:168,1,50
388,144,27715,1,0,0:0:0:0:
276,192,27965,2,0,L|152:196,1,100
112,148,28715,2,0,P|95:208|128:258,1,100
240,124,29465,2,0,L|236:64,1,50
200,284,29965,1,0,0:0:0:0:
364,224,30215,6,0,P|424:216|480:264,1,100
456,312,30590,1,0,0:0:0:0:
464,40,30840,1,0,0:0:0:0:
312,56,30965,1,0,0:0:0:0:
200,284,31215,1,0,0:0:0:0:
160,136,31340,1,0,0:0:0:0:
416,164,31590,1,0,0:0:0:0:
364,224,31715,6,0,L|376:332,1,100
448,360,32090,1,0,0:0:0:0:
200,284,32340,2,0,B|48:296,1,150
256,192,32840,1,0,0:0:0:0:
272,364,33090,1,0,0:0:0:0:
272,364,33215,6,0,L|371:356,1,100
512,304,33590,1,0,0:0:0:0:
304,128,33840,1,0,0:0:0:0:
236,168,33965,6,0,P|176:180|108:160,1,100
272,280,34340,1,0,0:0:0:0:
392,184,34590,1,0,0:0:0:0:
392,184,34715,6,0,L|388:72,1,100
464,24,35090,1,0,0:0:0:0:
232,80,35340,1,0,0:0:0:0:
152,48,35465,6,0,L|92:56,1,50
4,28,35715,1,0,0:0:0:0:
60,152,35840,2,0,L|109:145,1,50
4,28,36090,1,0,0:0:0:0:
24,232,36215,6,0,L|20:304,1,50
60,352,36715,1,0,0:0:0:0:
160,308,36965,2,0,P|220:304|288:332,1,100
324,268,37715,2,0,L|316:136,1,100
240,108,38465,1,0,0:0:0:0:
168,176,38715,1,0,0:0:0:0:
84,128,38965,1,0,0:0:0:0:
256,84,39215,6,0,P|312:92|344:88,1,50
372,48,39715,1,0,0:0:0:0:
424,172,39965,2,0,L|400:288,1,100
336,316,40715,2,0,P|284:328|220:304,1,100
176,268,41465,1,0,0:0:0:0:
208,168,41715,1,0,0:0:0:0:
240,68,41965,1,0,0:0:0:0:
104,152,42215,6,0,L|16:148,1,50
148,224,42715,1,0,0:0:0:0:
220,104,42965,2,0,P|280:92|336:120,1,100
344,180,43715,2,0,P|332:232|348:288,1,100
280,328,44465,2,0,L|160:320,1,100
364,368,45215,6,0,L|413:364,1,50
476,316,45715,1,0,0:0:0:0:
396,192,45965,2,0,L|412:72,1,100
328,88,46715,2,0,P|276:104|200:80,1,100
92,164,47465,2,0,L|96:228,1,50
136,284,47965,1,0,0:0:0:0:
240,232,48215,6,0,L|304:228,1,50
200,336,48715,1,0,0:0:0:0:
320,308,48965,2,0,L|452:300,1,100
464,236,49715,2,0,P|472:168|464:120,1,100
388,68,50465,1,0,0:0:0:0:
287,39,50715,1,0,0:0:0:0:
240,133,50965,1,0,0:0:0:0:
324,194,51215,6,0,P|340:216|352:248,1,50
340,316,51715,1,0,0:0:0:0:
276,364,51965,1,0,0:0:0:0:
92,292,52465,1,0,0:0:0:0:
128,220,52715,6,0,P|140:156|136:96,1,100
208,80,53465,2,0,P|233:94|260:100,1,50
144,28,53965,1,0,0:0:0:0:
228,188,54215,6,0,L|216:292,1,100
256,360,54715,1,0,0:0:0:0:
380,256,55048,1,0,0:0:0:0:
380,256,55215,2,0,P|436:272|484:304,1,100
496,372,55715,1,0,0:0:0:0:
504,164,56048,1,0,0:0:0:0:
452,104,56215,6,0,L|460:0,1,100
296,136,56715,2,0,P|228:136|184:160,1,100
392,228,57215,2,0,L|396:292,1,50
436,348,57548,1,0,0:0:0:0:
248,332,57715,2,0,L|244:282,1,50
204,212,58048,1,0,0:0:0:0:
256,68,58215,5,0,0:0:0:0:
