osu file format v14

[General]
AudioFilename: ghost.mp3
AudioLeadIn: 0
PreviewTime: 5215
Countdown: 0
SampleSet: None
StackLeniency: 0.7
Mode: 0
LetterboxInBreaks: 1
WidescreenStoryboard: 1

[Editor]
DistanceSpacing: 1
BeatDivisor: 3
GridSize: 4
TimelineZoom: 1

[Metadata]
Title:Ghost
TitleUnicode:Ghost
Artist:Tsunku
ArtistUnicode:Tsunku
Creator:Smug-
Version:Not Spooky
Source:Rhythm Heaven
Tags:
BeatmapID:721792
BeatmapSetID:324934

[Difficulty]
HPDrainRate:3
CircleSize:3
OverallDifficulty:2
ApproachRate:4
SliderMultiplier:0.9
SliderTickRate:1

[Events]
//Background and Video events
0,0,"bg.png",0,0
//Break Periods
//Storyboard Layer 0 (Background)
//Storyboard Layer 1 (Fail)
//Storyboard Layer 2 (Pass)
//Storyboard Layer 3 (Foreground)
//Storyboard Sound Samples

[TimingPoints]
1215,500,4,2,1,100,1,0
13215,375,4,2,1,100,1,1
13215,-111.111111111111,4,2,1,100,0,1
16215,500,4,2,1,100,1,0
24215,750,4,2,1,100,1,0
24215,-80,4,2,1,100,0,0
30215,375,4,2,1,100,1,1
30215,-111.111111111111,4,2,1,100,0,1
36215,750,4,2,1,100,1,0
36215,-80,4,2,1,100,0,0
54215,500,4,2,1,100,1,0

[HitObjects]
424,120,1215,6,0,P|380:140|320:136,1,90
256,104,2215,2,0,P|211:105|170:124,1,90
108,188,3215,2,0,L|116:296,1,90
164,312,4048,2,0,P|220:292|296:320,1,120
363,279,5215,6,0,P|352:236|355:191,1,90
416,128,6215,2,0,P|369:106|322:109,1,90
260,164,7215,2,0,L|144:172,2,90
324,100,8715,1,0,0:0:0:0:
360,16,9215,6,0,P|396:44|416:104,1,90
404,172,10215,2,0,L|400:288,1,90
324,308,11215,2,0,B|263:309|263:309|246:322|246:322|218:311|176:317,1,150
144,200,12715,1,0,0:0:0:0:
212,140,13215,6,0,L|312:136,1,80.9999975280762
360,84,13965,2,0,P|375:125|364:176,1,80.9999975280762
316,221,14715,2,0,P|312:260|326:298,2,80.9999975280762
251,171,15840,1,0,0:0:0:0:
184,216,16215,6,0,L|76:224,1,90
112,312,17215,2,0,L|201:305,1,90
284,268,18215,5,0,0:0:0:0:
356,320,18715,1,0,0:0:0:0:
416,252,19215,2,0,L|409:162,1,90
374,81,20215,6,0,P|332:118|321:156,1,90
240,188,21215,2,0,P|200:176|148:176,1,90
88,240,22215,2,0,L|96:352,2,90
84,148,23715,1,0,0:0:0:0:
144,76,24215,6,0,P|200:88|272:64,1,112.5
356,32,25715,2,0,P|410:19|464:31,1,112.5
480,144,27215,5,0,0:0:0:0:
424,240,27965,1,0,0:0:0:0:
324,188,28715,2,0,P|276:184|216:300,1,187.5
244,332,30215,6,0,P|328:312|392:364,1,161.999995056153
468,340,31340,1,0,0:0:0:0:
448,260,31715,2,0,L|460:172,1,80.9999975280763
404,120,32465,2,0,P|368:116|312:136,1,80.9999975280763
248,164,33215,6,0,P|168:172|112:120,2,161.999995056153
300,228,35090,2,0,L|288:324,2,80.9999975280763
376,176,36215,6,0,P|432:155|501:173,1,112.5
440,268,37715,2,0,P|444:328|440:380,1,112.5
333,342,39215,2,0,L|210:347,1,112.5
150,258,40715,2,0,L|177:131,1,112.5
117,50,42215,6,0,P|67:70|8:70,1,112.5
14,182,43715,1,0,0:0:0:0:
100,254,44465,2,0,L|206:246,1,75
207,229,45215,2,0,P|258:215|339:248,2,112.5
138,139,47465,1,0,0:0:0:0:
229,73,48215,6,0,P|272:67|364:89,1,112.5
369,186,49715,2,0,P|355:246|359:308,1,112.5
263,358,51215,5,0,0:0:0:0:
189,272,51965,1,0,0:0:0:0:
111,353,52715,2,0,P|83:306|81:246,1,112.5
155,166,54215,6,0,L|266:171,1,90
333,152,55215,2,0,B|342:109|342:109|334:46,1,90
422,37,56215,2,0,B|467:42|467:42|510:33,2,90
336,8,57715,1,0,0:0:0:0:
273,72,58215,5,0,0:0:0:0:
