osu file format v12

[General]
AudioFilename: paranoia.mp3
AudioLeadIn: 0
PreviewTime: 52102
Countdown: 0
SampleSet: Soft
StackLeniency: 0.7
Mode: 0
LetterboxInBreaks: 0

[Editor]
Bookmarks: 179002
DistanceSpacing: 1.3
BeatDivisor: 6
GridSize: 4

[Metadata]
Title:paranoia
TitleUnicode:paranoia
Artist:Tsunamaru
ArtistUnicode:つなまる
Creator:Chewin
Version:Insane
Source:
Tags:MezameP Shinri Hizumi WakotsuP RLC alacat Hatsune Miku Vocaloid kevincela -kevincela-
BeatmapID:218464
BeatmapSetID:77999

[Difficulty]
HPDrainRate:7
CircleSize:4
OverallDifficulty:7
ApproachRate:9
SliderMultiplier:2.1
SliderTickRate:2

[Events]
//Background and Video events
0,0,"paranoia.jpg",0,0
Video,0,"para1.avi"
//Break Periods
2,77027,88827
2,165427,169027
//Storyboard Layer 0 (Background)
//Storyboard Layer 1 (Fail)
//Storyboard Layer 2 (Pass)
//Storyboard Layer 3 (Foreground)
//Storyboard Sound Samples
//Background Colour Transformations
3,100,163,162,255

[TimingPoints]
1627,400,4,2,1,60,1,0
13627,-100,4,1,1,60,0,0
14027,-100,4,1,1,70,0,0
14427,-100,4,2,1,80,0,0
33227,-100,4,2,1,40,0,0
33327,-100,4,2,1,50,0,0
33427,-100,4,2,1,60,0,0
33527,-100,4,2,1,70,0,0
33627,-100,4,2,1,80,0,0
39027,-100,4,2,1,80,0,0
39327,-100,4,2,1,30,0,0
39627,-100,4,2,1,80,0,0
39727,-100,4,2,1,30,0,0
40027,-100,4,2,1,80,0,0
52027,-100,4,2,1,5,0,0
52227,-100,4,2,1,30,0,0
52427,-100,4,2,1,40,0,0
52627,-100,4,2,1,70,0,0
52827,-100,4,2,1,80,0,1
52827,-100,4,2,1,80,0,1
57227,-100,4,2,2,80,0,1
57327,-100,4,2,1,80,0,1
57427,-100,4,2,1,80,0,1
64027,-100,4,2,1,40,0,1
65027,-100,4,2,1,80,0,0
65627,-100,4,2,1,80,0,1
75827,-100,4,2,1,40,0,1
76827,-100,4,2,1,80,0,0
114427,-100,4,2,1,5,0,0
114627,-100,4,2,1,30,0,0
114827,-100,4,2,1,40,0,0
115027,-100,4,2,1,70,0,0
115227,-100,4,2,1,80,0,1
127427,-100,4,2,1,80,0,0
128027,-100,4,2,1,80,0,1
140827,-100,4,2,1,80,0,0
162827,-200,4,2,1,80,0,0
163627,-100,4,2,1,80,0,0
165227,-100,4,2,1,5,0,0
169627,-100,4,2,1,50,0,0
177627,-100,4,2,1,80,0,1
190027,-100,4,2,1,80,0,0
190827,-100,4,2,1,80,0,1
201627,-100,4,2,1,80,0,0

[Colours]
Combo1 : 100,255,255
Combo2 : 0,116,244
Combo3 : 0,255,128
Combo4 : 238,238,238

[HitObjects]
168,312,1627,1,2,0:0:0:0:
256,344,1827,1,0,0:0:0:0:
336,288,2027,1,2,0:0:0:0:
256,128,2427,5,2,0:0:0:0:
168,96,2627,1,0,0:0:0:0:
88,152,2827,1,2,0:0:0:0:
256,128,3227,5,2,0:0:0:0:
344,156,3427,1,0,0:0:0:0:
412,92,3627,1,2,0:0:0:0:
400,280,4027,5,2,0:0:0:0:
312,252,4227,1,0,0:0:0:0:
256,328,4427,1,2,0:0:0:0:
112,280,4827,5,2,0:0:0:0:
200,252,5027,1,0,0:0:0:0:
256,328,5227,1,2,0:0:0:0:
256,328,5627,5,2,0:0:0:0:
312,252,5827,1,0,0:0:0:0:
200,252,6027,1,2,0:0:0:0:
120,80,6427,6,0,P|180:92|252:48,1,105,2|0,0:0|0:0,0:0:0:0:
308,44,6827,2,0,P|256:32|188:52,1,105,2|0,0:0|0:0,0:0:0:0:
308,84,7227,2,0,P|368:96|440:52,1,105,2|0,0:0|0:0,0:0:0:0:
352,160,7627,6,0,P|256:128|140:176,1,210,2|0,0:0|1:0,0:0:0:0:
84,220,8227,1,0,0:0:0:0:
156,284,8427,2,0,P|252:316|368:268,1,210,0|0,1:0|1:0,0:0:0:0:
428,220,9027,1,0,0:0:0:0:
352,160,9227,6,0,P|324:112|336:48,1,105,0|0,1:0|0:0,0:0:0:0:
332,51,9527,1,0,0:0:0:0:
336,40,9627,2,0,L|136:68,1,157.5,0|0,1:0|0:0,0:0:0:0:
32,72,10027,2,0,L|232:100,1,157.5,0|0,1:0|0:0,0:0:0:0:
220,128,10427,5,0,1:0:0:0:
264,212,10627,1,0,0:0:0:0:
184,264,10827,1,0,1:0:0:0:
268,96,11227,5,0,1:0:0:0:
352,140,11427,1,0,0:0:0:0:
424,76,11627,1,0,1:0:0:0:
224,84,12027,5,0,1:0:0:0:
148,28,12227,1,0,0:0:0:0:
84,96,12427,2,0,P|100:172|64:252,1,157.5,0|0,1:0|0:0,0:0:0:0:
48,284,12827,5,0,1:0:0:0:
164,368,13027,1,0,0:0:0:0:
256,260,13227,1,0,1:0:0:0:
348,368,13427,1,0,0:0:0:0:
464,284,13627,6,0,L|480:248,4,26.25,0|0|0|0|0,0:0|0:0|0:0|0:0|0:0,0:0:0:0:
284,148,14027,2,0,L|268:108,4,26.25,0|0|0|0|0,0:0|0:0|0:0|0:0|0:0,0:0:0:0:
500,48,14427,5,4,0:0:0:0:
468,136,14627,1,0,0:0:0:0:
392,80,14827,2,0,B|344:72|344:72|304:12|216:28|200:80,1,210,8|0,0:0|0:0,0:0:0:0:
116,36,15427,1,0,0:0:0:0:
84,124,15627,2,0,B|132:132|132:132|172:192|260:176|276:124,1,210,8|0,0:0|0:0,0:0:0:0:
207,66,16227,1,0,0:0:0:0:
84,124,16427,6,0,P|88:184|52:236,1,105,8|0,0:0|0:0,0:0:0:0:
24,308,16827,2,0,L|144:348,1,105
216,312,17227,2,0,P|304:272|408:312,1,210,8|0,0:0|0:0,0:0:0:0:
472,216,17827,1,0,0:0:0:0:
384,140,18027,6,0,P|332:156|268:124,1,105,8|0,0:0|0:0,0:0:0:0:
228,64,18427,2,0,P|274:48|326:64,1,105
200,140,18827,2,0,P|112:192|12:128,1,210,8|0,0:0|0:0,0:0:0:0:
112,80,19427,1,0,0:0:0:0:
200,140,19627,6,0,L|192:256,1,105,8|0,0:0|0:0,0:0:0:0:
108,304,20027,2,0,P|164:348|268:308,1,157.5
268,300,20427,2,0,P|312:284|392:320,1,105,8|0,0:0|0:0,0:0:0:0:
372,304,20727,1,0,0:0:0:0:
376,312,20827,6,0,L|388:202,1,105,4|0,0:0|0:0,0:0:0:0:
468,68,21227,2,0,P|408:112|296:72,1,157.5,8|0,0:0|0:0,0:0:0:0:
324,96,21627,2,0,P|274:66|218:74,1,105,0|0,0:0|0:0,0:0:0:0:
84,120,22027,6,0,P|128:176|256:156,1,210,8|0,0:0|0:0,0:0:0:0:
188,64,22627,1,0,0:0:0:0:
84,120,22827,2,0,L|64:268,1,105,8|0,0:0|0:0,0:0:0:0:
136,328,23227,1,0,0:0:0:0:
136,328,23327,1,8,0:0:0:0:
136,328,23427,1,0,0:0:0:0:
248,280,23627,2,0,P|308:272|364:312,1,105,8|0,0:0|0:0,0:0:0:0:
356,304,23927,1,0,0:0:0:0:
364,316,24027,6,0,L|400:176,1,105,4|0,0:0|0:0,0:0:0:0:
464,152,24427,1,8,0:0:0:0:
412,72,24627,1,0,0:0:0:0:
324,104,24827,2,0,P|256:144|160:88,1,157.5
176,116,25227,2,0,P|118:102|58:122,1,105,8|0,0:0|0:0,0:0:0:0:
120,180,25627,5,0,0:0:0:0:
296,232,25827,1,0,0:0:0:0:
248,56,26027,1,4,0:0:0:0:
232,152,26227,5,4,0:0:0:0:
280,328,26427,1,8,0:0:0:0:
408,204,26627,1,0,0:0:0:0:
408,204,26727,1,0,0:0:0:0:
408,204,26827,1,8,0:0:0:0:
232,152,27027,1,0,0:0:0:0:
408,204,27227,6,0,L|460:-8,1,210,4|0,0:0|1:0,0:0:0:0:
312,72,27827,1,0,0:0:0:0:
460,84,28027,6,0,L|409:287,1,210,0|0,1:0|0:0,0:0:0:0:
312,72,28627,1,0,0:0:0:0:
408,204,28827,6,0,P|344:256|236:224,1,157.5,0|0,1:0|0:0,0:0:0:0:
264,244,29227,2,0,L|224:136,1,105
236,240,29627,2,0,L|172:40,1,210,0|0,1:0|0:0,0:0:0:0:
84,24,30227,1,0,0:0:0:0:
36,160,30427,6,0,P|16:220|44:272,1,105,0|0,1:0|0:0,0:0:0:0:
230,336,30827,2,0,P|250:276|222:224,1,105,0|0,0:0|0:0,0:0:0:0:
258,363,31227,2,0,P|192:312|92:344,1,157.5,0|0,1:0|0:0,0:0:0:0:
122,320,31627,2,0,L|140:204,1,105
296,44,32027,6,0,L|280:147,1,105,0|0,1:0|0:0,0:0:0:0:
280,160,32327,1,0,0:0:0:0:
280,172,32427,2,0,P|312:212|363:224,1,105
456,68,32827,2,0,P|424:28|372:15,1,105,0|0,1:0|0:0,0:0:0:0:
368,116,33227,1,2,0:0:0:0:
368,116,33327,1,2,0:0:0:0:
368,116,33427,1,2,0:0:0:0:
368,116,33527,1,2,0:0:0:0:
368,116,33627,6,0,P|424:168|540:120,1,210,4|0,0:0|1:0,0:0:0:0:
456,68,34227,1,0,0:0:0:0:
456,68,34427,2,0,L|448:288,1,210,0|0,1:0|0:0,0:0:0:0:
316,248,35027,1,0,0:0:0:0:
196,352,35227,6,0,L|203:142,1,210,0|0,1:0|0:0,0:0:0:0:
96,36,35827,1,0,0:0:0:0:
132,204,36027,2,0,P|216:224|292:176,1,157.5,0|0,1:0|0:0,0:0:0:0:
284,184,36427,1,0,0:0:0:0:
380,180,36627,1,0,0:0:0:0:
380,180,36827,2,0,P|296:160|220:208,1,157.5,0|0,1:0|0:0,0:0:0:0:
235,190,37227,2,0,L|272:72,1,105
132,204,37627,6,0,P|216:224|292:176,1,157.5,0|0,1:0|0:0,0:0:0:0:
284,184,38027,2,0,P|272:236|304:292,1,105
404,340,38427,6,0,B|404:304|448:228|448:228|372:256|336:196,1,210,0|4,1:0|0:0,0:0:0:0:
420,52,39027,1,12,0:0:0:0:
391,94,39127,1,12,0:0:0:0:
343,115,39227,1,4,1:0:0:0:
292,106,39327,1,0,0:0:0:0:
254,71,39427,1,12,0:0:0:0:
248,64,39527,5,12,0:0:0:0:
230,75,39627,1,4,1:0:0:0:
212,86,39727,1,0,0:0:0:0:
194,97,39827,1,12,0:0:0:0:
177,108,39927,1,12,0:0:0:0:
128,84,40027,6,4,L|100:240,1,157.5,4|0,0:0|0:0,0:0:0:0:
96,256,40427,2,0,P|123:300|187:312,1,105,0|0,1:0|0:0,0:0:0:0:
336,236,40827,2,0,P|308:191|244:179,1,105
248,264,41227,1,0,1:0:0:0:
352,344,41427,1,0,0:0:0:0:
448,200,41627,1,0,0:0:0:0:
284,60,41827,1,0,0:0:0:0:
212,152,42027,6,0,P|304:176|392:96,1,210,0|0,1:0|0:0,0:0:0:0:
284,60,42627,1,0,0:0:0:0:
212,152,42827,1,0,1:0:0:0:
352,344,43027,1,0,0:0:0:0:
448,200,43227,6,0,L|476:36,1,157.5,0|0,1:0|0:0,0:0:0:0:
400,96,43627,2,0,L|448:268,1,157.5
492,132,44027,2,0,P|392:148|364:212,1,157.5,0|0,1:0|0:0,0:0:0:0:
376,236,44427,2,0,P|437:281|501:261,1,105,4|0,0:0|0:0,0:0:0:0:
448,200,44827,6,0,L|248:292,1,210,2|0,0:0|1:0,0:0:0:0:
268,144,45427,1,0,0:0:0:0:
420,196,45627,6,0,L|220:288,1,210,2|0,0:0|1:0,0:0:0:0:
256,136,46227,1,0,0:0:0:0:
396,188,46427,6,0,L|196:280,1,210,4|0,0:0|1:0,0:0:0:0:
248,128,47027,1,0,0:0:0:0:
304,244,47227,6,0,P|380:304|480:260,1,210,2|0,0:0|1:0,0:0:0:0:
396,188,47827,1,0,0:0:0:0:
304,256,48027,6,0,P|380:316|480:272,1,210,2|0,0:0|1:0,0:0:0:0:
396,188,48627,1,0,0:0:0:0:
492,120,48827,6,0,P|416:60|316:104,1,210,2|0,0:0|1:0,0:0:0:0:
206,253,49427,1,0,0:0:0:0:
206,253,49527,1,0,0:0:0:0:
206,253,49627,2,0,P|278:269|326:233,1,105,2|0,0:0|0:0,0:0:0:0:
256,176,50027,5,0,1:0:0:0:
148,328,50227,1,0,0:0:0:0:
68,156,50427,1,0,1:0:0:0:
256,176,50627,1,0,0:0:0:0:
148,328,50827,1,4,0:0:0:0:
256,192,50927,12,0,52027,0:0:0:0:
104,72,52227,5,0,0:0:0:0:
128,224,52427,1,0,1:0:0:0:
256,128,52627,1,0,0:0:0:0:
104,72,52827,6,0,L|84:240,1,157.5,4|0,0:0|0:0,0:0:0:0:
52,196,53227,2,0,L|84:308,1,105,8|0,0:0|0:0,0:0:0:0:
224,260,53627,1,0,0:0:0:0:
364,344,53827,1,0,0:0:0:0:
452,200,54027,1,8,0:0:0:0:
384,36,54227,1,0,0:0:0:0:
448,168,54427,6,0,L|412:344,1,157.5
456,292,54827,2,0,L|364:344,1,105,8|0,0:0|0:0,0:0:0:0:
320,216,55227,1,0,0:0:0:0:
448,168,55427,1,0,0:0:0:0:
456,292,55627,1,8,0:0:0:0:
320,216,55827,1,0,0:0:0:0:
320,216,55927,1,0,0:0:0:0:
320,216,56027,6,0,P|244:256|160:224,1,157.5,0|0,0:0|0:0,0:0:0:0:
132,244,56427,2,0,P|188:232|232:260,1,105,8|0,0:0|0:0,0:0:0:0:
168,328,56827,1,0,0:0:0:0:
80,236,57027,2,0,P|176:200|272:248,1,210
276,252,57527,1,0,0:0:0:0:
284,260,57627,6,0,P|196:260|163:168,1,157.5
164,196,58027,2,0,L|198:76,1,105,8|0,0:0|0:0,0:0:0:0:
349,51,58427,2,0,L|320:152,1,105
284,260,58827,1,8,0:0:0:0:
164,196,59027,1,0,0:0:0:0:
164,196,59127,1,0,0:0:0:0:
164,196,59227,6,0,P|228:184|304:244,1,157.5,4|0,0:0|0:0,0:0:0:0:
284,260,59627,2,0,L|392:336,1,105,8|0,0:0|0:0,0:0:0:0:
460,216,60027,1,0,0:0:0:0:
396,96,60227,1,0,0:0:0:0:
384,88,60327,1,0,0:0:0:0:
372,80,60427,2,0,L|286:19,1,105,8|0,0:0|0:0,0:0:0:0:
376,48,60827,6,0,P|316:108|220:64,1,157.5
240,88,61227,2,0,L|205:190,1,105,8|0,0:0|0:0,0:0:0:0:
128,280,61627,1,0,0:0:0:0:
56,100,61827,1,0,0:0:0:0:
252,104,62027,6,0,L|217:206,1,105,8|0,0:0|0:0,0:0:0:0:
216,216,62327,1,0,0:0:0:0:
212,228,62427,2,0,P|269:296|365:280,1,157.5
288,284,62827,2,0,P|232:332|132:308,1,157.5,8|0,0:0|0:0,0:0:0:0:
132,312,63227,2,0,L|120:136,1,157.5
92,96,63627,2,0,L|100:200,1,105,8|0,0:0|0:0,0:0:0:0:
252,172,64027,5,2,0:0:0:0:
279,186,64127,1,0,0:0:0:0:
310,192,64227,1,2,0:0:0:0:
341,188,64327,1,0,0:0:0:0:
370,176,64427,1,4,0:0:0:0:
394,156,64527,1,0,0:0:0:0:
411,129,64627,1,4,0:0:0:0:
411,129,64827,6,0,L|444:192,1,52.5
360,292,65027,2,0,L|392:354,2,52.5,0|0|0,1:0|0:0|1:0,1:0:0:0:
208,56,65427,1,0,0:0:0:0:
200,64,65527,1,0,0:0:0:0:
192,72,65627,6,0,L|160:244,1,157.5,4|0,0:0|0:0,0:0:0:0:
148,272,66027,2,0,L|124:148,1,105,8|0,0:0|0:0,0:0:0:0:
56,116,66427,1,0,0:0:0:0:
180,292,66627,1,0,0:0:0:0:
36,104,66827,2,0,L|55:207,1,105,8|0,0:0|0:0,0:0:0:0:
180,292,67227,5,0,0:0:0:0:
304,152,67427,1,0,0:0:0:0:
364,332,67627,1,8,0:0:0:0:
180,292,67827,2,0,L|148:80,1,210
36,104,68427,1,8,0:0:0:0:
116,188,68627,1,0,0:0:0:0:
116,188,68727,1,0,0:0:0:0:
116,188,68827,6,0,P|192:192|268:120,1,157.5
304,152,69227,2,0,P|240:136|168:200,1,157.5,8|0,0:0|0:0,0:0:0:0:
176,204,69627,2,0,L|203:311,1,105
344,352,70027,1,8,0:0:0:0:
420,224,70227,1,0,0:0:0:0:
420,216,70327,1,0,0:0:0:0:
420,208,70427,6,0,L|428:56,1,105
320,56,70827,1,8,0:0:0:0:
268,200,71027,1,0,0:0:0:0:
428,200,71227,6,0,L|436:48,1,105
320,56,71627,1,8,0:0:0:0:
268,200,71827,1,4,0:0:0:0:
268,200,71927,1,0,0:0:0:0:
268,200,72027,6,0,P|192:232|112:192,1,157.5,4|0,0:0|0:0,0:0:0:0:
92,172,72427,1,8,0:0:0:0:
40,304,72627,2,0,P|116:272|196:312,1,157.5
216,332,73027,1,0,0:0:0:0:
268,200,73227,1,8,0:0:0:0:
380,288,73427,1,0,0:0:0:0:
380,280,73527,1,0,0:0:0:0:
380,272,73627,6,0,L|384:96,1,157.5
360,72,74027,1,8,0:0:0:0:
412,152,74227,6,0,L|408:309,1,157.5
448,336,74627,1,0,0:0:0:0:
380,272,74827,6,0,P|340:300|248:292,1,105,8|0,0:0|0:0,0:0:0:0:
364,360,75227,2,0,P|264:312|164:348,1,210,0|4,0:0|0:0,0:0:0:0:
32,224,75827,1,4,0:0:0:0:
80,241,75927,1,0,0:0:0:0:
131,231,76027,1,0,1:0:0:0:
170,197,76127,1,0,0:0:0:0:
168,184,76227,5,0,1:0:0:0:
182,178,76327,1,0,1:0:0:0:
197,172,76427,1,4,0:0:0:0:
212,166,76527,1,0,0:0:0:0:
226,161,76627,1,0,0:0:0:0:
241,155,76727,1,0,0:0:0:0:
256,149,76827,1,4,0:0:0:0:
76,148,89427,5,0,0:0:0:0:
180,72,89627,6,0,L|152:296,1,210,4|0,0:0|1:0,0:0:0:0:
76,148,90227,1,0,0:0:0:0:
196,232,90427,2,0,P|260:276|356:252,1,157.5
344,252,90827,2,0,L|364:148,1,105,0|0,1:0|0:0,0:0:0:0:
400,260,91227,6,0,P|300:228|220:296,1,210,0|0,0:0|1:0,0:0:0:0:
320,336,91827,1,0,0:0:0:0:
344,252,92027,2,0,L|364:148,1,105,0|0,0:0|0:0,0:0:0:0:
260,24,92427,2,0,L|240:128,1,105,0|0,1:0|0:0,0:0:0:0:
236,136,92727,1,0,0:0:0:0:
232,144,92827,6,0,P|135:196|35:136,1,210,0|0,0:0|1:0,0:0:0:0:
96,76,93427,1,0,0:0:0:0:
108,168,93627,2,0,P|168:160|244:228,1,157.5
256,172,94027,2,0,P|292:212|360:224,1,105,0|0,1:0|0:0,0:0:0:0:
444,300,94427,6,0,L|236:356,1,210,0|0,0:0|1:0,0:0:0:0:
296,152,95027,1,0,0:0:0:0:
444,300,95227,1,0,0:0:0:0:
444,300,95327,1,0,0:0:0:0:
444,300,95427,1,0,0:0:0:0:
324,260,95627,5,0,1:0:0:0:
408,192,95827,1,0,0:0:0:0:
444,300,96027,6,0,P|380:332|300:296,1,157.5,4|0,0:0|0:0,0:0:0:0:
324,260,96427,2,0,L|300:116,1,105,0|0,1:0|0:0,0:0:0:0:
216,72,96827,1,0,0:0:0:0:
104,200,97027,1,0,0:0:0:0:
104,200,97127,1,0,0:0:0:0:
104,200,97227,1,0,1:0:0:0:
48,40,97427,1,0,0:0:0:0:
216,72,97627,6,0,P|284:112|384:60,1,157.5,0|0,0:0|0:0,0:0:0:0:
388,128,98027,2,0,B|328:128|280:156|284:152,1,105,0|0,1:0|0:0,0:0:0:0:
208,96,98427,6,0,P|300:124|372:64,1,157.5
388,128,98827,2,0,L|408:236,1,105,0|0,1:0|0:0,0:0:0:0:
420,324,99227,5,0,0:0:0:0:
308,188,99427,1,0,0:0:0:0:
248,352,99627,1,0,1:0:0:0:
420,324,99827,1,0,0:0:0:0:
420,324,99927,1,0,0:0:0:0:
420,324,100027,2,0,L|448:208,1,105
308,188,100427,2,0,L|283:290,1,105,0|0,1:0|0:0,0:0:0:0:
432,284,100827,6,0,P|356:280|288:328,1,157.5
284,292,101227,2,0,P|228:324|156:324,1,105,4|0,0:0|0:0,0:0:0:0:
168,328,101527,2,0,L|115:267,1,52.5,4|8,0:0|0:0,0:0:0:0:
12,196,101827,1,4,0:0:0:0:
12,196,101927,1,8,0:0:0:0:
12,196,102027,1,0,1:0:0:0:
100,72,102227,1,4,0:0:0:0:
108,80,102327,1,4,0:0:0:0:
116,88,102427,6,0,P|184:124|280:104,1,157.5,4|0,0:0|0:0,0:0:0:0:
272,108,102827,2,0,L|378:49,1,105,0|0,1:0|0:0,0:0:0:0:
464,80,103227,1,0,0:0:0:0:
392,260,103427,1,0,0:0:0:0:
272,108,103627,1,0,1:0:0:0:
272,108,103727,1,0,0:0:0:0:
272,108,103827,1,0,0:0:0:0:
464,80,104027,6,0,L|456:196,1,105
392,260,104427,2,0,P|324:312|208:280,1,210,0|0,1:0|0:0,0:0:0:0:
276,200,105027,1,0,0:0:0:0:
328,292,105227,2,0,P|400:300|432:332,1,105,0|0,1:0|0:0,0:0:0:0:
428,328,105527,1,0,0:0:0:0:
432,336,105627,6,0,L|456:168,1,157.5
432,120,106027,2,0,L|409:275,1,157.5,0|0,1:0|0:0,0:0:0:0:
276,200,106427,1,0,0:0:0:0:
284,24,106627,1,0,0:0:0:0:
432,120,106827,1,0,1:0:0:0:
276,200,107027,1,4,0:0:0:0:
276,200,107127,1,0,0:0:0:0:
276,200,107227,6,0,P|200:264|96:240,1,210,4|0,0:0|1:0,0:0:0:0:
264,100,107827,1,0,0:0:0:0:
184,236,108027,6,0,P|268:188|380:232,1,210,2|0,0:0|1:0,0:0:0:0:
184,336,108627,1,0,0:0:0:0:
240,176,108827,6,0,P|144:208|44:148,1,210,2|0,0:0|1:0,0:0:0:0:
264,100,109427,1,0,0:0:0:0:
140,196,109627,6,0,P|236:164|336:224,1,210,2|0,0:0|1:0,0:0:0:0:
120,280,110227,1,0,0:0:0:0:
208,136,110427,6,0,P|112:172|28:116,1,210,2|0,0:0|1:0,0:0:0:0:
236,48,111027,1,0,0:0:0:0:
344,168,111227,5,0,0:0:0:0:
396,16,111427,1,0,0:0:0:0:
236,48,111627,1,0,1:0:0:0:
344,168,111827,1,0,0:0:0:0:
344,168,111927,1,0,0:0:0:0:
344,168,112027,6,0,P|428:184|512:128,1,157.5
512,120,112427,2,0,P|444:132|408:156,1,105,0|0,1:0|0:0,0:0:0:0:
484,260,112827,5,0,0:0:0:0:
352,308,113027,1,0,0:0:0:0:
344,168,113227,1,4,0:0:0:0:
256,192,113327,12,0,114427,0:0:0:0:
344,168,114627,5,0,0:0:0:0:
484,264,114827,1,0,0:0:0:0:
492,96,115027,1,2,0:0:0:0:
344,168,115227,6,0,P|264:208|172:172,1,157.5,4|0,0:0|0:0,0:0:0:0:
232,232,115627,2,0,P|172:216|112:236,1,105,8|0,0:0|0:0,0:0:0:0:
80,144,116027,1,0,0:0:0:0:
232,56,116227,1,0,0:0:0:0:
232,232,116427,1,8,0:0:0:0:
80,144,116627,1,0,0:0:0:0:
80,144,116727,1,0,0:0:0:0:
80,144,116827,6,0,P|89:201|81:249,1,105
48,120,117227,1,8,0:0:0:0:
132,292,117427,2,0,P|104:188|152:88,1,210
100,324,118027,1,8,0:0:0:0:
4,192,118227,1,0,0:0:0:0:
76,360,118427,6,0,L|108:176,1,157.5,4|0,0:0|0:0,0:0:0:0:
80,144,118827,1,8,0:0:0:0:
244,40,119027,2,0,L|217:195,1,157.5
256,248,119427,1,0,0:0:0:0:
396,336,119627,1,8,0:0:0:0:
408,172,119827,1,0,0:0:0:0:
400,164,119927,1,0,0:0:0:0:
392,156,120027,6,0,P|312:172|236:120,1,157.5
200,132,120427,2,0,P|292:120|364:164,1,157.5,8|0,0:0|0:0,0:0:0:0:
332,104,120827,2,0,P|276:164|180:160,1,157.5
168,140,121227,1,8,0:0:0:0:
72,56,121427,1,4,0:0:0:0:
64,64,121527,1,0,0:0:0:0:
56,72,121627,6,0,P|80:156|36:236,1,157.5,4|0,0:0|0:0,0:0:0:0:
48,264,122027,2,0,P|32:208|60:152,1,105,8|0,0:0|0:0,0:0:0:0:
188,220,122427,1,0,0:0:0:0:
156,356,122627,1,0,0:0:0:0:
48,264,122827,1,8,0:0:0:0:
188,220,123027,1,0,0:0:0:0:
196,228,123127,1,0,0:0:0:0:
204,236,123227,6,0,P|264:268|368:212,1,157.5
388,224,123627,2,0,P|336:216|284:252,1,105,8|0,0:0|0:0,0:0:0:0:
364,332,124027,1,0,0:0:0:0:
364,332,124127,1,0,0:0:0:0:
364,332,124227,1,0,0:0:0:0:
492,204,124427,1,8,0:0:0:0:
332,120,124627,1,0,0:0:0:0:
328,124,124727,1,0,0:0:0:0:
324,128,124827,6,0,P|248:148|144:104,1,157.5
124,72,125227,1,8,0:0:0:0:
48,168,125427,2,0,P|124:152|228:188,1,157.5
248,228,125827,1,0,0:0:0:0:
364,332,126027,1,8,0:0:0:0:
392,180,126227,1,0,0:0:0:0:
248,228,126427,6,0,L|232:304,1,52.5
144,272,126627,2,0,L|128:348,1,52.5,0|0,0:0|0:0,0:0:0:0:
232,180,126827,6,0,L|216:256,1,52.5,4|0,0:0|0:0,0:0:0:0:
128,224,127027,2,0,L|112:300,1,52.5,4|0,0:0|0:0,0:0:0:0:
208,144,127227,5,0,0:0:0:0:
104,188,127427,1,8,0:0:0:0:
104,188,127527,1,8,0:0:0:0:
104,188,127627,1,8,0:0:0:0:
120,84,127827,1,0,0:0:0:0:
208,144,128027,6,0,P|288:160|368:128,1,157.5,4|0,0:0|0:0,0:0:0:0:
396,108,128427,2,0,L|304:232,1,105,8|0,0:0|0:0,0:0:0:0:
272,272,128827,1,0,0:0:0:0:
392,368,129027,1,0,0:0:0:0:
416,216,129227,1,8,0:0:0:0:
272,272,129427,1,0,0:0:0:0:
264,276,129527,1,0,0:0:0:0:
256,280,129627,6,0,P|224:296|136:272,1,105
40,188,130027,1,8,0:0:0:0:
308,272,130227,6,0,P|208:328|108:296,1,210
40,188,130827,1,8,0:0:0:0:
0,328,131027,1,0,0:0:0:0:
0,328,131127,1,0,0:0:0:0:
0,328,131227,6,0,P|76:312|168:360,1,157.5
128,296,131627,2,0,P|176:320|248:312,1,105,8|0,0:0|0:0,0:0:0:0:
292,244,132027,1,0,0:0:0:0:
424,180,132227,1,0,0:0:0:0:
412,320,132427,1,8,0:0:0:0:
292,244,132627,1,0,0:0:0:0:
292,244,132727,1,0,0:0:0:0:
292,244,132827,6,0,L|288:72,1,157.5,4|0,0:0|0:0,0:0:0:0:
320,44,133227,2,8,L|323:201,1,157.5
284,164,133627,6,0,P|212:188|116:144,1,157.5,4|0,0:0|0:0,0:0:0:0:
84,112,134027,1,8,0:0:0:0:
16,232,134227,1,4,0:0:0:0:
24,228,134327,1,0,0:0:0:0:
32,224,134427,6,0,P|104:200|200:244,1,157.5,4|0,0:0|0:0,0:0:0:0:
220,244,134827,2,0,P|164:260|112:240,1,105,8|0,0:0|0:0,0:0:0:0:
196,304,135227,2,0,P|272:284|364:320,1,157.5
380,336,135627,1,8,0:0:0:0:
472,208,135827,1,0,0:0:0:0:
464,200,135927,1,0,0:0:0:0:
456,192,136027,6,0,P|380:216|288:180,1,157.5
284,140,136427,1,8,0:0:0:0:
84,48,136627,2,0,P|127:33|183:45,1,105
284,140,137027,1,0,0:0:0:0:
284,140,137127,1,0,0:0:0:0:
284,140,137227,1,8,0:0:0:0:
132,196,137427,1,0,0:0:0:0:
84,48,137627,6,0,L|64:228,1,157.5
40,244,138027,1,8,0:0:0:0:
104,32,138227,6,0,L|84:212,1,157.5
28,256,138627,1,0,0:0:0:0:
120,356,138827,5,8,0:0:0:0:
216,260,139027,1,0,0:0:0:0:
124,160,139227,1,4,0:0:0:0:
256,192,139327,12,4,140827,0:0:0:0:
256,52,141227,5,2,0:0:0:0:
248,60,141627,6,0,L|224:236,1,157.5
248,260,142027,2,0,L|269:103,1,157.5,8|0,0:0|0:0,0:0:0:0:
220,32,142427,6,0,L|196:208,1,157.5
276,284,142827,2,0,L|297:127,1,157.5,8|0,0:0|0:0,0:0:0:0:
328,92,143227,6,0,P|240:140|136:84,1,210,0|8,0:0|0:0,0:0:0:0:
60,184,143827,1,0,0:0:0:0:
32,68,144027,6,0,L|20:184,1,105
92,316,144427,2,0,L|102:211,1,105,8|0,0:0|0:0,0:0:0:0:
196,72,144827,2,0,L|184:188,1,105
256,320,145227,6,0,P|340:280|460:332,1,210,8|0,0:0|0:0,0:0:0:0:
472,192,145827,1,0,0:0:0:0:
472,192,145927,1,0,0:0:0:0:
472,192,146027,2,0,L|456:68,1,105,8|0,0:0|0:0,0:0:0:0:
300,44,146427,6,0,L|280:108,1,52.5
196,72,146627,2,0,L|176:136,1,52.5,0|0,0:0|0:0,0:0:0:0:
328,112,146827,6,0,L|308:176,1,52.5,8|0,0:0|0:0,0:0:0:0:
224,140,147027,2,0,L|204:204,1,52.5,0|0,0:0|0:0,0:0:0:0:
356,172,147227,6,0,L|312:340,1,157.5,4|0,0:0|0:0,0:0:0:0:
364,316,147627,2,0,P|304:348|184:300,1,157.5,8|0,0:0|0:0,0:0:0:0:
184,300,148027,5,0,0:0:0:0:
92,320,148227,1,0,0:0:0:0:
40,240,148427,1,8,0:0:0:0:
108,172,148627,1,0,0:0:0:0:
200,200,148827,6,0,P|260:168|380:216,1,157.5,0|0,0:0|0:0,0:0:0:0:
376,148,149227,2,0,P|288:152|204:112,1,157.5,8|0,0:0|0:0,0:0:0:0:
252,88,149627,6,0,L|232:256,1,157.5
272,292,150027,2,0,L|290:135,1,157.5,8|0,0:0|0:0,0:0:0:0:
316,96,150427,5,0,0:0:0:0:
400,56,150627,1,0,0:0:0:0:
468,124,150827,1,8,0:0:0:0:
428,208,151027,1,0,0:0:0:0:
336,196,151227,6,0,L|172:272,1,157.5,4|0,0:0|0:0,0:0:0:0:
164,300,151627,1,8,0:0:0:0:
172,104,151827,1,0,0:0:0:0:
336,216,152027,6,0,L|172:292,1,157.5,4|0,0:0|0:0,0:0:0:0:
176,324,152427,1,8,0:0:0:0:
52,216,152627,2,0,L|44:148,2,52.5,4|0|8,0:0|0:0|0:0,0:0:0:0:
172,104,153027,2,0,L|164:36,2,52.5,0|0|8,0:0|0:0|0:0,0:0:0:0:
204,140,153327,1,0,0:0:0:0:
251,160,153427,1,8,0:0:0:0:
302,151,153527,1,0,0:0:0:0:
339,114,153627,6,0,L|424:36,1,105,4|0,0:0|0:0,0:0:0:0:
328,76,154027,2,0,P|344:176|312:256,1,157.5,8|0,0:0|0:0,0:0:0:0:
376,216,154427,6,0,L|220:316,1,157.5,0|0,0:0|0:0,0:0:0:0:
208,356,154827,2,8,L|340:271,1,157.5,8|0,0:0|0:0,0:0:0:0:
344,320,155227,2,0,P|260:324|176:264,1,157.5
160,264,155627,2,0,P|244:260|328:320,1,157.5,8|0,0:0|0:0,0:0:0:0:
344,320,156027,5,0,0:0:0:0:
424,148,156427,1,8,0:0:0:0:
336,184,156627,1,4,0:0:0:0:
264,124,156827,1,4,0:0:0:0:
308,40,157027,5,0,0:0:0:0:
308,40,157127,1,0,0:0:0:0:
308,40,157227,1,8,0:0:0:0:
264,124,157427,1,0,0:0:0:0:
172,96,157627,6,0,P|80:116|4:84,1,157.5,4|0,0:0|0:0,0:0:0:0:
68,80,158027,2,0,L|40:244,1,157.5,8|0,0:0|0:0,0:0:0:0:
21,287,158427,2,0,P|80:268|172:288,1,157.5,4|0,0:0|0:0,0:0:0:0:
168,232,158827,2,0,L|141:76,1,157.5,8|0,0:0|0:0,0:0:0:0:
104,48,159227,5,4,0:0:0:0:
124,140,159427,1,0,0:0:0:0:
216,156,159627,1,8,0:0:0:0:
288,92,159827,1,0,0:0:0:0:
336,12,160027,6,0,L|324:236,1,210,4|8,0:0|0:0,0:0:0:0:
172,332,160827,1,0,0:0:0:0:
124,140,161227,1,8,0:0:0:0:
316,92,161627,1,0,0:0:0:0:
360,284,162027,1,8,0:0:0:0:
248,216,162227,5,4,0:0:0:0:
248,216,162327,1,0,0:0:0:0:
248,216,162427,1,8,0:0:0:0:
360,284,162627,1,4,0:0:0:0:
360,284,162727,1,0,0:0:0:0:
360,284,162827,6,0,L|380:172,1,105,8|2,0:0|0:0,0:0:0:0:
316,92,163627,1,0,0:0:0:0:
256,192,163727,12,0,165227,0:0:0:0:
124,113,169627,5,2,0:0:0:0:
72,193,169827,1,0,0:0:0:0:
136,265,170027,1,0,1:0:0:0:
128,92,170427,5,2,0:0:0:0:
61,194,170627,1,0,0:0:0:0:
143,287,170827,1,0,1:0:0:0:
130,75,171227,5,2,0:0:0:0:
53,195,171427,1,0,0:0:0:0:
148,302,171627,1,0,1:0:0:0:
132,57,172027,5,2,0:0:0:0:
44,195,172227,1,0,0:0:0:0:
153,318,172427,1,0,1:0:0:0:
248,156,172827,5,4,0:0:0:0:
336,192,173027,1,0,0:0:0:0:
408,128,173227,1,0,1:0:0:0:
229,155,173627,5,2,0:0:0:0:
337,199,173827,1,0,0:0:0:0:
424,121,174027,1,0,1:0:0:0:
432,100,174427,5,4,0:0:0:0:
472,236,174627,1,4,0:0:0:0:
328,212,174827,6,0,L|302:248,4,26.25,4|0|0|0|4,0:0|0:0|0:0|0:0|0:0,0:0:0:0:
440,88,175227,2,0,L|454:66,4,26.25,4|0|0|0|4,0:0|0:0|0:0|0:0|0:0,0:0:0:0:
480,248,175627,2,0,L|500:272,4,26.25,4|0|0|0|4,0:0|0:0|0:0|0:0|0:0,0:0:0:0:
320,228,176027,5,4,0:0:0:0:
444,76,176227,1,4,0:0:0:0:
492,260,176427,2,0,L|539:304,4,26.25,4|0|0|0|4,0:0|0:0|0:0|0:0|0:0,0:0:0:0:
304,244,176827,2,0,L|254:294,4,26.25,4|0|0|0|4,0:0|0:0|0:0|0:0|0:0,0:0:0:0:
320,228,177627,6,0,P|264:272|152:248,1,157.5,4|0,0:0|0:0,0:0:0:0:
172,264,178027,2,0,L|154:124,1,105,8|0,0:0|0:0,0:0:0:0:
268,92,178427,1,0,0:0:0:0:
416,116,178627,1,0,0:0:0:0:
320,228,178827,1,8,0:0:0:0:
264,64,179027,6,0,L|284:236,1,157.5
320,228,179427,1,0,0:0:0:0:
416,116,179627,1,8,0:0:0:0:
232,44,179827,6,0,L|264:264,1,210
364,344,180427,1,8,0:0:0:0:
404,208,180627,1,0,0:0:0:0:
404,208,180727,1,0,0:0:0:0:
404,208,180827,6,0,P|308:208|252:280,1,157.5
264,256,181227,2,0,P|206:281|142:249,1,105,8|0,0:0|0:0,0:0:0:0:
88,168,181627,1,0,0:0:0:0:
212,120,181827,1,0,0:0:0:0:
214,115,181927,1,0,0:0:0:0:
217,111,182027,1,8,0:0:0:0:
220,106,182127,1,0,0:0:0:0:
223,102,182227,1,0,0:0:0:0:
225,97,182327,1,0,0:0:0:0:
228,93,182427,6,0,P|304:109|388:65,1,157.5,4|0,0:0|0:0,0:0:0:0:
420,64,182827,2,0,L|320:200,1,157.5,8|0,0:0|0:0,0:0:0:0:
408,144,183227,2,0,L|308:280,1,157.5,0|0,0:0|0:0,0:0:0:0:
396,224,183627,1,8,0:0:0:0:
296,68,183827,1,0,0:0:0:0:
296,68,183927,1,0,0:0:0:0:
296,68,184027,6,0,P|216:104|132:44,1,157.5,4|0,0:0|0:0,0:0:0:0:
116,56,184427,2,0,L|164:176,1,105,8|0,0:0|0:0,0:0:0:0:
82,333,184827,2,0,L|44:236,1,105
220,328,185227,1,8,0:0:0:0:
304,216,185427,1,0,0:0:0:0:
296,208,185527,1,0,0:0:0:0:
288,200,185627,6,0,P|208:184|120:232,1,157.5
120,256,186027,1,8,0:0:0:0:
252,136,186227,6,0,P|332:192|428:168,1,157.5,0|0,0:0|0:0,0:0:0:0:
428,164,186627,1,0,0:0:0:0:
356,56,186827,1,8,0:0:0:0:
428,164,187027,1,0,0:0:0:0:
432,172,187127,1,0,0:0:0:0:
437,179,187227,6,0,L|429:355,1,157.5,4|0,0:0|0:0,0:0:0:0:
388,348,187627,1,8,0:0:0:0:
284,260,187827,1,0,0:0:0:0:
259,293,187927,1,2,0:0:0:0:
223,315,188027,1,2,0:0:0:0:
182,324,188127,1,2,0:0:0:0:
141,318,188227,1,2,0:0:0:0:
105,297,188327,1,2,0:0:0:0:
64,276,188427,5,0,1:0:0:0:
62,249,188527,1,2,0:0:0:0:
60,223,188627,1,2,0:0:0:0:
59,197,188727,1,2,0:0:0:0:
57,171,188827,6,0,L|16:88,1,70,0|0,1:0|1:0,0:0:0:0:
124,116,189093,2,0,L|83:33,1,70,0|0,1:0|0:0,0:0:0:0:
192,68,189360,2,0,L|168:12,4,35,0|0|0|0|0,1:0|0:0|1:0|0:0|1:0,0:0:0:0:
248,166,189827,5,0,0:0:0:0:
260,175,189927,1,0,0:0:0:0:
274,183,190027,1,0,0:0:0:0:
289,188,190127,1,0,0:0:0:0:
304,189,190227,1,0,0:0:0:0:
320,188,190327,1,0,0:0:0:0:
335,184,190427,5,0,1:0:0:0:
348,172,190827,6,0,L|336:308,1,105,4|0,0:0|0:0,0:0:0:0:
408,344,191227,2,0,P|352:372|288:348,1,105,0|0,0:0|0:0,0:0:0:0:
432,252,191627,1,8,0:0:0:0:
256,304,191827,6,0,P|160:292|80:340,1,157.5
76,352,192227,1,0,0:0:0:0:
204,180,192427,1,8,0:0:0:0:
312,364,192627,2,0,P|352:372|408:344,1,105
256,304,193027,1,0,0:0:0:0:
432,252,193227,1,8,0:0:0:0:
296,128,193427,1,0,0:0:0:0:
296,128,193527,1,0,0:0:0:0:
296,128,193627,6,0,P|208:160|120:116,1,157.5,4|0,0:0|0:0,0:0:0:0:
128,100,194027,2,0,L|116:208,1,105,8|0,0:0|0:0,0:0:0:0:
140,312,194427,5,0,0:0:0:0:
224,200,194627,1,0,0:0:0:0:
224,200,194727,1,0,0:0:0:0:
224,200,194827,1,8,0:0:0:0:
92,188,195027,1,0,0:0:0:0:
140,312,195227,6,0,P|220:336|284:308,1,157.5,4|0,0:0|0:0,0:0:0:0:
256,268,195627,2,0,L|380:332,1,105,8|0,0:0|0:0,0:0:0:0:
496,152,196027,2,0,P|408:128|328:176,1,157.5
336,200,196427,2,0,L|242:151,1,105,8|0,0:0|0:0,0:0:0:0:
232,144,196727,1,0,0:0:0:0:
224,136,196827,6,0,P|152:156|56:116,1,157.5,4|0,0:0|0:0,0:0:0:0:
44,96,197227,1,8,0:0:0:0:
244,88,197427,2,0,L|232:224,1,105
320,36,197827,1,0,0:0:0:0:
200,240,198027,2,0,L|210:136,1,105,8|0,0:0|0:0,0:0:0:0:
276,304,198427,6,0,P|200:340|112:292,1,157.5
120,312,198827,2,0,L|104:200,1,105,8|0,0:0|0:0,0:0:0:0:
200,48,199227,2,0,L|214:151,1,105
200,240,199627,1,8,0:0:0:0:
120,144,199827,1,0,0:0:0:0:
128,140,199927,1,0,0:0:0:0:
136,136,200027,6,0,P|224:120|296:176,1,157.5,4|0,0:0|0:0,0:0:0:0:
292,164,200427,2,0,P|360:187|420:163,1,105,8|0,0:0|0:0,0:0:0:0:
144,100,200827,6,0,P|232:84|304:140,1,157.5,4|0,0:0|0:0,0:0:0:0:
300,128,201227,2,0,P|368:151|428:127,1,105,8|0,0:0|0:0,0:0:0:0:
152,56,201627,5,0,0:0:0:0:
150,71,201727,1,0,0:0:0:0:
148,87,201827,1,4,0:0:0:0:
146,102,201927,1,4,0:0:0:0:
145,118,202027,1,0,1:0:0:0:
143,134,202127,1,0,0:0:0:0:
141,149,202227,1,4,0:0:0:0:
128,244,202427,1,0,0:0:0:0:
220,352,202627,5,0,0:0:0:0:
264,220,202827,1,4,0:0:0:0:
128,244,203027,1,0,0:0:0:0:
220,352,203227,6,0,P|304:356|372:288,1,157.5,4|0,0:0|0:0,0:0:0:0:
376,292,203627,2,0,L|360:176,1,105,8|0,0:0|0:0,0:0:0:0:
444,296,204027,6,0,P|384:268|292:304,1,157.5
284,284,204427,2,0,P|231:305|183:293,1,105,8|0,0:0|0:0,0:0:0:0:
224,164,204827,5,0,0:0:0:0:
172,304,205027,1,0,0:0:0:0:
140,148,205227,2,0,P|236:188|304:136,1,157.5,8|0,0:0|0:0,0:0:0:0:
332,124,205627,2,0,L|344:240,1,105
484,332,206027,2,0,L|473:227,1,105,8|0,0:0|0:0,0:0:0:0:
388,52,206427,6,0,P|332:32|244:88,1,157.5
220,124,206827,2,0,L|104:72,1,105,8|0,0:0|0:0,0:0:0:0:
44,192,207227,5,0,0:0:0:0:
164,124,207427,1,0,0:0:0:0:
40,56,207627,2,0,P|52:120|24:192,1,105,8|0,0:0|0:0,0:0:0:0:
32,180,207927,1,0,0:0:0:0:
20,196,208027,6,0,L|92:284,1,105
212,220,208427,1,8,0:0:0:0:
284,336,208627,1,4,0:0:0:0:
251,353,208727,1,0,0:0:0:0:
215,357,208827,1,0,0:0:0:0:
212,220,209027,5,4,0:0:0:0:
261,203,209127,1,0,0:0:0:0:
312,213,209227,1,0,0:0:0:0:
351,247,209327,1,0,0:0:0:0:
372,240,209427,5,0,0:0:0:0:
380,215,209527,1,0,0:0:0:0:
389,190,209627,2,0,L|408:352,1,157.5,4|0,0:0|0:0,0:0:0:0:
480,360,210027,2,0,L|464:236,1,105,8|0,0:0|0:0,0:0:0:0:
428,124,210427,6,0,P|372:164|272:120,1,157.5
272,96,210827,2,0,L|168:52,1,105,8|0,0:0|0:0,0:0:0:0:
36,180,211227,2,0,P|92:140|192:184,1,157.5
192,208,211627,2,0,L|296:252,1,105,8|0,0:0|0:0,0:0:0:0:
400,328,212027,5,0,0:0:0:0:
312,224,212227,1,0,0:0:0:0:
264,352,212427,1,8,0:0:0:0:
400,328,212627,1,0,0:0:0:0:
400,328,212727,1,0,0:0:0:0:
400,328,212827,6,0,L|420:200,1,105
340,48,213227,2,0,L|323:151,1,105,8|0,0:0|0:0,0:0:0:0:
224,316,213627,2,0,P|148:292|68:352,1,157.5
72,340,214027,2,0,L|64:229,1,105,8|0,0:0|0:0,0:0:0:0:
104,104,214427,5,0,0:0:0:0:
141,139,214527,1,0,0:0:0:0:
192,148,214627,1,0,0:0:0:0:
240,128,214727,1,0,0:0:0:0:
272,100,214827,6,0,L|300:36,2,52.5,4|0|0,0:0|0:0|0:0,0:0:0:0:
420,192,215227,2,0,L|448:256,2,52.5,0|4|0,0:0|0:0|0:0,0:0:0:0:
268,272,215627,1,4,0:0:0:0:
233,259,215727,1,0,0:0:0:0:
197,258,215827,1,4,0:0:0:0:
162,269,215927,1,0,0:0:0:0:
133,292,216027,5,2,0:0:0:0:
